<?xml version="1.0" standalone="no"?>
<!DOCTYPE svg PUBLIC "-//W3C//DTD SVG 1.1//EN" "http://www.w3.org/Graphics/SVG/1.1/DTD/svg11.dtd" >
<svg>
<metadata>
Created by FontForge 20090914 at Fri Nov 25 14:23:35 2022
 By www-data
Copyright 2019 The Work Sans Project Authors (https://github.com/weiweihuanghuang/Work-Sans)
</metadata>
<defs>
<font id="WorkSans-Bold" horiz-adv-x="579" >
  <font-face 
    font-family="Work Sans"
    font-weight="700"
    font-stretch="normal"
    units-per-em="1000"
    panose-1="0 0 0 0 0 0 0 0 0 0"
    ascent="800"
    descent="-200"
    x-height="500"
    cap-height="660"
    bbox="-257 -341.006 1325 1098"
    underline-thickness="50"
    underline-position="-75"
    unicode-range="U+000D-U+FB02"
  />
<missing-glyph horiz-adv-x="500" 
d="M130 80v500h240v-500h-240zM50 0h400v660h-400v-660z" />
    <glyph glyph-name="fi" unicode="fi" horiz-adv-x="706" 
d="M294 726c27.333 0 51.332 -2.83496 71.999 -8.50195s36 -12.167 46 -19.5l-17 -106c-7.33301 4.66699 -15.666 8.33398 -24.999 11.001s-21 4 -35 4c-23.333 0 -42.5 -5.33301 -57.5 -16s-22.5 -29.334 -22.5 -56.001v-65l10 -28v-442h-170v546
c0 32 5.16699 59.333 15.5 82s24.833 41.334 43.5 56.001s40 25.334 64 32.001s49.333 10 76 10zM406.999 499.998v-121h-392v121h392zM560.999 557.998c-34.667 0 -59.834 6.5 -75.501 19.5s-23.5 33.5 -23.5 61.5c0 28.667 7.83301 49.5 23.5 62.5
s40.834 19.5 75.501 19.5c34 0 59 -6.5 75 -19.5s24 -33.833 24 -62.5c0 -28 -8 -48.5 -24 -61.5s-41 -19.5 -75 -19.5zM645.999 499.998v-500h-170v500h170z" />
    <glyph glyph-name="fl" unicode="fl" horiz-adv-x="742" 
d="M294 726c27.333 0 51.332 -2.83496 71.999 -8.50195s36 -12.167 46 -19.5l-17 -106c-7.33301 4.66699 -15.666 8.33398 -24.999 11.001s-21 4 -35 4c-23.333 0 -42.5 -5.33301 -57.5 -16s-22.5 -29.334 -22.5 -56.001v-65l10 -28v-442h-170v546
c0 32 5.16699 59.333 15.5 82s24.833 41.334 43.5 56.001s40 25.334 64 32.001s49.333 10 76 10zM406.999 499.998v-121h-392v121h392zM643.999 711.998l0.000976562 -542c0 -22 3.66699 -37.667 11 -47s19.666 -14 36.999 -14c10 0 18.333 0.666992 25 2
s14.667 3.33301 24 6l-11 -102c-12 -7.33301 -27.667 -13.333 -47 -18s-38.333 -7 -57 -7c-53.333 0 -92 12.333 -116 37s-36 65 -36 121v564h170z" />
    <glyph glyph-name="f_f" unicode="ff" horiz-adv-x="817" 
d="M294 726c27.333 0 51.332 -2.83496 71.999 -8.50195s36 -12.167 46 -19.5l-17 -106c-7.33301 4.66699 -15.666 8.33398 -24.999 11.001s-21 4 -35 4c-23.333 0 -42.5 -5.33301 -57.5 -16s-22.5 -29.334 -22.5 -56.001v-65l10 -28v-442h-170v546
c0 32 5.16699 59.333 15.5 82s24.833 41.334 43.5 56.001s40 25.334 64 32.001s49.333 10 76 10zM406.999 499.998v-121h-392v121h392zM695.999 725.998c27.333 0 51.332 -2.83496 71.999 -8.50195s36 -12.167 46 -19.5l-17 -106
c-7.33301 4.66699 -15.666 8.33398 -24.999 11.001s-21 4 -35 4c-23.333 0 -42.5 -5.33301 -57.5 -16s-22.5 -29.334 -22.5 -56.001v-65l10 -28v-442h-170v546c0 32 5.16699 59.333 15.5 82s24.833 41.334 43.5 56.001s40 25.334 64 32.001s49.333 10 76 10z
M808.998 499.996v-121h-392v121h392z" />
    <glyph glyph-name="f_f_i" unicode="ffi" horiz-adv-x="1108" 
d="M294 726c27.333 0 51.332 -2.83496 71.999 -8.50195s36 -12.167 46 -19.5l-17 -106c-7.33301 4.66699 -15.666 8.33398 -24.999 11.001s-21 4 -35 4c-23.333 0 -42.5 -5.33301 -57.5 -16s-22.5 -29.334 -22.5 -56.001v-65l10 -28v-442h-170v546
c0 32 5.16699 59.333 15.5 82s24.833 41.334 43.5 56.001s40 25.334 64 32.001s49.333 10 76 10zM406.999 499.998v-121h-392v121h392zM695.999 725.998c27.333 0 51.332 -2.83496 71.999 -8.50195s36 -12.167 46 -19.5l-17 -106
c-7.33301 4.66699 -15.666 8.33398 -24.999 11.001s-21 4 -35 4c-23.333 0 -42.5 -5.33301 -57.5 -16s-22.5 -29.334 -22.5 -56.001v-65l10 -28v-442h-170v546c0 32 5.16699 59.333 15.5 82s24.833 41.334 43.5 56.001s40 25.334 64 32.001s49.333 10 76 10z
M808.998 499.996v-121h-392v121h392zM962.998 557.996c-34.667 0 -59.834 6.5 -75.501 19.5s-23.5 33.5 -23.5 61.5c0 28.667 7.83301 49.5 23.5 62.5s40.834 19.5 75.501 19.5c34 0 59 -6.5 75 -19.5s24 -33.833 24 -62.5c0 -28 -8 -48.5 -24 -61.5s-41 -19.5 -75 -19.5z
M1048 499.996v-500h-170v500h170z" />
    <glyph glyph-name="f_f_l" unicode="ffl" horiz-adv-x="1144" 
d="M294 726c27.333 0 51.332 -2.83496 71.999 -8.50195s36 -12.167 46 -19.5l-17 -106c-7.33301 4.66699 -15.666 8.33398 -24.999 11.001s-21 4 -35 4c-23.333 0 -42.5 -5.33301 -57.5 -16s-22.5 -29.334 -22.5 -56.001v-65l10 -28v-442h-170v546
c0 32 5.16699 59.333 15.5 82s24.833 41.334 43.5 56.001s40 25.334 64 32.001s49.333 10 76 10zM406.999 499.998v-121h-392v121h392zM695.999 725.998c27.333 0 51.332 -2.83496 71.999 -8.50195s36 -12.167 46 -19.5l-17 -106
c-7.33301 4.66699 -15.666 8.33398 -24.999 11.001s-21 4 -35 4c-23.333 0 -42.5 -5.33301 -57.5 -16s-22.5 -29.334 -22.5 -56.001v-65l10 -28v-442h-170v546c0 32 5.16699 59.333 15.5 82s24.833 41.334 43.5 56.001s40 25.334 64 32.001s49.333 10 76 10z
M808.998 499.996v-121h-392v121h392zM1046 711.996l0.000976562 -542c0 -22 3.66699 -37.667 11 -47s19.666 -14 36.999 -14c10 0 18.333 0.666992 25 2s14.667 3.33301 24 6l-11 -102c-12 -7.33301 -27.667 -13.333 -47 -18s-38.333 -7 -57 -7
c-53.333 0 -92 12.333 -116 37s-36 65 -36 121v564h170z" />
    <glyph glyph-name=".notdef" horiz-adv-x="500" 
d="M130 80v500h240v-500h-240zM50 0h400v660h-400v-660z" />
    <glyph glyph-name="NULL" horiz-adv-x="0" 
 />
    <glyph glyph-name="NULL" horiz-adv-x="0" 
 />
    <glyph glyph-name="CR" unicode="&#xd;" horiz-adv-x="286" 
 />
    <glyph glyph-name="space" unicode=" " horiz-adv-x="286" 
 />
    <glyph glyph-name="exclam" unicode="!" horiz-adv-x="301" 
d="M239 660v-213l-19 -232h-139l-19 232v213h177zM150 159c30.667 0 54.5 -7.33301 71.5 -22s25.5 -35.334 25.5 -62.001c0 -26 -8.5 -46.333 -25.5 -61s-40.833 -22 -71.5 -22c-29.333 0 -52.666 7.33301 -69.999 22s-26 35 -26 61c0 26.667 8.66699 47.334 26 62.001
s40.666 22 69.999 22z" />
    <glyph glyph-name="quotedbl" unicode="&#x22;" horiz-adv-x="447" 
d="M403 678l-29 -277h-113v277h142zM205 678l-29 -277h-113v277h142z" />
    <glyph glyph-name="numbersign" unicode="#" horiz-adv-x="688" 
d="M572 660l-107 -660h-115l106 660h116zM619 261v-102h-593v102h593zM327 660l-106 -660h-116l106 660h116zM662 501v-102h-593v102h593z" />
    <glyph glyph-name="dollar" unicode="$" horiz-adv-x="641" 
d="M327 0c-43.333 0 -84.167 4.83203 -122.5 14.499s-73.166 23.167 -104.499 40.5s-57.666 37.333 -78.999 60l81 112c16 -22 36.833 -40.667 62.5 -56s53.667 -27 84 -35s59.5 -12 87.5 -12c35.333 0 63 5.33301 83 16s30 26.667 30 48c0 14 -6 25.667 -18 35
s-32.667 17.333 -62 24l-135 32c-36 8.66699 -67.833 20.334 -95.5 35.001s-49.334 33.5 -65.001 56.5s-23.5 50.167 -23.5 81.5c0 40.667 11 76.667 33 108s53.667 55.833 95 73.5s91 26.5 149 26.5c59.333 0 111.833 -9 157.5 -27s85.167 -45.333 118.5 -82l-78 -101
c-27.333 29.333 -57.833 51.5 -91.5 66.5s-72.167 22.5 -115.5 22.5c-26.667 0 -48.334 -2.83301 -65.001 -8.5s-29 -13.334 -37 -23.001s-12 -20.5 -12 -32.5c0 -10 2.5 -19 7.5 -27s14.667 -15.167 29 -21.5s35.5 -12.833 63.5 -19.5l109 -24
c63.333 -14 110 -34.5 140 -61.5s45 -64.167 45 -111.5c0 -45.333 -11.667 -83.666 -35 -114.999s-55.5 -55 -96.5 -71s-87.5 -24 -139.5 -24zM274.999 -88.001v836h105v-836h-105z" />
    <glyph glyph-name="percent" unicode="%" horiz-adv-x="938" 
d="M175 0l459 661h130l-459 -661h-130zM216 670c38 0 70.833 -7.83301 98.5 -23.5s49.167 -37.5 64.5 -65.5s23 -61 23 -99s-7.66699 -71 -23 -99s-36.833 -49.833 -64.5 -65.5s-60.5 -23.5 -98.5 -23.5c-37.333 0 -69.833 7.83301 -97.5 23.5s-49.334 37.5 -65.001 65.5
s-23.5 61 -23.5 99s7.83301 71 23.5 99s37.334 49.833 65.001 65.5s60.167 23.5 97.5 23.5zM216 556c-12.667 0 -23.334 -2.83301 -32.001 -8.5s-15.334 -14 -20.001 -25s-7 -24.5 -7 -40.5c0 -15.333 2.33301 -28.666 7 -39.999s11.334 -19.833 20.001 -25.5
s19.334 -8.5 32.001 -8.5c13.333 0 24.333 2.83301 33 8.5s15.334 14.167 20.001 25.5s7 24.666 7 39.999c0 16 -2.33301 29.5 -7 40.5s-11.334 19.333 -20.001 25s-19.667 8.5 -33 8.5zM721 366c37.333 0 70 -7.83301 98 -23.5s49.667 -37.5 65 -65.5s23 -61 23 -99
s-7.66699 -71 -23 -99s-37 -49.833 -65 -65.5s-60.667 -23.5 -98 -23.5s-70 7.83301 -98 23.5s-49.667 37.5 -65 65.5s-23 61 -23 99s7.66699 71 23 99s37 49.833 65 65.5s60.667 23.5 98 23.5zM721 252c-12.667 0 -23.5 -2.83301 -32.5 -8.5s-15.833 -14 -20.5 -25
s-7 -24.5 -7 -40.5c0 -15.333 2.33301 -28.666 7 -39.999s11.5 -19.833 20.5 -25.5s19.833 -8.5 32.5 -8.5c13.333 0 24.333 2.83301 33 8.5s15.334 14.167 20.001 25.5s7 24.666 7 39.999c0 16 -2.33301 29.5 -7 40.5s-11.334 19.333 -20.001 25s-19.667 8.5 -33 8.5z" />
    <glyph glyph-name="ampersand" unicode="&#x26;" horiz-adv-x="646" 
d="M257 -10c-46 0 -86.334 7 -121.001 21s-61.667 34.5 -81 61.5s-29.333 60.167 -30 99.5c0 18 2.83301 36.833 8.5 56.5s15.5 38.667 29.5 57s33.5 34.333 58.5 48s56.833 23.834 95.5 30.501l31 9c28.667 17.333 50.834 32.833 66.501 46.5s26.667 27 33 40
s9.5 27.5 9.5 43.5c0 17.333 -5.16699 30.833 -15.5 40.5s-24.5 14.5 -42.5 14.5c-19.333 0 -34.333 -5.66699 -45 -17s-16 -26.333 -16 -45c0 -10.667 1.83301 -21 5.5 -31s11 -22.333 22 -37s26.833 -33.667 47.5 -57l81 -91l84 -89.5
c22.667 -23.667 42.5 -41.834 59.5 -54.501s33.5 -20.834 49.5 -24.501s34.333 -4.5 55 -2.5l-15 -119c-27.333 0 -51.666 2 -72.999 6s-43 12.5 -65 25.5s-47 32.167 -75 57.5s-62.333 59.333 -103 102l-112 119.5c-28.667 31.667 -50.667 58.5 -66 80.5
s-25.833 42.333 -31.5 61s-8.5 38.334 -8.5 59.001c0 28 7.16699 54.833 21.5 80.5s36.5 46.834 66.5 63.501s69 25 117 25c44.667 0 81.167 -7.33301 109.5 -22s49.333 -33.834 63 -57.501s20.5 -48.834 20.5 -75.501c0 -30 -7 -57.667 -21 -83s-35.667 -47.5 -65 -66.5
s-67.666 -34.833 -114.999 -47.5l-31 -17c-22.667 -13.333 -40.5 -25.666 -53.5 -36.999s-22 -23.166 -27 -35.499s-7.5 -26.833 -7.5 -43.5s4.66699 -31.334 14 -44.001s22.166 -22.5 38.499 -29.5s35.166 -10.5 56.499 -10.5c31.333 0 58.666 5 81.999 15s46 23 68 39
l14 21c12.667 21.333 22.834 45 30.501 71s10.834 56.667 9.50098 92l114 -3c0 -42.667 -6.83301 -82.5 -20.5 -119.5s-33.834 -69.167 -60.501 -96.5l-30 -24c-22 -32.667 -52.333 -58.5 -91 -77.5s-85 -28.5 -139 -28.5z" />
    <glyph glyph-name="quotesingle" unicode="'" horiz-adv-x="250" 
d="M205 678l-29 -277h-113v277h142z" />
    <glyph glyph-name="parenleft" unicode="(" horiz-adv-x="391" 
d="M301 736l80 -77.9971c-37.333 -34 -68 -70 -92 -108s-41.5 -79.5 -52.5 -124.5s-16.5 -95.833 -16.5 -152.5s5.5 -107.834 16.5 -153.501s28.5 -87.334 52.5 -125.001s54.667 -73.5 92 -107.5l-80 -78c-76.667 51.333 -134.834 115.5 -174.501 192.5
s-59.5 167.5 -59.5 271.5c0 102.667 19.833 192.667 59.5 270s97.834 141.666 174.501 192.999z" />
    <glyph glyph-name="parenright" unicode=")" horiz-adv-x="391" 
d="M90 -191l-80 77.9971c38 34 68.833 69.833 92.5 107.5s40.834 79.334 51.501 125.001s16 96.5 16 152.5c0 56.667 -5.33301 107.667 -16 153s-27.834 87 -51.501 125s-54.5 74 -92.5 108l80 78c76 -51.333 134 -115.666 174 -192.999s60 -167.666 60 -270.999
s-20 -193.5 -60 -270.5s-98 -141.167 -174 -192.5z" />
    <glyph glyph-name="asterisk" unicode="*" horiz-adv-x="588" 
d="M322 502l84 -78l83 -109l-98 -71l-78 113l-47 103l28 21zM266 502l28 -21l28 -21l-48 -103l-78 -113l-97 71l83 109zM76 615l129 -45l100 -56l-11 -33l-11 -33l-114 13l-130 39zM354 730l-3 -137l-22 -112h-35h-35l-22 112l-4 137h121zM513 615l37 -115l-132 -39
l-113 -13l-11 33l-11 33l100 56z" />
    <glyph glyph-name="plus" unicode="+" horiz-adv-x="604" 
d="M370 589v-529h-135v529h135zM553 386v-122h-502v122h502z" />
    <glyph glyph-name="comma" unicode="," horiz-adv-x="290" 
d="M142 172c24.667 0 44.998 -5.66602 60.998 -16.999s27.833 -26.166 35.5 -44.499s11.5 -38.833 11.5 -61.5c0 -30 -6.5 -58.833 -19.5 -86.5s-30 -52 -51 -73s-43.833 -36.833 -68.5 -47.5l-69 51c18.667 7.33301 35.834 16.666 51.501 27.999
s29.334 23.666 41.001 36.999s20.5 27 26.5 41l-5 3c-3.33301 -2.66699 -7.66602 -4.66699 -12.999 -6s-12.333 -2 -21 -2c-12 0 -24.167 3 -36.5 9s-22.666 15 -30.999 27s-12.5 27.333 -12.5 46c0 21.333 4.66699 39 14 53s21.666 24.667 36.999 32s31.666 11 48.999 11z
" />
    <glyph glyph-name="hyphen" unicode="-" horiz-adv-x="528" 
d="M447 337v-139h-366v139h366z" />
    <glyph glyph-name="period" unicode="." horiz-adv-x="290" 
d="M145 172c31.333 0 55.833 -8 73.5 -24s26.5 -38.333 26.5 -67c0 -28 -8.83301 -50 -26.5 -66s-42.167 -24 -73.5 -24c-30.667 0 -55 8 -73 24s-27 38 -27 66c0 28.667 9 51 27 67s42.333 24 73 24z" />
    <glyph glyph-name="slash" unicode="/" horiz-adv-x="468" 
d="M453 712l-280 -782h-158l280 782h158z" />
    <glyph glyph-name="zero" unicode="0" horiz-adv-x="644" 
d="M322 -10c-90 0 -158.167 28.667 -204.5 86s-69.5 142 -69.5 254s23.167 196.667 69.5 254s114.5 86 204.5 86s158.167 -28.667 204.5 -86s69.5 -142 69.5 -254s-23.167 -196.667 -69.5 -254s-114.5 -86 -204.5 -86zM322 124c24.667 0 44.667 6.83301 60 20.5
s26.5 35.667 33.5 66s10.5 70.166 10.5 119.499s-3.5 89.166 -10.5 119.499s-18.167 52.333 -33.5 66s-35.333 20.5 -60 20.5c-24 0 -43.833 -6.83301 -59.5 -20.5s-27 -35.667 -34 -66s-10.5 -70.166 -10.5 -119.499s3.5 -89.166 10.5 -119.499s18.333 -52.333 34 -66
s35.5 -20.5 59.5 -20.5z" />
    <glyph glyph-name="one" unicode="1" horiz-adv-x="431" 
d="M191 0l0.000976562 380.003c0 17.333 0.166992 35.166 0.5 53.499s0.5 37.166 0.5 56.499c-22 -20 -46.333 -37.5 -73 -52.5s-54.667 -25.167 -84 -30.5l-16 142c17.333 1.33301 35.833 5.66602 55.5 12.999s39.167 16.333 58.5 27s36.666 22.167 51.999 34.5
s27 24.5 35 36.5h137v-660h-166z" />
    <glyph glyph-name="two" unicode="2" horiz-adv-x="596" 
d="M60 0v109.999c56.667 35.333 105 68.333 145 99s72.5 59.667 97.5 87s43.5 53.333 55.5 78s18 48.667 18 72c0 25.333 -7.5 46.5 -22.5 63.5s-37.167 25.5 -66.5 25.5c-31.333 0 -55.666 -11.5 -72.999 -34.5s-26.666 -56.5 -27.999 -100.5l-147 45
c1.33301 49.333 13.166 90.666 35.499 123.999s52.833 58.5 91.5 75.5s82.667 25.5 132 25.5c43.333 0 80.833 -6.16699 112.5 -18.5s57.5 -28.666 77.5 -48.999s34.833 -43 44.5 -68s14.5 -50.5 14.5 -76.5c0 -42.667 -11 -82.5 -33 -119.5s-53.833 -72.667 -95.5 -107
s-92.167 -68.833 -151.5 -103.5v-1c11.333 0.666992 24.666 1.33398 39.999 2.00098s31.333 1.16699 48 1.5s31.667 0.5 45 0.5h155v-131h-495z" />
    <glyph glyph-name="three" unicode="3" horiz-adv-x="593" 
d="M301 -10c-70.667 0 -129.5 13.832 -176.5 41.499s-79.5 68.167 -97.5 121.5l158 68c3.33301 -24 9.5 -43.167 18.5 -57.5s21.167 -24.666 36.5 -30.999s33.333 -9.5 54 -9.5c18.667 0 34.5 3.16699 47.5 9.5s23.167 15.5 30.5 27.5s11 26.333 11 43
c0 17.333 -3.5 31.333 -10.5 42s-17 18.334 -30 23.001s-28.833 7 -47.5 7c-8.66699 0 -16.667 -0.166992 -24 -0.5s-15.666 -1.16602 -24.999 -2.49902v112c5.33301 -0.666992 10.666 -1.16699 15.999 -1.5s11.666 -0.5 18.999 -0.5c31.333 0 53.833 6.5 67.5 19.5
s20.5 33.5 20.5 61.5c0 24 -6.83301 42.333 -20.5 55s-32.834 19 -57.501 19c-26 0 -47.333 -6.83301 -64 -20.5s-27.334 -36.834 -32.001 -69.501l-151 52c7.33301 36.667 23 67.667 47 93s54.167 44.666 90.5 57.999s76.5 20 120.5 20
c50.667 0 93.334 -7.33301 128.001 -22s61 -35.667 79 -63s27 -59.333 27 -96c0 -28.667 -4.5 -52.667 -13.5 -72s-20.333 -35 -34 -47s-27.5 -20.833 -41.5 -26.5s-25.667 -9.16699 -35 -10.5v-3c12 0 25.667 -2.33301 41 -7s30.333 -12.167 45 -22.5
s26.834 -24.5 36.501 -42.5s14.5 -40.333 14.5 -67c0 -41.333 -10.833 -77 -32.5 -107s-51.167 -53.167 -88.5 -69.5s-79.666 -24.5 -126.999 -24.5z" />
    <glyph glyph-name="four" unicode="4" horiz-adv-x="646" 
d="M365 0v145h-322v108c6 10.667 13.833 23.667 23.5 39l34.5 53l215 315h201v-397h101v-118h-101v-145h-152zM181 263l185.999 0.000976562v200c0 13.333 0.333008 27.166 1 41.499l2 43.5h-2c-6.66699 -14 -14.5 -28.5 -23.5 -43.5s-17.5 -28.5 -25.5 -40.5l-117 -171
c-3.33301 -5.33301 -6.66602 -10.333 -9.99902 -15z" />
    <glyph glyph-name="five" unicode="5" horiz-adv-x="583" 
d="M286 -10c-57.333 0 -107.167 11.1689 -149.5 33.502s-77.833 58.833 -106.5 109.5l151 75c7.33301 -26.667 19.166 -48 35.499 -64s40.833 -24 73.5 -24c20.667 0 38.334 3.66699 53.001 11s26.167 18.166 34.5 32.499s12.5 31.833 12.5 52.5
c0 20 -3.83301 36.667 -11.5 50s-18.834 23.5 -33.501 30.5s-33 10.5 -55 10.5c-16 0 -30.333 -1.5 -43 -4.5s-24.167 -7.33301 -34.5 -13s-19.833 -12.834 -28.5 -21.501l-130 24l42 368h416v-133h-291l-17 -132l-3 -16h1c13.333 15.333 32 27 56 35s50.667 12 80 12
c43.333 0 80.333 -8.66699 111 -26s54.334 -41 71.001 -71s25 -64.333 25 -103c0 -40.667 -6.83301 -75.834 -20.5 -105.501s-32.667 -54.167 -57 -73.5s-52 -33.666 -83 -42.999s-63.833 -14 -98.5 -14z" />
    <glyph glyph-name="six" unicode="6" horiz-adv-x="616" 
d="M342 670c35.333 0 68.1699 -4.66895 98.5029 -14.002s56.833 -24.666 79.5 -45.999s39.667 -50 51 -86l-140 -66c-6.66699 23.333 -18.167 41.833 -34.5 55.5s-38.166 20.5 -65.499 20.5c-18.667 0 -35.834 -4.5 -51.501 -13.5s-29.167 -21.833 -40.5 -38.5
s-19.833 -37 -25.5 -61s-8.5 -51 -8.5 -81v-6.5v-9.5l2 -6c8 20 20.5 36.833 37.5 50.5s36.5 24.167 58.5 31.5s44 11 66 11c40.667 0 77 -8 109 -24s57.167 -38.833 75.5 -68.5s27.5 -65.5 27.5 -107.5c0 -45.333 -10.333 -84.5 -31 -117.5s-49.334 -58.5 -86.001 -76.5
s-80.334 -27 -131.001 -27c-56.667 0 -106.5 12.5 -149.5 37.5s-76.333 62.333 -100 112s-35.5 111.167 -35.5 184.5c0 78.667 13 143.334 39 194.001s61.167 88.667 105.5 114s94.166 38 149.499 38zM330.004 294.998c-17.333 0 -33.167 -3.50195 -47.5 -10.502
s-25.666 -17.167 -33.999 -30.5s-12.5 -29 -12.5 -47c0 -17.333 4.33301 -32.666 13 -45.999s20 -23.666 34 -30.999s29.667 -11 47 -11c30 0 53.167 7.66699 69.5 23s24.5 37 24.5 65c0 18.667 -3.66699 34.5 -11 47.5s-17.833 23 -31.5 30s-30.834 10.5 -51.501 10.5z" />
    <glyph glyph-name="seven" unicode="7" horiz-adv-x="608" 
d="M33 660l543.001 -0.000976562v-122c-54.667 -54 -97.834 -109.5 -129.501 -166.5s-54 -116.167 -67 -177.5s-19.5 -126 -19.5 -194h-170c0 72.667 9.16699 141.834 27.5 207.501s47 128.5 86 188.5s89.5 118 151.5 174l36 -45h-458v135z" />
    <glyph glyph-name="eight" unicode="8" horiz-adv-x="627" 
d="M313 668c50 0 93.334 -7.33594 130.001 -22.0029s65.167 -35.5 85.5 -62.5s30.5 -59.167 30.5 -96.5c0 -35.333 -8.66699 -65.666 -26 -90.999s-43 -44.666 -77 -57.999v-1c40 -13.333 71 -32.833 93 -58.5s33 -58.5 33 -98.5c0 -38.667 -10.833 -72.167 -32.5 -100.5
s-52.5 -50.333 -92.5 -66s-88 -23.5 -144 -23.5c-55.333 0 -103 7.83301 -143 23.5s-70.833 37.667 -92.5 66s-32.5 61.833 -32.5 100.5c0 40 11 72.833 33 98.5s53 45.167 93 58.5v1c-33.333 12.667 -59 31.834 -77 57.501s-27 56.167 -27 91.5
c0 37.333 10.167 69.5 30.5 96.5s49.166 47.833 86.499 62.5s80.333 22 129 22zM314.001 542.997c-26.667 0 -48 -6.66699 -64 -20s-24 -32 -24 -56c0 -23.333 8 -41.833 24 -55.5s37.333 -20.5 64 -20.5s47.834 6.83301 63.501 20.5s23.5 32.167 23.5 55.5
c0 24 -7.83301 42.667 -23.5 56s-36.834 20 -63.501 20zM314.001 114.997c21.333 0 39.502 3.16699 54.502 9.5s26.5 15.833 34.5 28.5s12 27.334 12 44.001c0 17.333 -4 32.166 -12 44.499s-19.667 21.666 -35 27.999s-33.333 9.5 -54 9.5s-38.834 -3.16699 -54.501 -9.5
s-27.5 -15.666 -35.5 -27.999s-12 -27.166 -12 -44.499c0 -16.667 4 -31.334 12 -44.001s19.667 -22.167 35 -28.5s33.666 -9.5 54.999 -9.5z" />
    <glyph glyph-name="nine" unicode="9" horiz-adv-x="616" 
d="M293 670c60.667 0 111.496 -12.835 152.496 -38.502s71.833 -63.5 92.5 -113.5s31 -112 31 -186c0 -80 -11.833 -145.167 -35.5 -195.5s-56.167 -87.333 -97.5 -111s-89 -35.5 -143 -35.5c-57.333 0 -107.166 11.5 -149.499 34.5s-73.833 59.5 -94.5 109.5l154 61
c5.33301 -23.333 15.5 -41.666 30.5 -54.999s35.833 -20 62.5 -20c20.667 0 38.667 4.16699 54 12.5s27.833 20.5 37.5 36.5s16.834 35.5 21.501 58.5s7 49.5 7 79.5v7.5v8.5h-3c-7.33301 -20 -19.333 -36.333 -36 -49s-35.667 -22.167 -57 -28.5s-43.333 -9.5 -66 -9.5
c-41.333 0 -78.166 8.5 -110.499 25.5s-57.5 41 -75.5 72s-27 67.167 -27 108.5c0 47.333 10.5 87.833 31.5 121.5s50.333 59.834 88 78.501s81.834 28 132.501 28zM292.996 537.998c-28.667 0 -51.5 -8 -68.5 -24s-25.5 -38.667 -25.5 -68
c0 -26.667 8.66699 -47.5 26 -62.5s40 -22.5 68 -22.5c18 0 34.167 3.66699 48.5 11s25.5 17.5 33.5 30.5s12 28.5 12 46.5c0 18.667 -4 34.5 -12 47.5s-19.167 23.167 -33.5 30.5s-30.5 11 -48.5 11z" />
    <glyph glyph-name="colon" unicode=":" horiz-adv-x="302" 
d="M151 510c31.333 0 55.833 -8 73.5 -24s26.5 -38.333 26.5 -67c0 -28 -8.83301 -50 -26.5 -66s-42.167 -24 -73.5 -24c-30.667 0 -55 8 -73 24s-27 38 -27 66c0 28.667 9 51 27 67s42.333 24 73 24zM151 172c31.333 0 55.833 -8 73.5 -24s26.5 -38.333 26.5 -67
c0 -28 -8.83301 -50 -26.5 -66s-42.167 -24 -73.5 -24c-30.667 0 -55 8 -73 24s-27 38 -27 66c0 28.667 9 51 27 67s42.333 24 73 24z" />
    <glyph glyph-name="semicolon" unicode=";" horiz-adv-x="302" 
d="M148 172c24.667 0 44.998 -5.66602 60.998 -16.999s27.833 -26.166 35.5 -44.499s11.5 -38.833 11.5 -61.5c0 -30 -6.5 -58.833 -19.5 -86.5s-30 -52 -51 -73s-43.833 -36.833 -68.5 -47.5l-69 51c18.667 7.33301 35.834 16.666 51.501 27.999
s29.334 23.666 41.001 36.999s20.5 27 26.5 41l-5 3c-3.33301 -2.66699 -7.66602 -4.66699 -12.999 -6s-12.333 -2 -21 -2c-12 0 -24.167 3 -36.5 9s-22.666 15 -30.999 27s-12.5 27.333 -12.5 46c0 21.333 4.66699 39 14 53s21.666 24.667 36.999 32s31.666 11 48.999 11z
M150.998 510.001c31.333 0 55.833 -8 73.5 -24s26.5 -38.333 26.5 -67c0 -28 -8.83301 -50 -26.5 -66s-42.167 -24 -73.5 -24c-30.667 0 -55 8 -73 24s-27 38 -27 66c0 28.667 9 51 27 67s42.333 24 73 24z" />
    <glyph glyph-name="less" unicode="&#x3c;" horiz-adv-x="604" 
d="M553 5l-490 218v147l490 218v-161l-358 -130l358 -130v-162z" />
    <glyph glyph-name="equal" unicode="=" horiz-adv-x="604" 
d="M539 483v-117h-474v117h474zM539 267v-117h-474v117h474z" />
    <glyph glyph-name="greater" unicode="&#x3e;" horiz-adv-x="604" 
d="M51 588l490 -218v-147l-490 -218v161l358 130l-358 130v162z" />
    <glyph glyph-name="question" unicode="?" horiz-adv-x="607" 
d="M308 670c49.333 0 93.3311 -6.83398 131.998 -20.501s69.167 -34.334 91.5 -62.001s33.5 -62.167 33.5 -103.5s-8.5 -74.833 -25.5 -100.5s-40 -45 -69 -58s-60.833 -21.5 -95.5 -25.5l-10 -86h-150l1 152c42 4 75.167 10.167 99.5 18.5s41.5 18.833 51.5 31.5
s15 27.667 15 45c0 15.333 -3.16699 28.333 -9.5 39s-15.666 18.667 -27.999 24s-28.5 8 -48.5 8c-28.667 0 -51.334 -8.5 -68.001 -25.5s-27.334 -42.167 -32.001 -75.5l-164 57c8.66699 34.667 23.834 65.834 45.501 93.501s51.334 49.334 89.001 65.001
s84.834 23.5 141.501 23.5zM291.998 158.999c30 0 53.5 -7.33301 70.5 -22s25.5 -35.334 25.5 -62.001c0 -26 -8.5 -46.333 -25.5 -61s-40.5 -22 -70.5 -22c-29.333 0 -52.5 7.33301 -69.5 22s-25.5 35 -25.5 61c0 26.667 8.5 47.334 25.5 62.001s40.167 22 69.5 22z" />
    <glyph glyph-name="at" unicode="@" horiz-adv-x="931" 
d="M466 -185c-61.333 0 -117.836 8.99707 -169.503 26.9971s-96.667 44.667 -135 80s-68 78.833 -89 130.5s-31.5 110.5 -31.5 176.5c0 64 11.167 122.667 33.5 176s53.5 99.5 93.5 138.5s87.167 69 141.5 90s113.833 31.5 178.5 31.5c59.333 0 113.333 -9.16699 162 -27.5
s90.667 -44.5 126 -78.5s62.5 -74.5 81.5 -121.5s28.5 -99.167 28.5 -156.5c0 -52 -6.66699 -96.333 -20 -133s-31.166 -66.334 -53.499 -89.001s-46.333 -39.334 -72 -50.001s-50.834 -16 -75.501 -16c-46 0 -80.833 11.5 -104.5 34.5s-34.834 52.833 -33.501 89.5
c-14.667 -34 -36 -60.667 -64 -80s-58.333 -29 -91 -29c-29.333 0 -55.5 7.5 -78.5 22.5s-41 36.833 -54 65.5s-19.5 62.667 -19.5 102c0 34 5 66.833 15 98.5s24.333 60.334 43 86.001s41.334 45.834 68.001 60.501s56.667 22 90 22c19.333 0 37.833 -3.5 55.5 -10.5
s33 -17.833 46 -32.5s21.833 -34 26.5 -58l22 92h146l-65 -285c-2 -8 -3.66699 -15.5 -5 -22.5s-2 -13.833 -2 -20.5c0 -18 4.33301 -30.667 13 -38s20 -11 34 -11c18 0 34.833 6.83301 50.5 20.5s28.334 35 38.001 64s14.5 66.167 14.5 111.5
c0 48.667 -7.66699 92.5 -23 131.5s-37.333 72.333 -66 100s-62.667 48.667 -102 63s-82.666 21.5 -129.999 21.5c-53.333 0 -102 -8.33301 -146 -25s-82.167 -41 -114.5 -73s-57.166 -70.333 -74.499 -115s-26 -94.334 -26 -149.001c0 -56.667 9 -106.167 27 -148.5
s42.833 -77.666 74.5 -105.999s68.334 -49.666 110.001 -63.999s86.167 -21.5 133.5 -21.5s86.166 5.83301 116.499 17.5s56.833 24.834 79.5 39.501l37 -62c-19.333 -12.667 -40 -24.167 -62 -34.5s-47.333 -18.666 -76 -24.999s-62.667 -9.5 -102 -9.5zM437.997 116.997
c20 0 37.501 7.99805 52.501 23.998s26.667 36.333 35 61s12.5 49.334 12.5 74.001c0 16.667 -2.66699 30.834 -8 42.501s-13 20.667 -23 27s-22.333 9.5 -37 9.5c-16.667 0 -31.334 -4.66699 -44.001 -14s-23.667 -21.666 -33 -36.999s-16.333 -32 -21 -50
s-7 -35.333 -7 -52c0 -18 2.83301 -33.333 8.5 -46s14 -22.334 25 -29.001s24.167 -10 39.5 -10z" />
    <glyph glyph-name="A" unicode="A" horiz-adv-x="677" 
d="M673 0h-177l-46 149h-226l-47 -149h-173l232 660h206zM256 266h162l-81 267z" />
    <glyph glyph-name="B" unicode="B" horiz-adv-x="684" 
d="M73 0v659.999h321c81.333 -0.666992 141.333 -16.167 180 -46.5s58 -74.166 58 -131.499c0 -37.333 -11 -69.5 -33 -96.5s-55.667 -44.167 -101 -51.5v-1c50.667 -6.66699 88.5 -24.167 113.5 -52.5s37.5 -62.5 37.5 -102.5c0 -56.667 -20 -100.5 -60 -131.5
s-100 -46.5 -180 -46.5h-336zM239 120.999l141 0.000976562c31.333 0 54.666 6.33301 69.999 19s23 31 23 55c0 23.333 -7.66699 41.166 -23 53.499s-38.666 18.5 -69.999 18.5h-141v-146zM239 390h125c61.333 0 92 24 92 72s-30.667 72 -92 72h-125v-144z" />
    <glyph glyph-name="C" unicode="C" horiz-adv-x="681" 
d="M658 189c-12.667 -46 -32.999 -83.833 -60.999 -113.5s-61.333 -51.334 -100 -65.001s-81.334 -20.5 -128.001 -20.5c-66.667 0 -124.334 13.5 -173.001 40.5s-86 65.833 -112 116.5s-39 111.667 -39 183s13 132.333 39 183s63.333 89.5 112 116.5s106 40.5 172 40.5
c46 0 88.333 -6.5 127 -19.5s71.334 -32.833 98.001 -59.5s45.667 -61 57 -103l-151 -61c-9.33301 41.333 -24.5 69.666 -45.5 84.999s-47.5 23 -79.5 23c-31.333 0 -58.5 -7.66699 -81.5 -23s-40.667 -38.166 -53 -68.499s-18.5 -68.166 -18.5 -113.499
c0 -44.667 5.66699 -82.334 17 -113.001s28.5 -53.667 51.5 -69s51.5 -23 85.5 -23c32 0 59.167 8.83301 81.5 26.5s37.5 44.834 45.5 81.501z" />
    <glyph glyph-name="D" unicode="D" horiz-adv-x="718" 
d="M353 660c103.333 0 182.5 -28.6689 237.5 -86.002s82.5 -138.666 82.5 -243.999s-27.5 -186.666 -82.5 -243.999s-134.167 -86 -237.5 -86h-280v660h280zM336 129.998c56 0 96.833 16.833 122.5 50.5s38.5 83.5 38.5 149.5s-12.833 115.833 -38.5 149.5
s-66.5 50.5 -122.5 50.5h-91v-400h91z" />
    <glyph glyph-name="E" unicode="E" horiz-adv-x="631" 
d="M73 0v660h514v-133h-342v-134h272v-125h-272v-135h355v-133h-527z" />
    <glyph glyph-name="F" unicode="F" horiz-adv-x="612" 
d="M586 527h-341v-140h272v-133h-272v-254h-172v660h513v-133z" />
    <glyph glyph-name="G" unicode="G" horiz-adv-x="723" 
d="M346 -10c-58.667 0 -110.834 12.9971 -156.501 38.9971s-81.167 64.333 -106.5 115s-38 112.334 -38 185.001c0 71.333 13.333 132.333 40 183s64.834 89.667 114.501 117s108.167 41 175.5 41c74.667 0 135 -13.5 181 -40.5s81.667 -69.833 107 -128.5l-159 -63
c-8.66699 34 -24 58.667 -46 74s-49.333 23 -82 23s-60.667 -7.83301 -84 -23.5s-41 -38.667 -53 -69s-18 -67.833 -18 -112.5c0 -46.667 6.16699 -85.667 18.5 -117s30.666 -54.5 54.999 -69.5s54.5 -22.5 90.5 -22.5c19.333 0 37 2.33301 53 7s30 11.5 42 20.5
s21.333 20.333 28 34s10 29.834 10 48.501v10h-151v115h297v-356h-117l-13 155l28 -24c-14 -45.333 -39.167 -80.166 -75.5 -104.499s-83.166 -36.5 -140.499 -36.5z" />
    <glyph glyph-name="H" unicode="H" horiz-adv-x="742" 
d="M669 660v-660h-172v660h172zM245 660v-660h-172v660h172zM589 399v-133h-432v133h432z" />
    <glyph glyph-name="I" unicode="I" horiz-adv-x="318" 
d="M245 660v-660h-172v660h172z" />
    <glyph glyph-name="J" unicode="J" horiz-adv-x="618" 
d="M557 660l-0.000976562 -406.001c0 -83.333 -24 -148.166 -72 -194.499s-116 -69.5 -204 -69.5c-64.667 0 -116.667 11.5 -156 34.5s-66.333 55 -81 96s-17.667 87.833 -9 140.5l168 30c-8 -60.667 -5.16699 -103.5 8.5 -128.5s38.834 -37.5 75.501 -37.5
c36 0 61.333 12 76 36s22 61 22 111v388h172z" />
    <glyph glyph-name="K" unicode="K" horiz-adv-x="693" 
d="M672 660l-310 -371l-11 26l-157 -191l-33 139l320 397h191zM245 660v-660h-172v660h172zM418 442l266 -442h-195l-200 346z" />
    <glyph glyph-name="L" unicode="L" horiz-adv-x="602" 
d="M245 133h331v-133h-503v660h172v-527z" />
    <glyph glyph-name="M" unicode="M" horiz-adv-x="910" 
d="M837 660v-660h-152v303l5 203h-2l-163 -506h-139l-163 506h-2l5 -203v-303h-153v660h245l104 -336l37 -140h2l38 139l103 337h235z" />
    <glyph glyph-name="N" unicode="N" horiz-adv-x="741" 
d="M668 660v-660h-191l-205 357l-50 98h-1l4 -122v-333h-152v660h191l205 -357l50 -98h1l-4 122v333h152z" />
    <glyph glyph-name="O" unicode="O" horiz-adv-x="737" 
d="M369 670c66.667 0 124.167 -13.5 172.5 -40.5s85.5 -65.833 111.5 -116.5s39 -111.667 39 -183s-13 -132.333 -39 -183s-63.167 -89.5 -111.5 -116.5s-105.833 -40.5 -172.5 -40.5s-124.334 13.5 -173.001 40.5s-86 65.833 -112 116.5s-39 111.667 -39 183
s13 132.333 39 183s63.333 89.5 112 116.5s106.334 40.5 173.001 40.5zM369 535c-32 0 -59 -7.66699 -81 -23s-38.667 -38.166 -50 -68.499s-17 -68.166 -17 -113.499c0 -44.667 5.66699 -82.334 17 -113.001s28 -53.667 50 -69s49 -23 81 -23s58.833 7.66699 80.5 23
s38.167 38.333 49.5 69s17 68.334 17 113.001c0 45.333 -5.66699 83.166 -17 113.499s-27.833 53.166 -49.5 68.499s-48.5 23 -80.5 23z" />
    <glyph glyph-name="P" unicode="P" horiz-adv-x="668" 
d="M376 660c54 0 100 -8.66504 138 -25.998s67 -42.333 87 -75s30 -72.334 30 -119.001s-10 -86.334 -30 -119.001s-49 -57.667 -87 -75s-84 -26 -138 -26h-131v-220h-172v660h303zM349 349.002c36 0 63.167 7.5 81.5 22.5s27.5 37.833 27.5 68.5s-9.16699 53.5 -27.5 68.5
s-45.5 22.5 -81.5 22.5h-104v-182h104z" />
    <glyph glyph-name="Q" unicode="Q" horiz-adv-x="737" 
d="M536 -203c-44 0 -82.6699 7.33301 -116.003 22s-59.333 36 -78 64s-28 62.667 -28 104c0 13.333 1.83301 27.333 5.5 42s9.5 29 17.5 43l100 23c-6.66699 -14.667 -11.667 -28 -15 -40s-5 -23 -5 -33c0 -26 5.33301 -46.167 16 -60.5s25 -24.333 43 -30
s38.333 -8.5 61 -8.5c28.667 0 52.834 3 72.501 9s35.834 14.333 48.501 25l26 -119c-17.333 -13.333 -39.666 -23.5 -66.999 -30.5s-54.333 -10.5 -81 -10.5zM368.997 670c66.667 0 124.167 -13.5 172.5 -40.5s85.5 -65.833 111.5 -116.5s39 -111.667 39 -183
s-13 -132.333 -39 -183s-63.167 -89.5 -111.5 -116.5s-105.833 -40.5 -172.5 -40.5s-124.334 13.5 -173.001 40.5s-86 65.833 -112 116.5s-39 111.667 -39 183s13 132.333 39 183s63.333 89.5 112 116.5s106.334 40.5 173.001 40.5zM368.997 535c-32 0 -59 -7.66699 -81 -23
s-38.667 -38.166 -50 -68.499s-17 -68.166 -17 -113.499c0 -44.667 5.66699 -82.334 17 -113.001s28 -53.667 50 -69s49 -23 81 -23s58.833 7.66699 80.5 23s38.167 38.333 49.5 69s17 68.334 17 113.001c0 45.333 -5.66699 83.166 -17 113.499s-27.833 53.166 -49.5 68.499
s-48.5 23 -80.5 23z" />
    <glyph glyph-name="R" unicode="R" horiz-adv-x="689" 
d="M388 660c78.667 0 139.833 -18.501 183.5 -55.501s65.5 -86.167 65.5 -147.5c0 -67.333 -21.667 -118.666 -65 -153.999s-104.333 -53 -183 -53l-16 -9h-131v-241h-169v660h315zM363.999 362.999c33.333 0 58.333 6.66797 75 20.001s25 34.666 25 63.999
c0 28.667 -8.33301 49.667 -25 63s-41.667 20 -75 20h-122v-167h122zM464.999 327l211 -327h-190l-169 289z" />
    <glyph glyph-name="S" unicode="S" horiz-adv-x="645" 
d="M331 670c61.333 0 115.499 -9.50098 162.499 -28.501s87.833 -46.833 122.5 -83.5l-83 -111c-28.667 30 -59.5 52.5 -92.5 67.5s-70.5 22.5 -112.5 22.5c-24.667 0 -44.667 -2.66699 -60 -8s-26.333 -12.666 -33 -21.999s-10 -20 -10 -32c0 -14 6.5 -25.833 19.5 -35.5
s34.167 -17.834 63.5 -24.501l111 -25c66 -15.333 114.333 -37.666 145 -66.999s46 -68.333 46 -117c0 -46.667 -12 -86.167 -36 -118.5s-57 -56.666 -99 -72.999s-90 -24.5 -144 -24.5c-44 0 -86 4.83301 -126 14.5s-76 23.5 -108 41.5s-59 38.667 -81 62l83 115
c16.667 -19.333 37.167 -36.5 61.5 -51.5s51 -26.833 80 -35.5s58.5 -13 88.5 -13c23.333 0 42.833 2.33301 58.5 7s27.167 11.667 34.5 21s11 20.333 11 33c0 14 -5 25.833 -15 35.5s-29 17.834 -57 24.501l-122 27c-37.333 8.66699 -70.5 20.167 -99.5 34.5
s-51.833 33.666 -68.5 57.999s-25 54.833 -25 91.5c0 41.333 11.333 78.166 34 110.499s55.334 57.833 98.001 76.5s93.667 28 153 28z" />
    <glyph glyph-name="T" unicode="T" horiz-adv-x="653" 
d="M628 660v-133h-215v-527h-172v527h-216v133h603z" />
    <glyph glyph-name="U" unicode="U" horiz-adv-x="710" 
d="M650 660l0.000976562 -391c0 -93.333 -24.833 -163.166 -74.5 -209.499s-123.167 -69.5 -220.5 -69.5c-96.667 0 -170 23.167 -220 69.5s-75 116.166 -75 209.499v391h173v-394c0 -47.333 10.167 -82.666 30.5 -105.999s50.833 -35 91.5 -35
c41.333 0 72.166 11.667 92.499 35s30.5 58.666 30.5 105.999v394h172z" />
    <glyph glyph-name="V" unicode="V" horiz-adv-x="683" 
d="M677 660l-234 -660h-202l-235 660h181l121 -399l36 -130l35 128l123 401h175z" />
    <glyph glyph-name="W" unicode="W" horiz-adv-x="997" 
d="M200 0l-190 660h183l112 -521l118 521h156l121 -520l110 520h177l-191 -660h-187l-78 320l-30 161h-2l-29 -161l-77 -320h-193z" />
    <glyph glyph-name="X" unicode="X" horiz-adv-x="663" 
d="M655 0h-205l-124 211l-120 -211h-195l224 332l-211 328h203l113 -202l114 202h187l-211 -323z" />
    <glyph glyph-name="Y" unicode="Y" horiz-adv-x="657" 
d="M647 660l-233 -419v-241h-172v241l-233 419h178l93 -181l49 -110l50 110l93 181h175z" />
    <glyph glyph-name="Z" unicode="Z" horiz-adv-x="634" 
d="M172 72l-30 58h461v-130h-566v124l421 464l30 -58h-444v130h547v-124z" />
    <glyph glyph-name="bracketleft" unicode="[" horiz-adv-x="391" 
d="M365 594h-133v-643h133v-119h-280v881h280v-119z" />
    <glyph glyph-name="backslash" unicode="\" horiz-adv-x="468" 
d="M15 712h158l280 -782h-158z" />
    <glyph glyph-name="bracketright" unicode="]" horiz-adv-x="391" 
d="M26 -49h133v643h-133v119h280v-881h-280v119z" />
    <glyph glyph-name="asciicircum" unicode="^" horiz-adv-x="612" 
d="M25 355l209 369h144l210 -369h-150l-132 257l-131 -257h-150z" />
    <glyph glyph-name="underscore" unicode="_" horiz-adv-x="539" 
d="M539 -66v-135h-539v135h539z" />
    <glyph glyph-name="grave" unicode="`" horiz-adv-x="500" 
d="M296 738l67 -173h-124l-101 173h158z" />
    <glyph glyph-name="a" unicode="a" 
d="M340 317c0 23.333 -6.5 41.8291 -19.5 55.4961s-30.5 20.5 -52.5 20.5s-40.833 -5.5 -56.5 -16.5s-26.5 -30.5 -32.5 -58.5l-144 34c9.33301 48 34 86.333 74 115s96.333 43 169 43c48.667 0 90.167 -7.16699 124.5 -21.5s60.666 -35.666 78.999 -63.999
s27.5 -63.166 27.5 -104.499v-183c0 -26 11.667 -39 35 -39c12 0 21.667 1.33301 29 4l-10 -97c-20 -9.33301 -44.333 -14 -73 -14c-26 0 -49 4.16699 -69 12.5s-35.667 21 -47 38s-17 38.5 -17 64.5v6l19 7c0 -28.667 -8.5 -52.667 -25.5 -72s-39 -33.666 -66 -42.999
s-55.167 -14 -84.5 -14c-34 0 -63.667 5.33301 -89 16s-44.833 26.167 -58.5 46.5s-20.5 45.5 -20.5 75.5c0 36 10.833 65.833 32.5 89.5s55.834 40.167 102.501 49.5l189 39l-1 -90l-96 -20c-20 -4 -34.833 -9.83301 -44.5 -17.5s-14.5 -19.167 -14.5 -34.5
c0 -14.667 5.33301 -25.667 16 -33s23.334 -11 38.001 -11c11.333 0 22.166 1.66699 32.499 5s19.5 8.5 27.5 15.5s14.333 15.833 19 26.5s7 23.334 7 38.001v132z" />
    <glyph glyph-name="b" unicode="b" horiz-adv-x="627" 
d="M382 -10c-32.667 0 -61.501 7.33105 -86.501 21.998s-45.5 34.834 -61.5 60.501s-26.333 54.834 -31 87.501l16 21l-9 -181h-149v712h170v-369l-16 24c9.33301 41.333 28.333 75.5 57 102.5s67.334 40.5 116.001 40.5c38.667 0 73.167 -10.333 103.5 -31
s54 -50.5 71 -89.5s25.5 -86.167 25.5 -141.5c0 -54 -8.66699 -100.333 -26 -139s-41.333 -68.167 -72 -88.5s-66.667 -30.5 -108 -30.5zM322.999 114.998c29.333 0 52.333 10.8311 69 32.498s25 55.834 25 102.501s-8.33301 80.834 -25 102.501s-39.667 32.5 -69 32.5
c-19.333 0 -35.833 -5.5 -49.5 -16.5s-24.167 -26.5 -31.5 -46.5s-11 -44.333 -11 -73s3.66699 -53 11 -73s18 -35.167 32 -45.5s30.333 -15.5 49 -15.5z" />
    <glyph glyph-name="c" unicode="c" horiz-adv-x="567" 
d="M298 510c50.667 0 92.8301 -7.16699 126.497 -21.5s60 -33.333 79 -57s30.833 -49.167 35.5 -76.5l-157 -52c-4.66699 28.667 -13.167 50.167 -25.5 64.5s-30.166 21.5 -53.499 21.5c-21.333 0 -39.166 -4.83301 -53.499 -14.5s-25.166 -25 -32.499 -46
s-11 -47.833 -11 -80.5s4 -59.167 12 -79.5s19.333 -35 34 -44s32 -13.5 52 -13.5c16.667 0 30.5 3.16699 41.5 9.5s20.167 15.5 27.5 27.5s12 26.667 14 44l153 -49c-4.66699 -29.333 -17.167 -55.5 -37.5 -78.5s-47.166 -41.167 -80.499 -54.5s-72.333 -20 -117 -20
c-54.667 0 -102.334 10.167 -143.001 30.5s-72 50 -94 89s-33 85.833 -33 140.5s11 101.5 33 140.5s52.833 68.667 92.5 89s85.5 30.5 137.5 30.5z" />
    <glyph glyph-name="d" unicode="d" horiz-adv-x="627" 
d="M245 -10c-41.333 0 -77.501 10.168 -108.501 30.501s-55 49.833 -72 88.5s-25.5 85 -25.5 139c0 56 8.83301 103.333 26.5 142s42.334 68.334 74.001 89.001s68.167 31 109.5 31c45.333 0 81.833 -13.833 109.5 -41.5s45.5 -62.834 53.5 -105.501l-16 -21v370h170v-712
h-152l-11 170l20 -15c-4 -33.333 -14.167 -62.333 -30.5 -87s-37 -43.834 -62 -57.501s-53.5 -20.5 -85.5 -20.5zM303.999 115.001c19.333 0 35.833 5.16895 49.5 15.502s24.167 25.833 31.5 46.5s11 46 11 76c0 28 -3.5 51.833 -10.5 71.5s-17.333 34.667 -31 45
s-30.167 15.5 -49.5 15.5c-29.333 0 -52.5 -10.833 -69.5 -32.5s-25.5 -55.834 -25.5 -102.501s8.33301 -80.834 25 -102.501s39.667 -32.5 69 -32.5z" />
    <glyph glyph-name="e" unicode="e" 
d="M305 -10c-55.333 0 -103.166 10.3291 -143.499 30.9961s-71.5 50.334 -93.5 89.001s-33 85.334 -33 140.001s11 101.334 33 140.001s52.833 68.334 92.5 89.001s85.167 31 136.5 31c52.667 0 97.5 -10.167 134.5 -30.5s65.167 -48.333 84.5 -84s29 -76.5 29 -122.5
c0 -12 -0.333008 -24 -1 -36s-1.66699 -22 -3 -30h-396v91h321l-81 -31c0 40 -7.16699 70.667 -21.5 92s-36.5 32 -66.5 32c-21.333 0 -39.5 -5 -54.5 -15s-26.333 -25.667 -34 -47s-11.5 -48.666 -11.5 -81.999c0 -32.667 4.33301 -59.167 13 -79.5s21 -35 37 -44
s35.333 -13.5 58 -13.5c25.333 0 45.5 5 60.5 15s26.167 24 33.5 42l136 -45c-9.33301 -28.667 -25.5 -52.834 -48.5 -72.501s-50.333 -34.5 -82 -44.5s-64.834 -15 -99.501 -15z" />
    <glyph glyph-name="f" unicode="f" horiz-adv-x="415" 
d="M294 726c27.333 0 51.332 -2.83496 71.999 -8.50195s36 -12.167 46 -19.5l-17 -106c-7.33301 4.66699 -15.666 8.33398 -24.999 11.001s-21 4 -35 4c-23.333 0 -42.5 -5.33301 -57.5 -16s-22.5 -29.334 -22.5 -56.001v-65l10 -28v-442h-170v546
c0 32 5.16699 59.333 15.5 82s24.833 41.334 43.5 56.001s40 25.334 64 32.001s49.333 10 76 10zM406.999 499.998v-121h-392v121h392z" />
    <glyph glyph-name="g" unicode="g" horiz-adv-x="560" 
d="M545 634l13.999 -113.999c-4 1.33301 -8 2.16602 -12 2.49902s-8 0.5 -12 0.5c-29.333 0 -51.166 -7.16699 -65.499 -21.5s-21.5 -32.166 -21.5 -53.499l-60 22c0 27.333 5 53.666 15 78.999s25.5 46 46.5 62s47.5 24 79.5 24h7.5c3 0 5.83301 -0.333008 8.5 -1z
M372.999 111.001c58 0 102.499 -12.1699 133.499 -36.5029s46.5 -59.166 46.5 -104.499c0 -41.333 -11.333 -75.666 -34 -102.999s-54.5 -47.833 -95.5 -61.5s-89.5 -20.5 -145.5 -20.5c-90.667 0 -156 11.333 -196 34s-60 53.334 -60 92.001c0 28 11.333 50.667 34 68
s60.334 26.666 113.001 27.999l-4 -16c-40.667 5.33301 -71 17.333 -91 36s-30 44 -30 76s12.667 58 38 78s59 31 101 33l62 -29h-16c-26 -1.33301 -44.333 -5.66602 -55 -12.999s-16 -16.333 -16 -27c0 -11.333 4.66699 -19.833 14 -25.5s23.333 -8.5 42 -8.5h159z
M278.998 -105.002c32 0 58.499 2.16602 79.499 6.49902s36.833 10.333 47.5 18s16 16.5 16 26.5s-3.66699 17.833 -11 23.5s-20.666 8.5 -39.999 8.5h-179c-12.667 0 -22.834 -3.33301 -30.501 -10s-11.5 -15 -11.5 -25c0 -15.333 11.333 -27.166 34 -35.499
s54.334 -12.5 95.001 -12.5zM284.997 509.997c50.667 0 94 -6.66699 130 -20s63.5 -32.5 82.5 -57.5s28.5 -55.833 28.5 -92.5c0 -36 -9.5 -66.667 -28.5 -92s-46.5 -44.5 -82.5 -57.5s-79.333 -19.5 -130 -19.5c-79.333 0 -139.5 14.667 -180.5 44s-61.5 71 -61.5 125
c0 36.667 9.5 67.5 28.5 92.5s46.5 44.167 82.5 57.5s79.667 20 131 20zM284.997 412.997c-22 0 -39.833 -6.33301 -53.5 -19s-20.5 -30.667 -20.5 -54c0 -22.667 6.83301 -40.334 20.5 -53.001s31.5 -19 53.5 -19c21.333 0 39 6.33301 53 19s21 30.334 21 53.001
c0 23.333 -7 41.333 -21 54s-31.667 19 -53 19z" />
    <glyph glyph-name="h" unicode="h" horiz-adv-x="620" 
d="M61 0l-0.00195312 712h170v-303c14.667 33.333 35.667 58.5 63 75.5s59 25.5 95 25.5c34.667 0 64.834 -6.66699 90.501 -20s45.834 -33 60.501 -59s22 -58.667 22 -98v-333h-170v286c0 36 -6.5 60.833 -19.5 74.5s-30.167 20.5 -51.5 20.5c-16 0 -31 -4 -45 -12
s-25 -20.667 -33 -38s-12 -40 -12 -68v-263h-170z" />
    <glyph glyph-name="i" unicode="i" horiz-adv-x="291" 
d="M146 558c-34.667 0 -59.834 6.5 -75.501 19.5s-23.5 33.5 -23.5 61.5c0 28.667 7.83301 49.5 23.5 62.5s40.834 19.5 75.501 19.5c34 0 59 -6.5 75 -19.5s24 -33.833 24 -62.5c0 -28 -8 -48.5 -24 -61.5s-41 -19.5 -75 -19.5zM231 500v-500h-170v500h170z" />
    <glyph glyph-name="j" unicode="j" horiz-adv-x="291" 
d="M146 558c-34.667 0 -59.834 6.5 -75.501 19.5s-23.5 33.5 -23.5 61.5c0 28.667 7.83301 49.5 23.5 62.5s40.834 19.5 75.501 19.5c34 0 59 -6.5 75 -19.5s24 -33.833 24 -62.5c0 -28 -8 -48.5 -24 -61.5s-41 -19.5 -75 -19.5zM231 500l0.00195312 -528.002
c0 -45.333 -7.83301 -81.666 -23.5 -108.999s-37.834 -47.166 -66.501 -59.499s-63.334 -18.5 -104.001 -18.5c-26.667 0 -51 2.83301 -73 8.5s-41.333 13.5 -58 23.5l24 110c7.33301 -5.33301 16.333 -9.83301 27 -13.5s23 -5.5 37 -5.5c20 0 36.167 5.83301 48.5 17.5
s18.5 32.167 18.5 61.5v513h170z" />
    <glyph glyph-name="k" unicode="k" horiz-adv-x="622" 
d="M610 500l-240 -256l-32 -9l-143 -160l-1 174l227 251h189zM231 712v-712h-170v712h170zM396 350l225 -350h-188l-148 250z" />
    <glyph glyph-name="l" unicode="l" horiz-adv-x="327" 
d="M229 712l0.000976562 -542c0 -22 3.66699 -37.667 11 -47s19.666 -14 36.999 -14c10 0 18.333 0.666992 25 2s14.667 3.33301 24 6l-11 -102c-12 -7.33301 -27.667 -13.333 -47 -18s-38.333 -7 -57 -7c-53.333 0 -92 12.333 -116 37s-36 65 -36 121v564h170z" />
    <glyph glyph-name="m" unicode="m" horiz-adv-x="941" 
d="M61 0l0.00390625 500h152l5 -97c16 35.333 38.5 62 67.5 80s62.5 27 100.5 27c37.333 0 69.666 -8.33301 96.999 -25s47.666 -41.334 60.999 -74.001c10.667 22 24.5 40.333 41.5 55s36.5 25.667 58.5 33s44.667 11 68 11c33.333 0 62.666 -6.5 87.999 -19.5
s45.5 -32.667 60.5 -59s22.5 -59.166 22.5 -98.499v-333h-170v294c0 32 -6.16699 54.333 -18.5 67s-28.833 19 -49.5 19c-16.667 0 -31.834 -4.16699 -45.501 -12.5s-24.167 -20.833 -31.5 -37.5s-11 -37.667 -11 -63v-267h-170v294c0 32 -6.33301 54.333 -19 67
s-29 19 -49 19c-15.333 0 -29.833 -4 -43.5 -12s-24.5 -20.5 -32.5 -37.5s-12 -39.167 -12 -66.5v-264h-170z" />
    <glyph glyph-name="n" unicode="n" horiz-adv-x="620" 
d="M61 0l-0.00195312 500.001h152l9 -172l-19 19c6.66699 36 18.5 66 35.5 90s38.333 42.167 64 54.5s54.5 18.5 86.5 18.5c34.667 0 64.834 -6.66699 90.501 -20s45.834 -33 60.501 -59s22 -58.667 22 -98v-333h-170v288c0 34.667 -6.66699 58.667 -20 72
s-30.333 20 -51 20c-16 0 -31 -3.83301 -45 -11.5s-25 -19.834 -33 -36.501s-12 -39 -12 -67v-265h-170z" />
    <glyph glyph-name="o" unicode="o" horiz-adv-x="599" 
d="M299 510c52.667 0 98.834 -10.167 138.501 -30.5s70.667 -50 93 -89s33.5 -85.833 33.5 -140.5s-11.167 -101.5 -33.5 -140.5s-53.333 -68.667 -93 -89s-85.834 -30.5 -138.501 -30.5c-51.333 0 -97 10.167 -137 30.5s-71.167 50 -93.5 89s-33.5 85.833 -33.5 140.5
s11.167 101.5 33.5 140.5s53.5 68.667 93.5 89s85.667 30.5 137 30.5zM299 389c-19.333 0 -36 -4.66699 -50 -14s-24.667 -24.333 -32 -45s-11 -47.334 -11 -80.001s3.66699 -59.167 11 -79.5s18 -35.333 32 -45s30.667 -14.5 50 -14.5c20 0 37 4.83301 51 14.5
s24.667 24.667 32 45s11 46.833 11 79.5s-3.66699 59.334 -11 80.001s-18 35.667 -32 45s-31 14 -51 14z" />
    <glyph glyph-name="p" unicode="p" horiz-adv-x="627" 
d="M61 -210v710h153l9 -181l-20 21c4.66699 33.333 15 62.666 31 87.999s36.667 45.333 62 60s54.333 22 87 22c41.333 0 77.333 -10.167 108 -30.5s54.5 -49.666 71.5 -87.999s25.5 -84.833 25.5 -139.5s-8.66699 -101.667 -26 -141s-41.5 -69.333 -72.5 -90
s-67.167 -31 -108.5 -31c-45.333 0 -82 13.5 -110 40.5s-46.667 61.167 -56 102.5l16 24v-367h-170zM323 115c29.333 0 52.332 10.8311 68.999 32.498s25 55.834 25 102.501s-8.16699 80.834 -24.5 102.501s-39.166 32.5 -68.499 32.5c-18.667 0 -35 -5.16699 -49 -15.5
s-24.833 -25.5 -32.5 -45.5s-11.5 -44.667 -11.5 -74c0 -28 3.5 -52.167 10.5 -72.5s17.5 -35.833 31.5 -46.5s30.667 -16 50 -16z" />
    <glyph glyph-name="q" unicode="q" horiz-adv-x="627" 
d="M396 -210l-0.00390625 377.001l18 -22c-4 -30.667 -13.667 -57.667 -29 -81s-34.666 -41.5 -57.999 -54.5s-50.666 -19.5 -81.999 -19.5c-40.667 0 -76.5 10.333 -107.5 31s-55.167 50.667 -72.5 90s-26 86.333 -26 141s8.83301 101.167 26.5 139.5
s42.334 67.666 74.001 87.999s67.834 30.5 108.501 30.5c32.667 0 61.5 -7.33301 86.5 -22s45.333 -35 61 -61s25.167 -56 28.5 -90l-20 -16l9 179h153v-710h-170zM303.996 115.001c19.333 0 35.834 5.33496 49.501 16.002s24.167 26.167 31.5 46.5s11 44.833 11 73.5
c0 30 -3.66699 54.833 -11 74.5s-17.833 34.5 -31.5 44.5s-29.834 15 -48.501 15c-29.333 0 -52.5 -10.833 -69.5 -32.5s-25.5 -55.834 -25.5 -102.501s8.33301 -80.834 25 -102.501s39.667 -32.5 69 -32.5z" />
    <glyph glyph-name="r" unicode="r" horiz-adv-x="430" 
d="M61 0l-0.000976562 499.999h150l7 -108c12.667 37.333 31.5 66.333 56.5 87s56.833 31 95.5 31c12.667 0 23.5 -1 32.5 -3s16.167 -4.66699 21.5 -8l-17 -140c-6.66699 2.66699 -15.167 4.83398 -25.5 6.50098s-22.833 2.5 -37.5 2.5c-20 0 -38.667 -4.33301 -56 -13
s-31.166 -21.5 -41.499 -38.5s-15.5 -38.5 -15.5 -64.5v-252h-170z" />
    <glyph glyph-name="s" unicode="s" horiz-adv-x="533" 
d="M271 -10c-50 0 -96.5039 8.16699 -139.504 24.5s-78.5 39.833 -106.5 70.5l80 94c16.667 -21.333 38.834 -39.166 66.501 -53.499s58.5 -21.5 92.5 -21.5c20.667 0 37.667 3 51 9s20 15.333 20 28c0 9.33301 -3.33301 16.833 -10 22.5s-20 10.5 -40 14.5l-70 14
c-62.667 12.667 -107.167 31.5 -133.5 56.5s-39.5 57.833 -39.5 98.5c0 27.333 8.33301 53.5 25 78.5s42.334 45.333 77.001 61s79 23.5 133 23.5c50.667 0 95.334 -7.33301 134.001 -22s69.334 -36 92.001 -64l-81 -92c-16 20 -36.667 35.667 -62 47s-50.666 17 -75.999 17
c-16 0 -29.5 -1.5 -40.5 -4.5s-19.167 -7.16699 -24.5 -12.5s-8 -12 -8 -20c0 -8.66699 4.16699 -16.167 12.5 -22.5s23.833 -11.833 46.5 -16.5l91 -18c51.333 -9.33301 88.333 -26.333 111 -51s34 -54.334 34 -89.001c0 -32.667 -8.66699 -62 -26 -88
s-43.333 -46.5 -78 -61.5s-78.334 -22.5 -131.001 -22.5z" />
    <glyph glyph-name="t" unicode="t" horiz-adv-x="437" 
d="M270 659l-0.000976562 -481c0 -24 5.83301 -41.167 17.5 -51.5s27.834 -15.5 48.501 -15.5c16 0 29.833 1.83301 41.5 5.5s22.167 9.16699 31.5 16.5l18 -105c-16.667 -12 -37.667 -21.333 -63 -28s-51.333 -10 -78 -10c-38 0 -70.833 5.33301 -98.5 16
s-49 27.667 -64 51s-22.833 54.333 -23.5 93v462zM418.999 500v-121h-405v121h405z" />
    <glyph glyph-name="u" unicode="u" horiz-adv-x="619" 
d="M230 -10c-34 0 -63.8311 5.83398 -89.498 17.501s-45.834 30.5 -60.501 56.5s-22 60 -22 102v334h170v-294c0 -32 6.33301 -54.333 19 -67s30.667 -19 54 -19c12 0 23.333 2.16699 34 6.5s20 11 28 20s14.167 20.667 18.5 35s6.5 31.166 6.5 50.499v268h170v-500h-152
l-5 94c-16 -35.333 -38.333 -61.5 -67 -78.5s-63.334 -25.5 -104.001 -25.5z" />
    <glyph glyph-name="v" unicode="v" horiz-adv-x="561" 
d="M386 500h176l-180 -500h-203l-180 500h179l103 -381z" />
    <glyph glyph-name="w" unicode="w" horiz-adv-x="900" 
d="M716 500h178l-151 -500h-204l-91 307l-88 -307h-203l-152 500h179l84 -369l98 369h168l97 -369z" />
    <glyph glyph-name="x" unicode="x" horiz-adv-x="589" 
d="M208 500l122 -225l56 5l197 -280h-195l-126 228h-59l-191 272h196zM579 500l-189 -270l-63 4l-131 -234h-191l201 282l58 -8l124 226h191z" />
    <glyph glyph-name="y" unicode="y" horiz-adv-x="563" 
d="M564 500l-181.999 -500c-18.667 -52.667 -39 -94.667 -61 -126s-48 -54 -78 -68s-66 -21 -108 -21c-28 0 -53.667 3 -77 9s-43.666 14.333 -60.999 25l34 115c12 -8.66699 24.667 -14.834 38 -18.501s30.333 -5.5 51 -5.5c19.333 0 35.166 3.33301 47.499 10
s22.166 19.334 29.499 38.001l13 31l-58 136l-150 375h187l77 -285l24 -106l28 110l77 281h169z" />
    <glyph glyph-name="z" unicode="z" horiz-adv-x="516" 
d="M35 0v104l199 226l53 53l-79 -2h-171v119h438v-104l-196 -224l-55 -55l88 2h172v-119h-449z" />
    <glyph glyph-name="braceleft" unicode="{" horiz-adv-x="420" 
d="M393 -191c-57.333 0 -103.666 5.5 -138.999 16.5s-61 29.167 -77 54.5s-24 58.333 -24 99v134c0 37.333 -8.5 64 -25.5 80s-45.833 24 -86.5 24v110c40.667 0 69.5 8 86.5 24s25.5 42.667 25.5 80v135c0 41.333 8 74.333 24 99s41.667 42.667 77 54s81.666 17 138.999 17
v-108c-36.667 0 -63.167 -6.5 -79.5 -19.5s-24.5 -33.5 -24.5 -61.5v-151c0 -33.333 -8.16699 -60 -24.5 -80s-40.5 -34.333 -72.5 -43c32 -9.33301 56.167 -24 72.5 -44s24.5 -46.667 24.5 -80v-150c0 -29.333 8.16699 -50.333 24.5 -63s42.833 -19 79.5 -19v-108z" />
    <glyph glyph-name="bar" unicode="|" horiz-adv-x="320" 
d="M235 713v-881h-150v881h150z" />
    <glyph glyph-name="braceright" unicode="}" horiz-adv-x="420" 
d="M27 736c57.333 0 103.666 -5.66797 138.999 -17.001s61 -29.333 77 -54s24 -57.667 24 -99v-135c0 -37.333 8.5 -64 25.5 -80s45.833 -24 86.5 -24v-110c-40.667 0 -69.5 -8 -86.5 -24s-25.5 -42.667 -25.5 -80v-135c0 -40.667 -8 -73.5 -24 -98.5s-41.667 -43 -77 -54
s-81.666 -16.5 -138.999 -16.5v108c36.667 0 63.167 6.33301 79.5 19s24.5 33.334 24.5 62.001v151c0 33.333 8.33301 60 25 80s40.667 34.333 72 43c-31.333 9.33301 -55.333 24 -72 44s-25 46.667 -25 80v150c0 28.667 -8.16699 49.5 -24.5 62.5s-42.833 19.5 -79.5 19.5
v108z" />
    <glyph glyph-name="asciitilde" unicode="~" horiz-adv-x="597" 
d="M554 425c-3.33301 -63.333 -18.333 -111.5 -45 -144.5s-65.334 -49.5 -116.001 -49.5c-23.333 0 -43.166 3.16699 -59.499 9.5s-30.5 13.833 -42.5 22.5s-23.167 16.167 -33.5 22.5s-21.833 9.5 -34.5 9.5c-14 0 -24.667 -5 -32 -15s-12.666 -24.667 -15.999 -44h-132
c3.33301 63.333 18.333 111.5 45 144.5s65.334 49.5 116.001 49.5c23.333 0 43.166 -3.16699 59.499 -9.5s30.5 -13.833 42.5 -22.5s23.333 -16.167 34 -22.5s22 -9.5 34 -9.5c14 0 24.667 4.83301 32 14.5s12.666 24.5 15.999 44.5h132z" />
    <glyph glyph-name="uni00A0" unicode="&#xa0;" horiz-adv-x="286" 
 />
    <glyph glyph-name="exclamdown" unicode="&#xa1;" horiz-adv-x="298" 
d="M61 -160v213l19 232h139l19 -232v-213h-177zM149 341c-29.333 0 -52.666 7.33301 -69.999 22s-26 35.334 -26 62.001c0 26 8.66699 46.333 26 61s40.666 22 69.999 22c30.667 0 54.5 -7.33301 71.5 -22s25.5 -35 25.5 -61c0 -26.667 -8.5 -47.334 -25.5 -62.001
s-40.833 -22 -71.5 -22z" />
    <glyph glyph-name="cent" unicode="&#xa2;" horiz-adv-x="575" 
d="M314 -10c-56.667 0 -105.331 10.166 -145.998 30.499s-71.834 50 -93.501 89s-32.5 85.833 -32.5 140.5s10.833 101.5 32.5 140.5s52.5 68.667 92.5 89s87 30.5 141 30.5c50 0 91.333 -7 124 -21s58.167 -32.833 76.5 -56.5s30.833 -49.5 37.5 -77.5l-127 -46
c-6 30.667 -17.833 54.167 -35.5 70.5s-40.5 24.5 -68.5 24.5c-38 0 -68.333 -12.167 -91 -36.5s-34 -64.166 -34 -119.499c0 -36.667 5.5 -66.167 16.5 -88.5s26 -38.5 45 -48.5s40.167 -15 63.5 -15c20.667 0 38.167 3.5 52.5 10.5s26.166 17.167 35.499 30.5s16 30 20 50
l125 -43c-6.66699 -30.667 -20.167 -57.5 -40.5 -80.5s-46.833 -41 -79.5 -54s-70.667 -19.5 -114 -19.5zM256.003 -100.001v700h105v-700h-105z" />
    <glyph glyph-name="sterling" unicode="&#xa3;" horiz-adv-x="621" 
d="M52 270v78h431v-78h-431zM152 -10c-34 0 -62.501 8.00195 -85.501 24.002s-34.5 39 -34.5 69c0 20 5.66699 36.833 17 50.5s26.666 24.167 45.999 31.5s41 11 65 11c28.667 0 53.334 -2.33301 74.001 -7s38.834 -10.5 54.501 -17.5s30.167 -14.167 43.5 -21.5
s27.166 -13.333 41.499 -18s30.833 -7 49.5 -7c22.667 0 39.334 6.66699 50.001 20s15.667 34.333 15 63l108 -12c4 -37.333 0.666992 -69.833 -10 -97.5s-27.5 -49.334 -50.5 -65.001s-50.167 -23.5 -81.5 -23.5c-28 0 -52.833 4 -74.5 12s-41.667 18 -60 30
s-36 24.167 -53 36.5s-34.333 22.5 -52 30.5s-36.834 12 -57.501 12c-13.333 0 -23.5 -2.33301 -30.5 -7s-10.5 -11.667 -10.5 -21s3.83301 -16.5 11.5 -21.5s17.167 -7.5 28.5 -7.5c17.333 0 30.666 4 39.999 12s15.833 20 19.5 36s5.5 35.333 5.5 58
c0 28.667 -5 54.834 -15 78.501s-26 52.167 -48 85.5c-13.333 22 -24 41.167 -32 57.5s-13.667 32.166 -17 47.499s-5 31 -5 47c0 36.667 9.66699 69.667 29 99s46.833 52.5 82.5 69.5s77.834 25.5 126.501 25.5c62.667 0 113.5 -14.5 152.5 -43.5
s64.833 -72.833 77.5 -131.5l-137 -53c-8 36 -19.833 62.5 -35.5 79.5s-37.167 25.5 -64.5 25.5c-25.333 0 -46.166 -7 -62.499 -21s-24.5 -33.667 -24.5 -59c0 -9.33301 1.33301 -18.833 4 -28.5s7 -20.834 13 -33.501l23 -47c14.667 -26 26.5 -52.5 35.5 -79.5
s13.5 -52.833 13.5 -77.5c0 -26 -3.83301 -51.5 -11.5 -76.5s-19.167 -47.667 -34.5 -68s-34.5 -36.5 -57.5 -48.5s-50.167 -18 -81.5 -18z" />
    <glyph glyph-name="currency" unicode="&#xa4;" horiz-adv-x="646" 
d="M324 537c42 0 78.833 -8.83301 110.5 -26.5s56.5 -42 74.5 -73s27 -66.833 27 -107.5c0 -41.333 -9 -77.666 -27 -108.999s-42.833 -55.833 -74.5 -73.5s-68.5 -26.5 -110.5 -26.5s-79.167 8.83301 -111.5 26.5s-57.5 42.167 -75.5 73.5s-27 67.666 -27 108.999
c0 40.667 9 76.5 27 107.5s43.167 55.333 75.5 73s69.5 26.5 111.5 26.5zM324 417c-25.333 0 -45.666 -8 -60.999 -24s-23 -37 -23 -63c0 -26.667 7.66699 -48 23 -64s35.666 -24 60.999 -24c24.667 0 44.667 8 60 24s23 37.333 23 64c0 26 -7.66699 47 -23 63
s-35.333 24 -60 24zM134 616l131 -147l-81 -81l-148 130zM183 271l81 -81l-130 -147l-98 97zM466 267l144 -127l-98 -97l-128 142zM512 616l98 -98l-142 -129l-83 83z" />
    <glyph glyph-name="yen" unicode="&#xa5;" horiz-adv-x="666" 
d="M251 0v121h-191v58h191v66h-191v60h117l60 -4l-218 359h176l94 -197l43 -102h2l44 103l93 196h176l-218 -359l60 4h118v-60h-192v-66h192v-58h-192v-121h-164z" />
    <glyph glyph-name="brokenbar" unicode="&#xa6;" horiz-adv-x="320" 
d="M235 713v-380h-150v380h150zM235 212v-380h-150v380h150z" />
    <glyph glyph-name="section" unicode="&#xa7;" horiz-adv-x="623" 
d="M422 99l-58.998 82c26.667 4 48.334 8.83301 65.001 14.5s29 12.834 37 21.501s12 19 12 31c0 15.333 -6.33301 27.5 -19 36.5s-31.334 15.833 -56.001 20.5l-172 32c-30.667 6 -56.834 16.167 -78.501 30.5s-38.167 31.833 -49.5 52.5s-17 43 -17 67
c0 36.667 9.66699 68.667 29 96s46.666 48.666 81.999 63.999s77 23 125 23c54 0 99.167 -8.16699 135.5 -24.5s68.166 -40.5 95.499 -72.5l-90 -80c-18.667 22.667 -40.667 39.667 -66 51s-53 17 -83 17c-34 0 -58.833 -5.16699 -74.5 -15.5s-23.5 -23.5 -23.5 -39.5
c0 -9.33301 2.5 -17.5 7.5 -24.5s14.5 -13.333 28.5 -19s34 -11.167 60 -16.5l99 -18c44.667 -8 80.834 -18.833 108.501 -32.5s47.667 -30.167 60 -49.5s18.5 -42.333 18.5 -69c0 -33.333 -7.16699 -62.333 -21.5 -87s-34.5 -44.5 -60.5 -59.5s-57 -25.5 -93 -31.5z
M304.002 -110c-56 0 -106.166 8.66797 -150.499 26.001s-78.5 41.333 -102.5 72l89 82c16 -22.667 39 -40.5 69 -53.5s62.667 -19.5 98 -19.5c30.667 0 56 4.5 76 13.5s30 22.5 30 40.5c0 12.667 -5.66699 22.5 -17 29.5s-31.333 13.167 -60 18.5l-152 32
c-36 7.33301 -65.833 17.666 -89.5 30.999s-41.5 30.5 -53.5 51.5s-18 45.833 -18 74.5c0 32.667 7.33301 59.667 22 81s34.5 38.666 59.5 51.999s53.167 23.333 84.5 30l53 -81c-22.667 -5.33301 -41.334 -11 -56.001 -17s-25.5 -12.833 -32.5 -20.5
s-10.5 -16.834 -10.5 -27.501c0 -15.333 6.66699 -27.666 20 -36.999s34.666 -16.666 63.999 -21.999l155 -29c52.667 -10 91.834 -27.167 117.501 -51.5s38.5 -57.166 38.5 -98.499c0 -36.667 -9.33301 -68.334 -28 -95.001s-45.5 -47 -80.5 -61s-76.833 -21 -125.5 -21z
" />
    <glyph glyph-name="dieresis" unicode="&#xa8;" horiz-adv-x="500" 
d="M139 710c27.333 0 48.5 -6.66699 63.5 -20s22.5 -32.333 22.5 -57c0 -24 -7.5 -42.833 -22.5 -56.5s-36.167 -20.5 -63.5 -20.5c-26 0 -46.5 6.83301 -61.5 20.5s-22.5 32.5 -22.5 56.5c0 24.667 7.5 43.667 22.5 57s35.5 20 61.5 20zM359 710
c26.667 0 47.667 -6.66699 63 -20s23 -32.333 23 -57c0 -24 -7.66699 -42.833 -23 -56.5s-36.333 -20.5 -63 -20.5c-26 0 -46.5 6.83301 -61.5 20.5s-22.5 32.5 -22.5 56.5c0 24.667 7.5 43.667 22.5 57s35.5 20 61.5 20z" />
    <glyph glyph-name="copyright" unicode="&#xa9;" horiz-adv-x="772" 
d="M386 -10c-66.667 0 -126 14.5 -178 43.5s-92.667 69 -122 120s-44 109.833 -44 176.5c0 67.333 14.667 126.333 44 177s70 90.5 122 119.5s111.333 43.5 178 43.5c67.333 0 126.833 -14.5 178.5 -43.5s92.167 -68.833 121.5 -119.5s44 -109.667 44 -177
c0 -66.667 -14.667 -125.5 -44 -176.5s-69.833 -91 -121.5 -120s-111.167 -43.5 -178.5 -43.5zM386 74c51.333 0 96.166 10.833 134.499 32.5s68.333 51.834 90 90.501s32.5 83 32.5 133s-10.833 94.333 -32.5 133s-51.667 68.834 -90 90.501s-83.166 32.5 -134.499 32.5
c-50.667 0 -95.334 -10.833 -134.001 -32.5s-68.834 -51.834 -90.501 -90.501s-32.5 -83 -32.5 -133s10.833 -94.333 32.5 -133s51.834 -68.834 90.501 -90.501s83.334 -32.5 134.001 -32.5zM392 138c-60.667 0 -107.669 17.334 -141.002 52.001s-50 81 -50 139
c0 58.667 16.667 105.167 50 139.5s80.333 51.5 141 51.5c45.333 0 82.5 -10 111.5 -30s49.5 -46.667 61.5 -80l-99 -47c-6.66699 15.333 -15.667 26 -27 32s-25.333 9 -42 9c-22.667 0 -40.667 -6.5 -54 -19.5s-20 -31.5 -20 -55.5s6.66699 -42.5 20 -55.5
s31.333 -19.5 54 -19.5c16.667 0 31.334 3.16699 44.001 9.5s22.334 18.166 29.001 35.499l94 -45c-16 -40 -37.5 -69.333 -64.5 -88s-62.833 -28 -107.5 -28z" />
    <glyph glyph-name="ordfeminine" unicode="&#xaa;" horiz-adv-x="438" 
d="M141 306c-36.667 0 -65.001 8.50195 -85.001 25.502s-30 38.833 -30 65.5c0 29.333 9.16699 51.333 27.5 66s47.833 26 88.5 34l110 22v-51l-61 -15c-15.333 -3.33301 -26.5 -8.33301 -33.5 -15s-10.5 -15.334 -10.5 -26.001c0 -10 3.5 -17.667 10.5 -23
s15.833 -8 26.5 -8c8.66699 0 17.334 1.66699 26.001 5s15.667 8.83301 21 16.5s8 18.167 8 31.5v95c0 15.333 -4 27.166 -12 35.499s-19.333 12.5 -34 12.5c-14 0 -26.667 -3.83301 -38 -11.5s-19.333 -21.167 -24 -40.5l-102 24c5.33301 34 22.333 61.333 51 82
s67.667 31 117 31c56 0 98 -11.167 126 -33.5s42 -56.166 42 -101.499v-115c0 -10.667 2.5 -18.334 7.5 -23.001s11.5 -7 19.5 -7c9.33301 0 16 1 20 3l-9 -67c-7.33301 -4 -15.333 -7 -24 -9s-19.334 -3 -32.001 -3c-27.333 0 -49.166 7 -65.499 21s-24.5 35 -24.5 63v19
l16 -5c-2.66699 -17.333 -9.66699 -33.5 -21 -48.5s-26.333 -27 -45 -36s-40.667 -13.5 -66 -13.5zM33.999 151.002v89h365v-89h-365z" />
    <glyph glyph-name="guillemotleft" unicode="&#xab;" horiz-adv-x="585" 
d="M308 461l-121 -196l121 -196h-148l-125 196l125 196h148zM550 461l-121 -196l121 -196h-148l-125 196l125 196h148z" />
    <glyph glyph-name="logicalnot" unicode="&#xac;" horiz-adv-x="604" 
d="M544 314v-217h-137v217h137zM544 386v-122h-484v122h484z" />
    <glyph glyph-name="uni00AD" unicode="&#xad;" horiz-adv-x="528" 
d="M447 337v-139h-366v139h366z" />
    <glyph glyph-name="registered" unicode="&#xae;" horiz-adv-x="772" 
d="M386 -10c-66.667 0 -126 14.5 -178 43.5s-92.667 69 -122 120s-44 109.833 -44 176.5c0 67.333 14.667 126.333 44 177s70 90.5 122 119.5s111.333 43.5 178 43.5c67.333 0 126.833 -14.5 178.5 -43.5s92.167 -68.833 121.5 -119.5s44 -109.667 44 -177
c0 -66.667 -14.667 -125.5 -44 -176.5s-69.833 -91 -121.5 -120s-111.167 -43.5 -178.5 -43.5zM432 151l-75 144l87 23l109 -167h-121zM386 74c51.333 0 96.166 10.833 134.499 32.5s68.333 51.834 90 90.501s32.5 83 32.5 133s-10.833 94.333 -32.5 133
s-51.667 68.834 -90 90.501s-83.166 32.5 -134.499 32.5c-50.667 0 -95.334 -10.833 -134.001 -32.5s-68.834 -51.834 -90.501 -90.501s-32.5 -83 -32.5 -133s10.833 -94.333 32.5 -133s51.834 -68.834 90.501 -90.501s83.334 -32.5 134.001 -32.5zM238 151l0.000976562 364
h176c25.333 0 47.666 -5 66.999 -15s34.833 -24 46.5 -42s17.5 -38.667 17.5 -62c0 -38 -13 -67.5 -39 -88.5s-60.667 -31.5 -104 -31.5h-62v-125h-102zM340.001 345h50c16 0 28.667 3.33301 38 10s14 17.667 14 33c0 16 -4.66699 27.167 -14 33.5s-22 9.5 -38 9.5h-50v-86z
" />
    <glyph glyph-name="macron" unicode="&#xaf;" horiz-adv-x="500" 
d="M432 674v-105h-364v105h364z" />
    <glyph glyph-name="degree" unicode="&#xb0;" horiz-adv-x="495" 
d="M248 298c-41.333 0 -77 7.66699 -107 23s-53.333 37 -70 65s-25 60.667 -25 98s8.33301 70 25 98s40 49.667 70 65s65.667 23 107 23s77 -7.66699 107 -23s53.333 -37 70 -65s25 -60.667 25 -98s-8.33301 -70 -25 -98s-40 -49.667 -70 -65s-65.667 -23 -107 -23zM248 407
c23.333 0 42.166 7.33301 56.499 22s21.5 33.334 21.5 56.001s-7.16699 41.167 -21.5 55.5s-33.166 21.5 -56.499 21.5s-42.333 -7.16699 -57 -21.5s-22 -32.833 -22 -55.5s7.33301 -41.334 22 -56.001s33.667 -22 57 -22z" />
    <glyph glyph-name="plusminus" unicode="&#xb1;" horiz-adv-x="604" 
d="M364 652v-467h-123v467h123zM553 477v-117h-502v117h502zM553 115v-114h-502v114h502z" />
    <glyph glyph-name="uni00B2" unicode="&#xb2;" horiz-adv-x="392" 
d="M29 333l-0.00292969 77.001l46 26.5l43 25.5c28 19.333 50.667 36.666 68 51.999s29.833 29.666 37.5 42.999s11.5 26 11.5 38c0 14 -3.83301 25 -11.5 33s-19.5 12 -35.5 12c-18 0 -31.5 -6.5 -40.5 -19.5s-13.5 -31.833 -13.5 -56.5l-119 25
c1.33301 44.667 17.833 80.167 49.5 106.5s73.834 39.5 126.501 39.5c42 0 75.667 -6.5 101 -19.5s43.833 -29.333 55.5 -49s17.5 -40.167 17.5 -61.5c0 -16.667 -3.66699 -32.834 -11 -48.501s-18.166 -31 -32.499 -46s-32.166 -29.833 -53.499 -44.5
c-11.333 -7.33301 -23.5 -14.166 -36.5 -20.499s-26.5 -12.166 -40.5 -17.499v-2c10 1.33301 24 2.33301 42 3s34.333 1 49 1h88v-97h-341z" />
    <glyph glyph-name="uni00B3" unicode="&#xb3;" horiz-adv-x="379" 
d="M194 735c48 0 85.4971 -9.83398 112.497 -29.501s40.5 -47.5 40.5 -83.5c0 -17.333 -3.5 -32.666 -10.5 -45.999s-16.833 -23.5 -29.5 -30.5s-27.334 -11.167 -44.001 -12.5v-3c19.333 0 35.833 -3.33301 49.5 -10s24.167 -16.167 31.5 -28.5s11 -27.833 11 -46.5
c0 -23.333 -7.66699 -44 -23 -62s-36 -31.833 -62 -41.5s-56 -14.5 -90 -14.5c-48 0 -86.167 9.5 -114.5 28.5s-47.166 45.167 -56.499 78.5l114 35c2 -18 8.16699 -31.333 18.5 -40s24.166 -13 41.499 -13c16 0 28.333 3.83301 37 11.5s13 18.167 13 31.5
c0 14 -4.66699 23.667 -14 29s-23.333 8 -42 8h-8c-2.66699 0 -5.66699 -0.333008 -9 -1v65c2.66699 -0.666992 5.33398 -1 8.00098 -1h7c16.667 0 29.334 3.5 38.001 10.5s13 17.167 13 30.5c0 14 -3.83301 24.333 -11.5 31s-18.5 10 -32.5 10
c-14.667 0 -26.667 -4 -36 -12s-15.333 -20.667 -18 -38l-109 32c6.66699 36.667 25.834 64.5 57.501 83.5s70.834 28.5 117.501 28.5z" />
    <glyph glyph-name="acute" unicode="&#xb4;" horiz-adv-x="540" 
d="M225 738h158l-101 -173h-124z" />
    <glyph glyph-name="uni00B5" unicode="&#xb5;" horiz-adv-x="621" 
d="M61 -210l0.000976562 710h170v-291c0 -32 6.16699 -54.833 18.5 -68.5s30.166 -20.5 53.499 -20.5c17.333 0 32.5 4 45.5 12s23.333 20.667 31 38s11.5 40 11.5 68v262h170v-500h-150l-6 91c-14 -33.333 -33.5 -58.333 -58.5 -75s-53.5 -25 -85.5 -25
c-14 0 -27.333 1.66699 -40 5s-24 9 -34 17l44 62v-285h-170z" />
    <glyph glyph-name="paragraph" unicode="&#xb6;" horiz-adv-x="748" 
d="M297 -100v277c-50 0.666992 -94.833 10.167 -134.5 28.5s-71 45.333 -94 81s-34.5 79.5 -34.5 131.5c0 52.667 12 97 36 133s57.333 63.167 100 81.5s92 27.5 148 27.5h364v-760h-138v630h-108v-630h-139zM294 307v223.001c-26.667 0 -49.167 -4.5 -67.5 -13.5
s-32.333 -21.833 -42 -38.5s-14.5 -36.334 -14.5 -59.001c0 -23.333 4.83301 -43.333 14.5 -60s23.667 -29.5 42 -38.5s40.833 -13.5 67.5 -13.5z" />
    <glyph glyph-name="periodcentered" unicode="&#xb7;" horiz-adv-x="274" 
d="M137 444c31.333 0 55.833 -8 73.5 -24s26.5 -38.333 26.5 -67c0 -28 -8.83301 -50 -26.5 -66s-42.167 -24 -73.5 -24c-30.667 0 -55 8 -73 24s-27 38 -27 66c0 28.667 9 51 27 67s42.333 24 73 24z" />
    <glyph glyph-name="cedilla" unicode="&#xb8;" horiz-adv-x="500" 
d="M178 10l41.001 27.001c52 -7.33301 90.333 -21.5 115 -42.5s37 -49.167 37 -84.5c0 -37.333 -12.5 -67.5 -37.5 -90.5s-59.167 -34.5 -102.5 -34.5c-26 0 -46.667 2.83301 -62 8.5s-29 12.5 -41 20.5l28 81c8 -4.66699 16.667 -8.83398 26 -12.501
s20.666 -5.5 33.999 -5.5c17.333 0 31.333 5 42 15s16 24 16 42c0 15.333 -7 29 -21 41s-39 23.667 -75 35z" />
    <glyph glyph-name="uni00B9" unicode="&#xb9;" horiz-adv-x="298" 
d="M152 730h103.999v-397h-123v216c0 8 0.333008 17.833 1 29.5l2 35.5c-16 -12 -33.833 -22.333 -53.5 -31s-40.834 -14.667 -63.501 -18v101c14.667 2 30.834 6.33301 48.501 13s34.334 14.5 50.001 23.5s27.167 18.167 34.5 27.5z" />
    <glyph glyph-name="ordmasculine" unicode="&#xba;" horiz-adv-x="422" 
d="M211 306c-54.667 0 -98.5 15.667 -131.5 47s-49.5 75 -49.5 131s16.5 99.667 49.5 131s76.833 47 131.5 47c55.333 0 99.5 -15.667 132.5 -47s49.5 -75 49.5 -131s-16.5 -99.667 -49.5 -131s-77.167 -47 -132.5 -47zM36 151v89h350v-89h-350zM211 388
c20 0 34.167 7.66699 42.5 23s12.5 39.666 12.5 72.999s-4.16699 57.666 -12.5 72.999s-22.5 23 -42.5 23c-19.333 0 -33.333 -7.66699 -42 -23s-13 -39.666 -13 -72.999s4.33301 -57.666 13 -72.999s22.667 -23 42 -23z" />
    <glyph glyph-name="guillemotright" unicode="&#xbb;" horiz-adv-x="585" 
d="M278 69l120 196l-120 196h147l126 -196l-126 -196h-147zM35 69l121 196l-121 196h148l125 -196l-125 -196h-148z" />
    <glyph glyph-name="onequarter" unicode="&#xbc;" horiz-adv-x="872" 
d="M152 665h103.999v-397h-123v216c0 8 0.333008 17.833 1 29.5l2 35.5c-16 -12 -33.833 -22.333 -53.5 -31s-40.834 -14.667 -63.501 -18v101c14.667 2 30.834 6.33301 48.501 13s34.334 14.5 50.001 23.5s27.167 18.167 34.5 27.5zM124.999 0l477 661h120l-477 -661h-120z
M857.999 162v-81h-61v-85h-107v85h-201v56l162 257h146v-232h61zM594.999 162h94.998v78c0 13.333 0.333008 27 1 41s1.33398 27 2.00098 39h-3l-14 -29.5c-5.33301 -11 -10.666 -20.833 -15.999 -29.5z" />
    <glyph glyph-name="onehalf" unicode="&#xbd;" horiz-adv-x="941" 
d="M152 665h103.999v-397h-123v216c0 8 0.333008 17.833 1 29.5l2 35.5c-16 -12 -33.833 -22.333 -53.5 -31s-40.834 -14.667 -63.501 -18v101c14.667 2 30.834 6.33301 48.501 13s34.334 14.5 50.001 23.5s27.167 18.167 34.5 27.5zM124.999 0l477 661h120l-477 -661h-120z
M577.999 -4l-0.00292969 77.001l46 26.5l43 25.5c28 19.333 50.667 36.666 68 51.999s29.833 29.666 37.5 42.999s11.5 26 11.5 38c0 14 -3.83301 25 -11.5 33s-19.5 12 -35.5 12c-18 0 -31.5 -6.5 -40.5 -19.5s-13.5 -31.833 -13.5 -56.5l-119 25
c1.33301 44.667 17.833 80.167 49.5 106.5s73.834 39.5 126.501 39.5c42 0 75.667 -6.5 101 -19.5s43.833 -29.333 55.5 -49s17.5 -40.167 17.5 -61.5c0 -16.667 -3.66699 -32.834 -11 -48.501s-18.166 -31 -32.499 -46s-32.166 -29.833 -53.499 -44.5
c-11.333 -7.33301 -23.5 -14.166 -36.5 -20.499s-26.5 -12.166 -40.5 -17.499v-2c10 1.33301 24 2.33301 42 3s34.333 1 49 1h88v-97h-341z" />
    <glyph glyph-name="threequarters" unicode="&#xbe;" horiz-adv-x="954" 
d="M194 670c48 0 85.4971 -9.83398 112.497 -29.501s40.5 -47.5 40.5 -83.5c0 -17.333 -3.5 -32.666 -10.5 -45.999s-16.833 -23.5 -29.5 -30.5s-27.334 -11.167 -44.001 -12.5v-3c19.333 0 35.833 -3.33301 49.5 -10s24.167 -16.167 31.5 -28.5s11 -27.833 11 -46.5
c0 -23.333 -7.66699 -44 -23 -62s-36 -31.833 -62 -41.5s-56 -14.5 -90 -14.5c-48 0 -86.167 9.5 -114.5 28.5s-47.166 45.167 -56.499 78.5l114 35c2 -18 8.16699 -31.333 18.5 -40s24.166 -13 41.499 -13c16 0 28.333 3.83301 37 11.5s13 18.167 13 31.5
c0 14 -4.66699 23.667 -14 29s-23.333 8 -42 8h-8c-2.66699 0 -5.66699 -0.333008 -9 -1v65c2.66699 -0.666992 5.33398 -1 8.00098 -1h7c16.667 0 29.334 3.5 38.001 10.5s13 17.167 13 30.5c0 14 -3.83301 24.333 -11.5 31s-18.5 10 -32.5 10
c-14.667 0 -26.667 -4 -36 -12s-15.333 -20.667 -18 -38l-109 32c6.66699 36.667 25.834 64.5 57.501 83.5s70.834 28.5 117.501 28.5zM205.997 -0.000976562l477 661h120l-477 -661h-120zM939.997 161.999v-81h-61v-85h-107v85h-201v56l162 257h146v-232h61z
M676.997 161.999h94.998v78c0 13.333 0.333008 27 1 41s1.33398 27 2.00098 39h-3l-14 -29.5c-5.33301 -11 -10.666 -20.833 -15.999 -29.5z" />
    <glyph glyph-name="questiondown" unicode="&#xbf;" horiz-adv-x="605" 
d="M298 -169c-49.333 0 -93.333 6.83105 -132 20.498s-69.167 34.334 -91.5 62.001s-33.5 62.167 -33.5 103.5s8.66699 74.833 26 100.5s40.333 45.167 69 58.5s60.334 21.666 95.001 24.999l11 86h149v-153c-42.667 -3.33301 -76 -9.16602 -100 -17.499
s-41 -18.833 -51 -31.5s-15 -27.667 -15 -45c0 -15.333 3 -28.333 9 -39s15.333 -18.667 28 -24s28.667 -8 48 -8c29.333 0 52.333 8.5 69 25.5s27 41.833 31 74.5l164 -56c-8 -35.333 -23 -66.666 -45 -93.999s-51.833 -48.833 -89.5 -64.5s-84.834 -23.5 -141.501 -23.5z
M314 341.998c-30 0 -53.5 7.33301 -70.5 22s-25.5 35 -25.5 61s8.5 46.5 25.5 61.5s40.5 22.5 70.5 22.5s53.5 -7.5 70.5 -22.5s25.5 -35.5 25.5 -61.5s-8.5 -46.333 -25.5 -61s-40.5 -22 -70.5 -22z" />
    <glyph glyph-name="Agrave" unicode="&#xc0;" horiz-adv-x="677" 
d="M673 0h-177l-46 149h-226l-47 -149h-173l232 660h206zM256 266h162l-81 267zM347 886l61 -163h-124l-89 163h152z" />
    <glyph glyph-name="Aacute" unicode="&#xc1;" horiz-adv-x="677" 
d="M673 0h-177l-46 149h-226l-47 -149h-173l232 660h206zM256 266h162l-81 267zM327 886h152l-89 -163h-124z" />
    <glyph glyph-name="Acircumflex" unicode="&#xc2;" horiz-adv-x="677" 
d="M673 0h-177l-46 149h-226l-47 -149h-173l232 660h206zM256 266h162l-81 267zM521 723h-118l-65 92l-65 -92h-118l100 163h166z" />
    <glyph glyph-name="Atilde" unicode="&#xc3;" horiz-adv-x="677" 
d="M673 0h-177l-46 149h-226l-47 -149h-173l232 660h206zM256 266h162l-81 267zM536 878c-1.33301 -35.333 -7.49707 -64.8311 -18.4971 -88.498s-25.667 -41.334 -44 -53.001s-38.5 -17.5 -60.5 -17.5c-18.667 0 -34.834 2.83301 -48.501 8.5s-25.5 12.334 -35.5 20.001
s-19.333 14.334 -28 20.001s-18 8.5 -28 8.5c-11.333 0 -20 -4.66699 -26 -14s-10 -23.333 -12 -42h-96c2 53.333 15 93.166 39 119.499s54.667 39.5 92 39.5c18 0 33.333 -2.83301 46 -8.5s23.667 -12.334 33 -20.001s18.166 -14.334 26.499 -20.001
s17.166 -8.5 26.499 -8.5c12 0 20.833 4.66699 26.5 14s9.5 23.333 11.5 42h96z" />
    <glyph glyph-name="Adieresis" unicode="&#xc4;" horiz-adv-x="677" 
d="M673 0h-177l-46 149h-226l-47 -149h-173l232 660h206zM256 266h162l-81 267zM227 870c27.333 0 48.5 -6.66699 63.5 -20s22.5 -32.333 22.5 -57c0 -24 -7.5 -42.833 -22.5 -56.5s-36.167 -20.5 -63.5 -20.5c-26 0 -46.5 6.83301 -61.5 20.5s-22.5 32.5 -22.5 56.5
c0 24.667 7.5 43.667 22.5 57s35.5 20 61.5 20zM447 870c26.667 0 47.667 -6.66699 63 -20s23 -32.333 23 -57c0 -24 -7.66699 -42.833 -23 -56.5s-36.333 -20.5 -63 -20.5c-26 0 -46.5 6.83301 -61.5 20.5s-22.5 32.5 -22.5 56.5c0 24.667 7.5 43.667 22.5 57
s35.5 20 61.5 20z" />
    <glyph glyph-name="Aring" unicode="&#xc5;" horiz-adv-x="677" 
d="M673 0h-177l-46 149h-226l-47 -149h-173l232 660h206zM256 266h162l-81 267zM338 842c42 0 75.667 -11.333 101 -34s38 -53 38 -91c0 -38.667 -12.667 -69.334 -38 -92.001s-59 -34 -101 -34s-75.833 11.333 -101.5 34s-38.5 53.334 -38.5 92.001
c0 38 12.833 68.333 38.5 91s59.5 34 101.5 34zM338 769c-16 0 -29 -4.66699 -39 -14s-15 -22 -15 -38s5 -28.833 15 -38.5s23 -14.5 39 -14.5s28.833 4.83301 38.5 14.5s14.5 22.5 14.5 38.5s-4.83301 28.667 -14.5 38s-22.5 14 -38.5 14z" />
    <glyph glyph-name="AE" unicode="&#xc6;" horiz-adv-x="924" 
d="M581 127h313v-127h-473v196h-175l-77 -196h-173l283 660h601v-127h-299v-142h229v-120h-229v-144zM283 308h138v230h-42z" />
    <glyph glyph-name="Ccedilla" unicode="&#xc7;" horiz-adv-x="681" 
d="M658 189c-12.667 -46 -32.999 -83.833 -60.999 -113.5s-61.333 -51.334 -100 -65.001s-81.334 -20.5 -128.001 -20.5c-66.667 0 -124.334 13.5 -173.001 40.5s-86 65.833 -112 116.5s-39 111.667 -39 183s13 132.333 39 183s63.333 89.5 112 116.5s106 40.5 172 40.5
c46 0 88.333 -6.5 127 -19.5s71.334 -32.833 98.001 -59.5s45.667 -61 57 -103l-151 -61c-9.33301 41.333 -24.5 69.666 -45.5 84.999s-47.5 23 -79.5 23c-31.333 0 -58.5 -7.66699 -81.5 -23s-40.667 -38.166 -53 -68.499s-18.5 -68.166 -18.5 -113.499
c0 -44.667 5.66699 -82.334 17 -113.001s28.5 -53.667 51.5 -69s51.5 -23 85.5 -23c32 0 59.167 8.83301 81.5 26.5s37.5 44.834 45.5 81.501zM283.001 10l41.001 27.001c52 -7.33301 90.333 -21.5 115 -42.5s37 -49.167 37 -84.5c0 -37.333 -12.5 -67.5 -37.5 -90.5
s-59.167 -34.5 -102.5 -34.5c-26 0 -46.667 2.83301 -62 8.5s-29 12.5 -41 20.5l28 81c8 -4.66699 16.667 -8.83398 26 -12.501s20.666 -5.5 33.999 -5.5c17.333 0 31.333 5 42 15s16 24 16 42c0 15.333 -7 29 -21 41s-39 23.667 -75 35z" />
    <glyph glyph-name="Egrave" unicode="&#xc8;" horiz-adv-x="631" 
d="M73 0v660h514v-133h-342v-134h272v-125h-272v-135h355v-133h-527zM341 886l61 -163h-124l-89 163h152z" />
    <glyph glyph-name="Eacute" unicode="&#xc9;" horiz-adv-x="631" 
d="M73 0v660h514v-133h-342v-134h272v-125h-272v-135h355v-133h-527zM313 886h152l-89 -163h-124z" />
    <glyph glyph-name="Ecircumflex" unicode="&#xca;" horiz-adv-x="631" 
d="M73 0v660h514v-133h-342v-134h272v-125h-272v-135h355v-133h-527zM513 723h-118l-65 92l-65 -92h-118l100 163h166z" />
    <glyph glyph-name="Edieresis" unicode="&#xcb;" horiz-adv-x="631" 
d="M73 0v660h514v-133h-342v-134h272v-125h-272v-135h355v-133h-527zM219 870c27.333 0 48.5 -6.66699 63.5 -20s22.5 -32.333 22.5 -57c0 -24 -7.5 -42.833 -22.5 -56.5s-36.167 -20.5 -63.5 -20.5c-26 0 -46.5 6.83301 -61.5 20.5s-22.5 32.5 -22.5 56.5
c0 24.667 7.5 43.667 22.5 57s35.5 20 61.5 20zM439 870c26.667 0 47.667 -6.66699 63 -20s23 -32.333 23 -57c0 -24 -7.66699 -42.833 -23 -56.5s-36.333 -20.5 -63 -20.5c-26 0 -46.5 6.83301 -61.5 20.5s-22.5 32.5 -22.5 56.5c0 24.667 7.5 43.667 22.5 57
s35.5 20 61.5 20z" />
    <glyph glyph-name="Igrave" unicode="&#xcc;" horiz-adv-x="318" 
d="M245 660v-660h-172v660h172zM166 886l61 -163h-124l-89 163h152z" />
    <glyph glyph-name="Iacute" unicode="&#xcd;" horiz-adv-x="318" 
d="M245 660v-660h-172v660h172zM152 886h152l-89 -163h-124z" />
    <glyph glyph-name="Icircumflex" unicode="&#xce;" horiz-adv-x="318" 
d="M245 660v-660h-172v660h172zM342 723h-118l-65 92l-65 -92h-118l100 163h166z" />
    <glyph glyph-name="Idieresis" unicode="&#xcf;" horiz-adv-x="318" 
d="M56 870c26 0 46.5 -6.66699 61.5 -20s22.5 -32.333 22.5 -57c0 -24 -7.5 -42.833 -22.5 -56.5s-35.5 -20.5 -61.5 -20.5c-25.333 0 -45.333 6.83301 -60 20.5s-22 32.5 -22 56.5c0 24.667 7.33301 43.667 22 57s34.667 20 60 20zM260 870c26 0 46.5 -6.66699 61.5 -20
s22.5 -32.333 22.5 -57c0 -24 -7.5 -42.833 -22.5 -56.5s-35.5 -20.5 -61.5 -20.5c-25.333 0 -45.333 6.83301 -60 20.5s-22 32.5 -22 56.5c0 24.667 7.33301 43.667 22 57s34.667 20 60 20zM245 660v-660h-172v660h172z" />
    <glyph glyph-name="Eth" unicode="&#xd0;" horiz-adv-x="741" 
d="M13 270v120h386v-120h-386zM376 660c103.333 0 182.666 -28.6689 237.999 -86.002s83 -138.666 83 -243.999s-27.667 -186.666 -83 -243.999s-134.666 -86 -237.999 -86h-280v660h280zM359 129.998c56.667 0 97.667 16.833 123 50.5s38 83.5 38 149.5
s-12.667 115.833 -38 149.5s-66.333 50.5 -123 50.5h-91v-400h91z" />
    <glyph glyph-name="Ntilde" unicode="&#xd1;" horiz-adv-x="741" 
d="M668 660v-660h-191l-205 357l-50 98h-1l4 -122v-333h-152v660h191l205 -357l50 -98h1l-4 122v333h152zM570 878c-1.33301 -35.333 -7.49707 -64.8311 -18.4971 -88.498s-25.667 -41.334 -44 -53.001s-38.5 -17.5 -60.5 -17.5c-18.667 0 -34.834 2.83301 -48.501 8.5
s-25.5 12.334 -35.5 20.001s-19.333 14.334 -28 20.001s-18 8.5 -28 8.5c-11.333 0 -20 -4.66699 -26 -14s-10 -23.333 -12 -42h-96c2 53.333 15 93.166 39 119.499s54.667 39.5 92 39.5c18 0 33.333 -2.83301 46 -8.5s23.667 -12.334 33 -20.001
s18.166 -14.334 26.499 -20.001s17.166 -8.5 26.499 -8.5c12 0 20.833 4.66699 26.5 14s9.5 23.333 11.5 42h96z" />
    <glyph glyph-name="Ograve" unicode="&#xd2;" horiz-adv-x="737" 
d="M369 670c66.667 0 124.167 -13.5 172.5 -40.5s85.5 -65.833 111.5 -116.5s39 -111.667 39 -183s-13 -132.333 -39 -183s-63.167 -89.5 -111.5 -116.5s-105.833 -40.5 -172.5 -40.5s-124.334 13.5 -173.001 40.5s-86 65.833 -112 116.5s-39 111.667 -39 183
s13 132.333 39 183s63.333 89.5 112 116.5s106.334 40.5 173.001 40.5zM369 535c-32 0 -59 -7.66699 -81 -23s-38.667 -38.166 -50 -68.499s-17 -68.166 -17 -113.499c0 -44.667 5.66699 -82.334 17 -113.001s28 -53.667 50 -69s49 -23 81 -23s58.833 7.66699 80.5 23
s38.167 38.333 49.5 69s17 68.334 17 113.001c0 45.333 -5.66699 83.166 -17 113.499s-27.833 53.166 -49.5 68.499s-48.5 23 -80.5 23zM376 886l61 -163h-124l-89 163h152z" />
    <glyph glyph-name="Oacute" unicode="&#xd3;" horiz-adv-x="737" 
d="M369 670c66.667 0 124.167 -13.5 172.5 -40.5s85.5 -65.833 111.5 -116.5s39 -111.667 39 -183s-13 -132.333 -39 -183s-63.167 -89.5 -111.5 -116.5s-105.833 -40.5 -172.5 -40.5s-124.334 13.5 -173.001 40.5s-86 65.833 -112 116.5s-39 111.667 -39 183
s13 132.333 39 183s63.333 89.5 112 116.5s106.334 40.5 173.001 40.5zM369 535c-32 0 -59 -7.66699 -81 -23s-38.667 -38.166 -50 -68.499s-17 -68.166 -17 -113.499c0 -44.667 5.66699 -82.334 17 -113.001s28 -53.667 50 -69s49 -23 81 -23s58.833 7.66699 80.5 23
s38.167 38.333 49.5 69s17 68.334 17 113.001c0 45.333 -5.66699 83.166 -17 113.499s-27.833 53.166 -49.5 68.499s-48.5 23 -80.5 23zM358 886h152l-89 -163h-124z" />
    <glyph glyph-name="Ocircumflex" unicode="&#xd4;" horiz-adv-x="737" 
d="M369 670c66.667 0 124.167 -13.5 172.5 -40.5s85.5 -65.833 111.5 -116.5s39 -111.667 39 -183s-13 -132.333 -39 -183s-63.167 -89.5 -111.5 -116.5s-105.833 -40.5 -172.5 -40.5s-124.334 13.5 -173.001 40.5s-86 65.833 -112 116.5s-39 111.667 -39 183
s13 132.333 39 183s63.333 89.5 112 116.5s106.334 40.5 173.001 40.5zM369 535c-32 0 -59 -7.66699 -81 -23s-38.667 -38.166 -50 -68.499s-17 -68.166 -17 -113.499c0 -44.667 5.66699 -82.334 17 -113.001s28 -53.667 50 -69s49 -23 81 -23s58.833 7.66699 80.5 23
s38.167 38.333 49.5 69s17 68.334 17 113.001c0 45.333 -5.66699 83.166 -17 113.499s-27.833 53.166 -49.5 68.499s-48.5 23 -80.5 23zM552 723h-118l-65 92l-65 -92h-118l100 163h166z" />
    <glyph glyph-name="Otilde" unicode="&#xd5;" horiz-adv-x="737" 
d="M369 670c66.667 0 124.167 -13.5 172.5 -40.5s85.5 -65.833 111.5 -116.5s39 -111.667 39 -183s-13 -132.333 -39 -183s-63.167 -89.5 -111.5 -116.5s-105.833 -40.5 -172.5 -40.5s-124.334 13.5 -173.001 40.5s-86 65.833 -112 116.5s-39 111.667 -39 183
s13 132.333 39 183s63.333 89.5 112 116.5s106.334 40.5 173.001 40.5zM369 535c-32 0 -59 -7.66699 -81 -23s-38.667 -38.166 -50 -68.499s-17 -68.166 -17 -113.499c0 -44.667 5.66699 -82.334 17 -113.001s28 -53.667 50 -69s49 -23 81 -23s58.833 7.66699 80.5 23
s38.167 38.333 49.5 69s17 68.334 17 113.001c0 45.333 -5.66699 83.166 -17 113.499s-27.833 53.166 -49.5 68.499s-48.5 23 -80.5 23zM567 878c-1.33301 -35.333 -7.49707 -64.8311 -18.4971 -88.498s-25.667 -41.334 -44 -53.001s-38.5 -17.5 -60.5 -17.5
c-18.667 0 -34.834 2.83301 -48.501 8.5s-25.5 12.334 -35.5 20.001s-19.333 14.334 -28 20.001s-18 8.5 -28 8.5c-11.333 0 -20 -4.66699 -26 -14s-10 -23.333 -12 -42h-96c2 53.333 15 93.166 39 119.499s54.667 39.5 92 39.5c18 0 33.333 -2.83301 46 -8.5
s23.667 -12.334 33 -20.001s18.166 -14.334 26.499 -20.001s17.166 -8.5 26.499 -8.5c12 0 20.833 4.66699 26.5 14s9.5 23.333 11.5 42h96z" />
    <glyph glyph-name="Odieresis" unicode="&#xd6;" horiz-adv-x="737" 
d="M369 670c66.667 0 124.167 -13.5 172.5 -40.5s85.5 -65.833 111.5 -116.5s39 -111.667 39 -183s-13 -132.333 -39 -183s-63.167 -89.5 -111.5 -116.5s-105.833 -40.5 -172.5 -40.5s-124.334 13.5 -173.001 40.5s-86 65.833 -112 116.5s-39 111.667 -39 183
s13 132.333 39 183s63.333 89.5 112 116.5s106.334 40.5 173.001 40.5zM369 535c-32 0 -59 -7.66699 -81 -23s-38.667 -38.166 -50 -68.499s-17 -68.166 -17 -113.499c0 -44.667 5.66699 -82.334 17 -113.001s28 -53.667 50 -69s49 -23 81 -23s58.833 7.66699 80.5 23
s38.167 38.333 49.5 69s17 68.334 17 113.001c0 45.333 -5.66699 83.166 -17 113.499s-27.833 53.166 -49.5 68.499s-48.5 23 -80.5 23zM258 870c27.333 0 48.5 -6.66699 63.5 -20s22.5 -32.333 22.5 -57c0 -24 -7.5 -42.833 -22.5 -56.5s-36.167 -20.5 -63.5 -20.5
c-26 0 -46.5 6.83301 -61.5 20.5s-22.5 32.5 -22.5 56.5c0 24.667 7.5 43.667 22.5 57s35.5 20 61.5 20zM478 870c26.667 0 47.667 -6.66699 63 -20s23 -32.333 23 -57c0 -24 -7.66699 -42.833 -23 -56.5s-36.333 -20.5 -63 -20.5c-26 0 -46.5 6.83301 -61.5 20.5
s-22.5 32.5 -22.5 56.5c0 24.667 7.5 43.667 22.5 57s35.5 20 61.5 20z" />
    <glyph glyph-name="multiply" unicode="&#xd7;" horiz-adv-x="604" 
d="M458 78l92 92l-404 404l-92 -92zM146 78l404 404l-92 92l-404 -404z" />
    <glyph glyph-name="Oslash" unicode="&#xd8;" horiz-adv-x="737" 
d="M252 113l-49 41l269 370l51 -38zM62 -27l124 162l53 -40l-97 -122h-80zM548 515l-53 40l100 126h80zM369 670c66.667 0 124.167 -13.5 172.5 -40.5s85.5 -65.833 111.5 -116.5s39 -111.667 39 -183s-13 -132.333 -39 -183s-63.167 -89.5 -111.5 -116.5
s-105.833 -40.5 -172.5 -40.5s-124.334 13.5 -173.001 40.5s-86 65.833 -112 116.5s-39 111.667 -39 183s13 132.333 39 183s63.333 89.5 112 116.5s106.334 40.5 173.001 40.5zM369 535c-32 0 -59 -7.66699 -81 -23s-38.667 -38.166 -50 -68.499s-17 -68.166 -17 -113.499
c0 -44.667 5.66699 -82.334 17 -113.001s28 -53.667 50 -69s49 -23 81 -23s58.833 7.66699 80.5 23s38.167 38.333 49.5 69s17 68.334 17 113.001c0 45.333 -5.66699 83.166 -17 113.499s-27.833 53.166 -49.5 68.499s-48.5 23 -80.5 23z" />
    <glyph glyph-name="Ugrave" unicode="&#xd9;" horiz-adv-x="710" 
d="M650 660l0.000976562 -391c0 -93.333 -24.833 -163.166 -74.5 -209.499s-123.167 -69.5 -220.5 -69.5c-96.667 0 -170 23.167 -220 69.5s-75 116.166 -75 209.499v391h173v-394c0 -47.333 10.167 -82.666 30.5 -105.999s50.833 -35 91.5 -35
c41.333 0 72.166 11.667 92.499 35s30.5 58.666 30.5 105.999v394h172zM366.001 876l61 -163h-124l-89 163h152z" />
    <glyph glyph-name="Uacute" unicode="&#xda;" horiz-adv-x="710" 
d="M650 660l0.000976562 -391c0 -93.333 -24.833 -163.166 -74.5 -209.499s-123.167 -69.5 -220.5 -69.5c-96.667 0 -170 23.167 -220 69.5s-75 116.166 -75 209.499v391h173v-394c0 -47.333 10.167 -82.666 30.5 -105.999s50.833 -35 91.5 -35
c41.333 0 72.166 11.667 92.499 35s30.5 58.666 30.5 105.999v394h172zM344.001 876h152l-89 -163h-124z" />
    <glyph glyph-name="Ucircumflex" unicode="&#xdb;" horiz-adv-x="710" 
d="M650 660l0.000976562 -391c0 -93.333 -24.833 -163.166 -74.5 -209.499s-123.167 -69.5 -220.5 -69.5c-96.667 0 -170 23.167 -220 69.5s-75 116.166 -75 209.499v391h173v-394c0 -47.333 10.167 -82.666 30.5 -105.999s50.833 -35 91.5 -35
c41.333 0 72.166 11.667 92.499 35s30.5 58.666 30.5 105.999v394h172zM538.001 713h-118l-65 92l-65 -92h-118l100 163h166z" />
    <glyph glyph-name="Udieresis" unicode="&#xdc;" horiz-adv-x="710" 
d="M650 660l0.000976562 -391c0 -93.333 -24.833 -163.166 -74.5 -209.499s-123.167 -69.5 -220.5 -69.5c-96.667 0 -170 23.167 -220 69.5s-75 116.166 -75 209.499v391h173v-394c0 -47.333 10.167 -82.666 30.5 -105.999s50.833 -35 91.5 -35
c41.333 0 72.166 11.667 92.499 35s30.5 58.666 30.5 105.999v394h172zM244.001 860c27.333 0 48.5 -6.66699 63.5 -20s22.5 -32.333 22.5 -57c0 -24 -7.5 -42.833 -22.5 -56.5s-36.167 -20.5 -63.5 -20.5c-26 0 -46.5 6.83301 -61.5 20.5s-22.5 32.5 -22.5 56.5
c0 24.667 7.5 43.667 22.5 57s35.5 20 61.5 20zM464.001 860c26.667 0 47.667 -6.66699 63 -20s23 -32.333 23 -57c0 -24 -7.66699 -42.833 -23 -56.5s-36.333 -20.5 -63 -20.5c-26 0 -46.5 6.83301 -61.5 20.5s-22.5 32.5 -22.5 56.5c0 24.667 7.5 43.667 22.5 57
s35.5 20 61.5 20z" />
    <glyph glyph-name="Yacute" unicode="&#xdd;" horiz-adv-x="657" 
d="M647 660l-233 -419v-241h-172v241l-233 419h178l93 -181l49 -110l50 110l93 181h175zM317 878h152l-89 -163h-124z" />
    <glyph glyph-name="Thorn" unicode="&#xde;" horiz-adv-x="674" 
d="M374 559c84 0 148.5 -18.8311 193.5 -56.498s67.5 -92.834 67.5 -165.501s-22.5 -127.834 -67.5 -165.501s-109.5 -56.5 -193.5 -56.5h-215v128h196c71.333 0 107 31.667 107 95c0 32 -9.16699 55.333 -27.5 70s-44.833 22 -79.5 22h-196v129h215zM245 660.002v-660h-172
v660h172z" />
    <glyph glyph-name="germandbls" unicode="&#xdf;" horiz-adv-x="646" 
d="M437 362c38 0 70.001 -7.66992 96.001 -23.0029s45.833 -36.166 59.5 -62.499s20.5 -56.166 20.5 -89.499c0 -35.333 -7.33301 -67.833 -22 -97.5s-37.5 -53.667 -68.5 -72s-70.833 -27.5 -119.5 -27.5c-30 0 -56.5 3 -79.5 9s-41.167 13.667 -54.5 23l28 112
c8.66699 -6 18.667 -11.167 30 -15.5s25.666 -6.5 42.999 -6.5c25.333 0 45.5 8.66699 60.5 26s22.5 40.333 22.5 69c0 30 -9 52.833 -27 68.5s-43.667 23.5 -77 23.5h-55l17 119h30c30 0 52.5 8.83301 67.5 26.5s22.5 39.5 22.5 65.5c0 28 -8.5 49 -25.5 63
s-39.167 21 -66.5 21c-40 0 -68 -11.667 -84 -35s-24 -60.333 -24 -111v-448h-170v461c0 53.333 9.16699 99 27.5 137s48.333 67.333 90 88s97.167 31 166.5 31c54.667 0 100.667 -8.16699 138 -24.5s65.5 -38.666 84.5 -66.999s28.5 -60.5 28.5 -96.5
c0 -27.333 -6.16699 -53.5 -18.5 -78.5s-30.333 -45.5 -54 -61.5s-52.5 -24.333 -86.5 -25v-2z" />
    <glyph glyph-name="agrave" unicode="&#xe0;" 
d="M340 317c0 23.333 -6.5 41.8291 -19.5 55.4961s-30.5 20.5 -52.5 20.5s-40.833 -5.5 -56.5 -16.5s-26.5 -30.5 -32.5 -58.5l-144 34c9.33301 48 34 86.333 74 115s96.333 43 169 43c48.667 0 90.167 -7.16699 124.5 -21.5s60.666 -35.666 78.999 -63.999
s27.5 -63.166 27.5 -104.499v-183c0 -26 11.667 -39 35 -39c12 0 21.667 1.33301 29 4l-10 -97c-20 -9.33301 -44.333 -14 -73 -14c-26 0 -49 4.16699 -69 12.5s-35.667 21 -47 38s-17 38.5 -17 64.5v6l19 7c0 -28.667 -8.5 -52.667 -25.5 -72s-39 -33.666 -66 -42.999
s-55.167 -14 -84.5 -14c-34 0 -63.667 5.33301 -89 16s-44.833 26.167 -58.5 46.5s-20.5 45.5 -20.5 75.5c0 36 10.833 65.833 32.5 89.5s55.834 40.167 102.501 49.5l189 39l-1 -90l-96 -20c-20 -4 -34.833 -9.83301 -44.5 -17.5s-14.5 -19.167 -14.5 -34.5
c0 -14.667 5.33301 -25.667 16 -33s23.334 -11 38.001 -11c11.333 0 22.166 1.66699 32.499 5s19.5 8.5 27.5 15.5s14.333 15.833 19 26.5s7 23.334 7 38.001v132zM277 737.996l67 -173h-124l-101 173h158z" />
    <glyph glyph-name="aacute" unicode="&#xe1;" 
d="M340 317c0 23.333 -6.5 41.8291 -19.5 55.4961s-30.5 20.5 -52.5 20.5s-40.833 -5.5 -56.5 -16.5s-26.5 -30.5 -32.5 -58.5l-144 34c9.33301 48 34 86.333 74 115s96.333 43 169 43c48.667 0 90.167 -7.16699 124.5 -21.5s60.666 -35.666 78.999 -63.999
s27.5 -63.166 27.5 -104.499v-183c0 -26 11.667 -39 35 -39c12 0 21.667 1.33301 29 4l-10 -97c-20 -9.33301 -44.333 -14 -73 -14c-26 0 -49 4.16699 -69 12.5s-35.667 21 -47 38s-17 38.5 -17 64.5v6l19 7c0 -28.667 -8.5 -52.667 -25.5 -72s-39 -33.666 -66 -42.999
s-55.167 -14 -84.5 -14c-34 0 -63.667 5.33301 -89 16s-44.833 26.167 -58.5 46.5s-20.5 45.5 -20.5 75.5c0 36 10.833 65.833 32.5 89.5s55.834 40.167 102.501 49.5l189 39l-1 -90l-96 -20c-20 -4 -34.833 -9.83301 -44.5 -17.5s-14.5 -19.167 -14.5 -34.5
c0 -14.667 5.33301 -25.667 16 -33s23.334 -11 38.001 -11c11.333 0 22.166 1.66699 32.499 5s19.5 8.5 27.5 15.5s14.333 15.833 19 26.5s7 23.334 7 38.001v132zM267 737.996h158l-101 -173h-124z" />
    <glyph glyph-name="acircumflex" unicode="&#xe2;" 
d="M340 317c0 23.333 -6.5 41.8291 -19.5 55.4961s-30.5 20.5 -52.5 20.5s-40.833 -5.5 -56.5 -16.5s-26.5 -30.5 -32.5 -58.5l-144 34c9.33301 48 34 86.333 74 115s96.333 43 169 43c48.667 0 90.167 -7.16699 124.5 -21.5s60.666 -35.666 78.999 -63.999
s27.5 -63.166 27.5 -104.499v-183c0 -26 11.667 -39 35 -39c12 0 21.667 1.33301 29 4l-10 -97c-20 -9.33301 -44.333 -14 -73 -14c-26 0 -49 4.16699 -69 12.5s-35.667 21 -47 38s-17 38.5 -17 64.5v6l19 7c0 -28.667 -8.5 -52.667 -25.5 -72s-39 -33.666 -66 -42.999
s-55.167 -14 -84.5 -14c-34 0 -63.667 5.33301 -89 16s-44.833 26.167 -58.5 46.5s-20.5 45.5 -20.5 75.5c0 36 10.833 65.833 32.5 89.5s55.834 40.167 102.501 49.5l189 39l-1 -90l-96 -20c-20 -4 -34.833 -9.83301 -44.5 -17.5s-14.5 -19.167 -14.5 -34.5
c0 -14.667 5.33301 -25.667 16 -33s23.334 -11 38.001 -11c11.333 0 22.166 1.66699 32.499 5s19.5 8.5 27.5 15.5s14.333 15.833 19 26.5s7 23.334 7 38.001v132zM468 558.996h-122l-69 88l-69 -88h-122l109 173h164z" />
    <glyph glyph-name="atilde" unicode="&#xe3;" 
d="M340 317c0 23.333 -6.5 41.8291 -19.5 55.4961s-30.5 20.5 -52.5 20.5s-40.833 -5.5 -56.5 -16.5s-26.5 -30.5 -32.5 -58.5l-144 34c9.33301 48 34 86.333 74 115s96.333 43 169 43c48.667 0 90.167 -7.16699 124.5 -21.5s60.666 -35.666 78.999 -63.999
s27.5 -63.166 27.5 -104.499v-183c0 -26 11.667 -39 35 -39c12 0 21.667 1.33301 29 4l-10 -97c-20 -9.33301 -44.333 -14 -73 -14c-26 0 -49 4.16699 -69 12.5s-35.667 21 -47 38s-17 38.5 -17 64.5v6l19 7c0 -28.667 -8.5 -52.667 -25.5 -72s-39 -33.666 -66 -42.999
s-55.167 -14 -84.5 -14c-34 0 -63.667 5.33301 -89 16s-44.833 26.167 -58.5 46.5s-20.5 45.5 -20.5 75.5c0 36 10.833 65.833 32.5 89.5s55.834 40.167 102.501 49.5l189 39l-1 -90l-96 -20c-20 -4 -34.833 -9.83301 -44.5 -17.5s-14.5 -19.167 -14.5 -34.5
c0 -14.667 5.33301 -25.667 16 -33s23.334 -11 38.001 -11c11.333 0 22.166 1.66699 32.499 5s19.5 8.5 27.5 15.5s14.333 15.833 19 26.5s7 23.334 7 38.001v132zM475 717.996c-1.33301 -35.333 -7.49707 -64.8311 -18.4971 -88.498s-25.667 -41.334 -44 -53.001
s-38.5 -17.5 -60.5 -17.5c-18.667 0 -34.834 2.83301 -48.501 8.5s-25.5 12.334 -35.5 20.001s-19.333 14.334 -28 20.001s-18 8.5 -28 8.5c-11.333 0 -20 -4.66699 -26 -14s-10 -23.333 -12 -42h-96c2 53.333 15 93.166 39 119.499s54.667 39.5 92 39.5
c18 0 33.333 -2.83301 46 -8.5s23.667 -12.334 33 -20.001s18.166 -14.334 26.499 -20.001s17.166 -8.5 26.499 -8.5c12 0 20.833 4.66699 26.5 14s9.5 23.333 11.5 42h96z" />
    <glyph glyph-name="adieresis" unicode="&#xe4;" 
d="M340 317c0 23.333 -6.5 41.8291 -19.5 55.4961s-30.5 20.5 -52.5 20.5s-40.833 -5.5 -56.5 -16.5s-26.5 -30.5 -32.5 -58.5l-144 34c9.33301 48 34 86.333 74 115s96.333 43 169 43c48.667 0 90.167 -7.16699 124.5 -21.5s60.666 -35.666 78.999 -63.999
s27.5 -63.166 27.5 -104.499v-183c0 -26 11.667 -39 35 -39c12 0 21.667 1.33301 29 4l-10 -97c-20 -9.33301 -44.333 -14 -73 -14c-26 0 -49 4.16699 -69 12.5s-35.667 21 -47 38s-17 38.5 -17 64.5v6l19 7c0 -28.667 -8.5 -52.667 -25.5 -72s-39 -33.666 -66 -42.999
s-55.167 -14 -84.5 -14c-34 0 -63.667 5.33301 -89 16s-44.833 26.167 -58.5 46.5s-20.5 45.5 -20.5 75.5c0 36 10.833 65.833 32.5 89.5s55.834 40.167 102.501 49.5l189 39l-1 -90l-96 -20c-20 -4 -34.833 -9.83301 -44.5 -17.5s-14.5 -19.167 -14.5 -34.5
c0 -14.667 5.33301 -25.667 16 -33s23.334 -11 38.001 -11c11.333 0 22.166 1.66699 32.499 5s19.5 8.5 27.5 15.5s14.333 15.833 19 26.5s7 23.334 7 38.001v132zM166 709.996c27.333 0 48.5 -6.66699 63.5 -20s22.5 -32.333 22.5 -57c0 -24 -7.5 -42.833 -22.5 -56.5
s-36.167 -20.5 -63.5 -20.5c-26 0 -46.5 6.83301 -61.5 20.5s-22.5 32.5 -22.5 56.5c0 24.667 7.5 43.667 22.5 57s35.5 20 61.5 20zM386 709.996c26.667 0 47.667 -6.66699 63 -20s23 -32.333 23 -57c0 -24 -7.66699 -42.833 -23 -56.5s-36.333 -20.5 -63 -20.5
c-26 0 -46.5 6.83301 -61.5 20.5s-22.5 32.5 -22.5 56.5c0 24.667 7.5 43.667 22.5 57s35.5 20 61.5 20z" />
    <glyph glyph-name="aring" unicode="&#xe5;" 
d="M340 317c0 23.333 -6.5 41.8291 -19.5 55.4961s-30.5 20.5 -52.5 20.5s-40.833 -5.5 -56.5 -16.5s-26.5 -30.5 -32.5 -58.5l-144 34c9.33301 48 34 86.333 74 115s96.333 43 169 43c48.667 0 90.167 -7.16699 124.5 -21.5s60.666 -35.666 78.999 -63.999
s27.5 -63.166 27.5 -104.499v-183c0 -26 11.667 -39 35 -39c12 0 21.667 1.33301 29 4l-10 -97c-20 -9.33301 -44.333 -14 -73 -14c-26 0 -49 4.16699 -69 12.5s-35.667 21 -47 38s-17 38.5 -17 64.5v6l19 7c0 -28.667 -8.5 -52.667 -25.5 -72s-39 -33.666 -66 -42.999
s-55.167 -14 -84.5 -14c-34 0 -63.667 5.33301 -89 16s-44.833 26.167 -58.5 46.5s-20.5 45.5 -20.5 75.5c0 36 10.833 65.833 32.5 89.5s55.834 40.167 102.501 49.5l189 39l-1 -90l-96 -20c-20 -4 -34.833 -9.83301 -44.5 -17.5s-14.5 -19.167 -14.5 -34.5
c0 -14.667 5.33301 -25.667 16 -33s23.334 -11 38.001 -11c11.333 0 22.166 1.66699 32.499 5s19.5 8.5 27.5 15.5s14.333 15.833 19 26.5s7 23.334 7 38.001v132zM276 801.996c42 0 75.667 -11.333 101 -34s38 -53 38 -91c0 -38.667 -12.667 -69.334 -38 -92.001
s-59 -34 -101 -34s-75.833 11.333 -101.5 34s-38.5 53.334 -38.5 92.001c0 38 12.833 68.333 38.5 91s59.5 34 101.5 34zM276 728.996c-16 0 -29 -4.66699 -39 -14s-15 -22 -15 -38s5 -28.833 15 -38.5s23 -14.5 39 -14.5s28.833 4.83301 38.5 14.5s14.5 22.5 14.5 38.5
s-4.83301 28.667 -14.5 38s-22.5 14 -38.5 14z" />
    <glyph glyph-name="ae" unicode="&#xe6;" horiz-adv-x="878" 
d="M208 -10c-36.667 0 -68.166 5.33105 -94.499 15.998s-46.5 26.167 -60.5 46.5s-21 45.5 -21 75.5c0 36.667 12.167 67 36.5 91s57.833 40.333 100.5 49l170 34v13c0 24.667 -6.66699 43.834 -20 57.501s-31.666 20.5 -54.999 20.5c-20 0 -37.5 -5.5 -52.5 -16.5
s-25.833 -30.5 -32.5 -58.5l-145 34c4 30 16.167 56.833 36.5 80.5s47.166 42.5 80.499 56.5s71.333 21 114 21c54.667 0 99.5 -9.16699 134.5 -27.5s56.833 -46.166 65.5 -83.499l-55 -2c13.333 24 30 44.333 50 61s42.667 29.5 68 38.5s52.666 13.5 81.999 13.5
c50.667 0 93.334 -10.167 128.001 -30.5s61 -48.333 79 -84s27 -76.5 27 -122.5c0 -11.333 -0.333008 -22.5 -1 -33.5s-1.66699 -21.833 -3 -32.5h-337v0c0 -31.333 11.167 -55.333 33.5 -72s47.833 -25 76.5 -25c23.333 0 41.5 5 54.5 15s23.167 24 30.5 42l137 -45
c-9.33301 -28.667 -24.833 -52.834 -46.5 -72.501s-47.334 -34.5 -77.001 -44.5s-61.834 -15 -96.501 -15c-58 0 -106.167 13.333 -144.5 40s-64.5 66 -78.5 118l36 -6c-4 -21.333 -11.667 -41.166 -23 -59.499s-26.166 -34.5 -44.499 -48.5s-40.333 -24.833 -66 -32.5
s-54.5 -11.5 -86.5 -11.5zM254.001 98.998c11.333 0 22 1.83203 32 5.49902s19 9.33398 27 17.001s14.333 16.834 19 27.501s7 23 7 37v29l-82 -18c-20.667 -4.66699 -35.5 -10.667 -44.5 -18s-13.5 -19 -13.5 -35c0 -12.667 4.66699 -23.334 14 -32.001s23 -13 41 -13z
M503.001 297.997l180 -0.000976562c-0.666992 19.333 -4.5 36 -11.5 50s-16.667 24.667 -29 32s-26.833 11 -43.5 11c-26.667 0 -48 -7.66699 -64 -23s-26.667 -38.666 -32 -69.999z" />
    <glyph glyph-name="ccedilla" unicode="&#xe7;" horiz-adv-x="567" 
d="M298 510c50.667 0 92.8301 -7.16699 126.497 -21.5s60 -33.333 79 -57s30.833 -49.167 35.5 -76.5l-157 -52c-4.66699 28.667 -13.167 50.167 -25.5 64.5s-30.166 21.5 -53.499 21.5c-21.333 0 -39.166 -4.83301 -53.499 -14.5s-25.166 -25 -32.499 -46
s-11 -47.833 -11 -80.5s4 -59.167 12 -79.5s19.333 -35 34 -44s32 -13.5 52 -13.5c16.667 0 30.5 3.16699 41.5 9.5s20.167 15.5 27.5 27.5s12 26.667 14 44l153 -49c-4.66699 -29.333 -17.167 -55.5 -37.5 -78.5s-47.166 -41.167 -80.499 -54.5s-72.333 -20 -117 -20
c-54.667 0 -102.334 10.167 -143.001 30.5s-72 50 -94 89s-33 85.833 -33 140.5s11 101.5 33 140.5s52.833 68.667 92.5 89s85.5 30.5 137.5 30.5zM221.996 10l41.001 27.001c52 -7.33301 90.333 -21.5 115 -42.5s37 -49.167 37 -84.5c0 -37.333 -12.5 -67.5 -37.5 -90.5
s-59.167 -34.5 -102.5 -34.5c-26 0 -46.667 2.83301 -62 8.5s-29 12.5 -41 20.5l28 81c8 -4.66699 16.667 -8.83398 26 -12.501s20.666 -5.5 33.999 -5.5c17.333 0 31.333 5 42 15s16 24 16 42c0 15.333 -7 29 -21 41s-39 23.667 -75 35z" />
    <glyph glyph-name="egrave" unicode="&#xe8;" 
d="M305 -10c-55.333 0 -103.166 10.3291 -143.499 30.9961s-71.5 50.334 -93.5 89.001s-33 85.334 -33 140.001s11 101.334 33 140.001s52.833 68.334 92.5 89.001s85.167 31 136.5 31c52.667 0 97.5 -10.167 134.5 -30.5s65.167 -48.333 84.5 -84s29 -76.5 29 -122.5
c0 -12 -0.333008 -24 -1 -36s-1.66699 -22 -3 -30h-396v91h321l-81 -31c0 40 -7.16699 70.667 -21.5 92s-36.5 32 -66.5 32c-21.333 0 -39.5 -5 -54.5 -15s-26.333 -25.667 -34 -47s-11.5 -48.666 -11.5 -81.999c0 -32.667 4.33301 -59.167 13 -79.5s21 -35 37 -44
s35.333 -13.5 58 -13.5c25.333 0 45.5 5 60.5 15s26.167 24 33.5 42l136 -45c-9.33301 -28.667 -25.5 -52.834 -48.5 -72.501s-50.333 -34.5 -82 -44.5s-64.834 -15 -99.501 -15zM294 737.996l67 -173h-124l-101 173h158z" />
    <glyph glyph-name="eacute" unicode="&#xe9;" 
d="M305 -10c-55.333 0 -103.166 10.3291 -143.499 30.9961s-71.5 50.334 -93.5 89.001s-33 85.334 -33 140.001s11 101.334 33 140.001s52.833 68.334 92.5 89.001s85.167 31 136.5 31c52.667 0 97.5 -10.167 134.5 -30.5s65.167 -48.333 84.5 -84s29 -76.5 29 -122.5
c0 -12 -0.333008 -24 -1 -36s-1.66699 -22 -3 -30h-396v91h321l-81 -31c0 40 -7.16699 70.667 -21.5 92s-36.5 32 -66.5 32c-21.333 0 -39.5 -5 -54.5 -15s-26.333 -25.667 -34 -47s-11.5 -48.666 -11.5 -81.999c0 -32.667 4.33301 -59.167 13 -79.5s21 -35 37 -44
s35.333 -13.5 58 -13.5c25.333 0 45.5 5 60.5 15s26.167 24 33.5 42l136 -45c-9.33301 -28.667 -25.5 -52.834 -48.5 -72.501s-50.333 -34.5 -82 -44.5s-64.834 -15 -99.501 -15zM284 737.996h158l-101 -173h-124z" />
    <glyph glyph-name="ecircumflex" unicode="&#xea;" 
d="M305 -10c-55.333 0 -103.166 10.3291 -143.499 30.9961s-71.5 50.334 -93.5 89.001s-33 85.334 -33 140.001s11 101.334 33 140.001s52.833 68.334 92.5 89.001s85.167 31 136.5 31c52.667 0 97.5 -10.167 134.5 -30.5s65.167 -48.333 84.5 -84s29 -76.5 29 -122.5
c0 -12 -0.333008 -24 -1 -36s-1.66699 -22 -3 -30h-396v91h321l-81 -31c0 40 -7.16699 70.667 -21.5 92s-36.5 32 -66.5 32c-21.333 0 -39.5 -5 -54.5 -15s-26.333 -25.667 -34 -47s-11.5 -48.666 -11.5 -81.999c0 -32.667 4.33301 -59.167 13 -79.5s21 -35 37 -44
s35.333 -13.5 58 -13.5c25.333 0 45.5 5 60.5 15s26.167 24 33.5 42l136 -45c-9.33301 -28.667 -25.5 -52.834 -48.5 -72.501s-50.333 -34.5 -82 -44.5s-64.834 -15 -99.501 -15zM485 558.996h-122l-69 88l-69 -88h-122l109 173h164z" />
    <glyph glyph-name="edieresis" unicode="&#xeb;" 
d="M305 -10c-55.333 0 -103.166 10.3291 -143.499 30.9961s-71.5 50.334 -93.5 89.001s-33 85.334 -33 140.001s11 101.334 33 140.001s52.833 68.334 92.5 89.001s85.167 31 136.5 31c52.667 0 97.5 -10.167 134.5 -30.5s65.167 -48.333 84.5 -84s29 -76.5 29 -122.5
c0 -12 -0.333008 -24 -1 -36s-1.66699 -22 -3 -30h-396v91h321l-81 -31c0 40 -7.16699 70.667 -21.5 92s-36.5 32 -66.5 32c-21.333 0 -39.5 -5 -54.5 -15s-26.333 -25.667 -34 -47s-11.5 -48.666 -11.5 -81.999c0 -32.667 4.33301 -59.167 13 -79.5s21 -35 37 -44
s35.333 -13.5 58 -13.5c25.333 0 45.5 5 60.5 15s26.167 24 33.5 42l136 -45c-9.33301 -28.667 -25.5 -52.834 -48.5 -72.501s-50.333 -34.5 -82 -44.5s-64.834 -15 -99.501 -15zM183 709.996c27.333 0 48.5 -6.66699 63.5 -20s22.5 -32.333 22.5 -57
c0 -24 -7.5 -42.833 -22.5 -56.5s-36.167 -20.5 -63.5 -20.5c-26 0 -46.5 6.83301 -61.5 20.5s-22.5 32.5 -22.5 56.5c0 24.667 7.5 43.667 22.5 57s35.5 20 61.5 20zM403 709.996c26.667 0 47.667 -6.66699 63 -20s23 -32.333 23 -57c0 -24 -7.66699 -42.833 -23 -56.5
s-36.333 -20.5 -63 -20.5c-26 0 -46.5 6.83301 -61.5 20.5s-22.5 32.5 -22.5 56.5c0 24.667 7.5 43.667 22.5 57s35.5 20 61.5 20z" />
    <glyph glyph-name="igrave" unicode="&#xec;" horiz-adv-x="291" 
d="M231 500v-500h-170v500h170zM146 738l67 -173h-124l-101 173h158z" />
    <glyph glyph-name="iacute" unicode="&#xed;" horiz-adv-x="291" 
d="M231 500v-500h-170v500h170zM136 738h158l-101 -173h-124z" />
    <glyph glyph-name="icircumflex" unicode="&#xee;" horiz-adv-x="291" 
d="M231 500v-500h-170v500h170zM337 559h-122l-69 88l-69 -88h-122l109 173h164z" />
    <glyph glyph-name="idieresis" unicode="&#xef;" horiz-adv-x="291" 
d="M242 554c-26 0 -46 6.83301 -60 20.5s-21 33.167 -21 58.5c0 26 7 45.667 21 59s34 20 60 20s45.833 -6.66699 59.5 -20s20.5 -33 20.5 -59c0 -25.333 -6.83301 -44.833 -20.5 -58.5s-33.5 -20.5 -59.5 -20.5zM49 554c-25.333 0 -45 6.83301 -59 20.5
s-21 33.167 -21 58.5c0 26 7 45.667 21 59s33.667 20 59 20c26.667 0 46.834 -6.66699 60.501 -20s20.5 -33 20.5 -59c0 -25.333 -6.83301 -44.833 -20.5 -58.5s-33.834 -20.5 -60.501 -20.5zM231 500v-500h-170v500h170z" />
    <glyph glyph-name="eth" unicode="&#xf0;" horiz-adv-x="604" 
d="M298 -10c-53.333 0 -99.168 10.002 -137.501 30.002s-67.833 48.833 -88.5 86.5s-31 83.167 -31 136.5s10.167 98.833 30.5 136.5s48.5 66.334 84.5 86.001s77 29.5 123 29.5s82 -10.333 108 -31s44 -48 54 -82l-8 -4c-4.66699 39.333 -13.5 74.666 -26.5 105.999
s-30 60.333 -51 87s-46.5 52.167 -76.5 76.5s-64.333 49.166 -103 74.499h155c30 -16 58.667 -36.5 86 -61.5s51.833 -55 73.5 -90s39 -74.667 52 -119s19.5 -93.833 19.5 -148.5c0 -66.667 -11 -123.334 -33 -170.001s-52.667 -82.167 -92 -106.5
s-85.666 -36.5 -138.999 -36.5zM303.998 111.002c22.667 0 41 5.16797 55 15.501s24.5 25.333 31.5 45s10.5 43.5 10.5 71.5c0 32.667 -3.5 59.167 -10.5 79.5s-17.5 35.5 -31.5 45.5s-31.667 15 -53 15c-20 0 -37 -5 -51 -15s-24.5 -25.167 -31.5 -45.5
s-10.5 -46.833 -10.5 -79.5c0 -44.667 7.66699 -77.834 23 -99.501s38 -32.5 68 -32.5zM191.998 539.003l-12 61l177 34l27 -54zM418.998 586.003l-23 54l158 33l14 -58z" />
    <glyph glyph-name="ntilde" unicode="&#xf1;" horiz-adv-x="620" 
d="M61 0l-0.00195312 500.001h152l9 -172l-19 19c6.66699 36 18.5 66 35.5 90s38.333 42.167 64 54.5s54.5 18.5 86.5 18.5c34.667 0 64.834 -6.66699 90.501 -20s45.834 -33 60.501 -59s22 -58.667 22 -98v-333h-170v288c0 34.667 -6.66699 58.667 -20 72
s-30.333 20 -51 20c-16 0 -31 -3.83301 -45 -11.5s-25 -19.834 -33 -36.501s-12 -39 -12 -67v-265h-170zM510.998 718.001c-1.33301 -35.333 -7.49707 -64.8311 -18.4971 -88.498s-25.667 -41.334 -44 -53.001s-38.5 -17.5 -60.5 -17.5
c-18.667 0 -34.834 2.83301 -48.501 8.5s-25.5 12.334 -35.5 20.001s-19.333 14.334 -28 20.001s-18 8.5 -28 8.5c-11.333 0 -20 -4.66699 -26 -14s-10 -23.333 -12 -42h-96c2 53.333 15 93.166 39 119.499s54.667 39.5 92 39.5c18 0 33.333 -2.83301 46 -8.5
s23.667 -12.334 33 -20.001s18.166 -14.334 26.499 -20.001s17.166 -8.5 26.499 -8.5c12 0 20.833 4.66699 26.5 14s9.5 23.333 11.5 42h96z" />
    <glyph glyph-name="ograve" unicode="&#xf2;" horiz-adv-x="599" 
d="M299 510c52.667 0 98.834 -10.167 138.501 -30.5s70.667 -50 93 -89s33.5 -85.833 33.5 -140.5s-11.167 -101.5 -33.5 -140.5s-53.333 -68.667 -93 -89s-85.834 -30.5 -138.501 -30.5c-51.333 0 -97 10.167 -137 30.5s-71.167 50 -93.5 89s-33.5 85.833 -33.5 140.5
s11.167 101.5 33.5 140.5s53.5 68.667 93.5 89s85.667 30.5 137 30.5zM299 389c-19.333 0 -36 -4.66699 -50 -14s-24.667 -24.333 -32 -45s-11 -47.334 -11 -80.001s3.66699 -59.167 11 -79.5s18 -35.333 32 -45s30.667 -14.5 50 -14.5c20 0 37 4.83301 51 14.5
s24.667 24.667 32 45s11 46.833 11 79.5s-3.66699 59.334 -11 80.001s-18 35.667 -32 45s-31 14 -51 14zM299 738l67 -173h-124l-101 173h158z" />
    <glyph glyph-name="oacute" unicode="&#xf3;" horiz-adv-x="599" 
d="M299 510c52.667 0 98.834 -10.167 138.501 -30.5s70.667 -50 93 -89s33.5 -85.833 33.5 -140.5s-11.167 -101.5 -33.5 -140.5s-53.333 -68.667 -93 -89s-85.834 -30.5 -138.501 -30.5c-51.333 0 -97 10.167 -137 30.5s-71.167 50 -93.5 89s-33.5 85.833 -33.5 140.5
s11.167 101.5 33.5 140.5s53.5 68.667 93.5 89s85.667 30.5 137 30.5zM299 389c-19.333 0 -36 -4.66699 -50 -14s-24.667 -24.333 -32 -45s-11 -47.334 -11 -80.001s3.66699 -59.167 11 -79.5s18 -35.333 32 -45s30.667 -14.5 50 -14.5c20 0 37 4.83301 51 14.5
s24.667 24.667 32 45s11 46.833 11 79.5s-3.66699 59.334 -11 80.001s-18 35.667 -32 45s-31 14 -51 14zM289 738h158l-101 -173h-124z" />
    <glyph glyph-name="ocircumflex" unicode="&#xf4;" horiz-adv-x="599" 
d="M299 510c52.667 0 98.834 -10.167 138.501 -30.5s70.667 -50 93 -89s33.5 -85.833 33.5 -140.5s-11.167 -101.5 -33.5 -140.5s-53.333 -68.667 -93 -89s-85.834 -30.5 -138.501 -30.5c-51.333 0 -97 10.167 -137 30.5s-71.167 50 -93.5 89s-33.5 85.833 -33.5 140.5
s11.167 101.5 33.5 140.5s53.5 68.667 93.5 89s85.667 30.5 137 30.5zM299 389c-19.333 0 -36 -4.66699 -50 -14s-24.667 -24.333 -32 -45s-11 -47.334 -11 -80.001s3.66699 -59.167 11 -79.5s18 -35.333 32 -45s30.667 -14.5 50 -14.5c20 0 37 4.83301 51 14.5
s24.667 24.667 32 45s11 46.833 11 79.5s-3.66699 59.334 -11 80.001s-18 35.667 -32 45s-31 14 -51 14zM490 559h-122l-69 88l-69 -88h-122l109 173h164z" />
    <glyph glyph-name="otilde" unicode="&#xf5;" horiz-adv-x="599" 
d="M299 510c52.667 0 98.834 -10.167 138.501 -30.5s70.667 -50 93 -89s33.5 -85.833 33.5 -140.5s-11.167 -101.5 -33.5 -140.5s-53.333 -68.667 -93 -89s-85.834 -30.5 -138.501 -30.5c-51.333 0 -97 10.167 -137 30.5s-71.167 50 -93.5 89s-33.5 85.833 -33.5 140.5
s11.167 101.5 33.5 140.5s53.5 68.667 93.5 89s85.667 30.5 137 30.5zM299 389c-19.333 0 -36 -4.66699 -50 -14s-24.667 -24.333 -32 -45s-11 -47.334 -11 -80.001s3.66699 -59.167 11 -79.5s18 -35.333 32 -45s30.667 -14.5 50 -14.5c20 0 37 4.83301 51 14.5
s24.667 24.667 32 45s11 46.833 11 79.5s-3.66699 59.334 -11 80.001s-18 35.667 -32 45s-31 14 -51 14zM497 718c-1.33301 -35.333 -7.49707 -64.8311 -18.4971 -88.498s-25.667 -41.334 -44 -53.001s-38.5 -17.5 -60.5 -17.5c-18.667 0 -34.834 2.83301 -48.501 8.5
s-25.5 12.334 -35.5 20.001s-19.333 14.334 -28 20.001s-18 8.5 -28 8.5c-11.333 0 -20 -4.66699 -26 -14s-10 -23.333 -12 -42h-96c2 53.333 15 93.166 39 119.499s54.667 39.5 92 39.5c18 0 33.333 -2.83301 46 -8.5s23.667 -12.334 33 -20.001
s18.166 -14.334 26.499 -20.001s17.166 -8.5 26.499 -8.5c12 0 20.833 4.66699 26.5 14s9.5 23.333 11.5 42h96z" />
    <glyph glyph-name="odieresis" unicode="&#xf6;" horiz-adv-x="599" 
d="M299 510c52.667 0 98.834 -10.167 138.501 -30.5s70.667 -50 93 -89s33.5 -85.833 33.5 -140.5s-11.167 -101.5 -33.5 -140.5s-53.333 -68.667 -93 -89s-85.834 -30.5 -138.501 -30.5c-51.333 0 -97 10.167 -137 30.5s-71.167 50 -93.5 89s-33.5 85.833 -33.5 140.5
s11.167 101.5 33.5 140.5s53.5 68.667 93.5 89s85.667 30.5 137 30.5zM299 389c-19.333 0 -36 -4.66699 -50 -14s-24.667 -24.333 -32 -45s-11 -47.334 -11 -80.001s3.66699 -59.167 11 -79.5s18 -35.333 32 -45s30.667 -14.5 50 -14.5c20 0 37 4.83301 51 14.5
s24.667 24.667 32 45s11 46.833 11 79.5s-3.66699 59.334 -11 80.001s-18 35.667 -32 45s-31 14 -51 14zM188 710c27.333 0 48.5 -6.66699 63.5 -20s22.5 -32.333 22.5 -57c0 -24 -7.5 -42.833 -22.5 -56.5s-36.167 -20.5 -63.5 -20.5c-26 0 -46.5 6.83301 -61.5 20.5
s-22.5 32.5 -22.5 56.5c0 24.667 7.5 43.667 22.5 57s35.5 20 61.5 20zM408 710c26.667 0 47.667 -6.66699 63 -20s23 -32.333 23 -57c0 -24 -7.66699 -42.833 -23 -56.5s-36.333 -20.5 -63 -20.5c-26 0 -46.5 6.83301 -61.5 20.5s-22.5 32.5 -22.5 56.5
c0 24.667 7.5 43.667 22.5 57s35.5 20 61.5 20z" />
    <glyph glyph-name="divide" unicode="&#xf7;" horiz-adv-x="623" 
d="M564 386v-122h-504v122h504zM311 191c26 0 46.5 -7.33301 61.5 -22s22.5 -34.667 22.5 -60s-7.5 -45.166 -22.5 -59.499s-35.5 -21.5 -61.5 -21.5s-46.333 7.16699 -61 21.5s-22 34.166 -22 59.499s7.33301 45.333 22 60s35 22 61 22zM311 621
c26 0 46.5 -7.33301 61.5 -22s22.5 -34.667 22.5 -60s-7.5 -45.166 -22.5 -59.499s-35.5 -21.5 -61.5 -21.5s-46.333 7.16699 -61 21.5s-22 34.166 -22 59.499s7.33301 45.333 22 60s35 22 61 22z" />
    <glyph glyph-name="oslash" unicode="&#xf8;" horiz-adv-x="599" 
d="M299 510c52.667 0 98.834 -10.167 138.501 -30.5s70.667 -50 93 -89s33.5 -85.833 33.5 -140.5s-11.167 -101.5 -33.5 -140.5s-53.333 -68.667 -93 -89s-85.834 -30.5 -138.501 -30.5c-51.333 0 -97 10.167 -137 30.5s-71.167 50 -93.5 89s-33.5 85.833 -33.5 140.5
s11.167 101.5 33.5 140.5s53.5 68.667 93.5 89s85.667 30.5 137 30.5zM299 389c-19.333 0 -36 -4.66699 -50 -14s-24.667 -24.333 -32 -45s-11 -47.334 -11 -80.001s3.66699 -59.167 11 -79.5s18 -35.333 32 -45s30.667 -14.5 50 -14.5c20 0 37 4.83301 51 14.5
s24.667 24.667 32 45s11 46.833 11 79.5s-3.66699 59.334 -11 80.001s-18 35.667 -32 45s-31 14 -51 14zM44 -25l443 549h67l-443 -549h-67z" />
    <glyph glyph-name="ugrave" unicode="&#xf9;" horiz-adv-x="619" 
d="M230 -10c-34 0 -63.8311 5.83398 -89.498 17.501s-45.834 30.5 -60.501 56.5s-22 60 -22 102v334h170v-294c0 -32 6.33301 -54.333 19 -67s30.667 -19 54 -19c12 0 23.333 2.16699 34 6.5s20 11 28 20s14.167 20.667 18.5 35s6.5 31.166 6.5 50.499v268h170v-500h-152
l-5 94c-16 -35.333 -38.333 -61.5 -67 -78.5s-63.334 -25.5 -104.001 -25.5zM305.002 734.001l67 -173h-124l-101 173h158z" />
    <glyph glyph-name="uacute" unicode="&#xfa;" horiz-adv-x="619" 
d="M230 -10c-34 0 -63.8311 5.83398 -89.498 17.501s-45.834 30.5 -60.501 56.5s-22 60 -22 102v334h170v-294c0 -32 6.33301 -54.333 19 -67s30.667 -19 54 -19c12 0 23.333 2.16699 34 6.5s20 11 28 20s14.167 20.667 18.5 35s6.5 31.166 6.5 50.499v268h170v-500h-152
l-5 94c-16 -35.333 -38.333 -61.5 -67 -78.5s-63.334 -25.5 -104.001 -25.5zM295.002 734.001h158l-101 -173h-124z" />
    <glyph glyph-name="ucircumflex" unicode="&#xfb;" horiz-adv-x="619" 
d="M230 -10c-34 0 -63.8311 5.83398 -89.498 17.501s-45.834 30.5 -60.501 56.5s-22 60 -22 102v334h170v-294c0 -32 6.33301 -54.333 19 -67s30.667 -19 54 -19c12 0 23.333 2.16699 34 6.5s20 11 28 20s14.167 20.667 18.5 35s6.5 31.166 6.5 50.499v268h170v-500h-152
l-5 94c-16 -35.333 -38.333 -61.5 -67 -78.5s-63.334 -25.5 -104.001 -25.5zM496.002 555.001h-122l-69 88l-69 -88h-122l109 173h164z" />
    <glyph glyph-name="udieresis" unicode="&#xfc;" horiz-adv-x="619" 
d="M230 -10c-34 0 -63.8311 5.83398 -89.498 17.501s-45.834 30.5 -60.501 56.5s-22 60 -22 102v334h170v-294c0 -32 6.33301 -54.333 19 -67s30.667 -19 54 -19c12 0 23.333 2.16699 34 6.5s20 11 28 20s14.167 20.667 18.5 35s6.5 31.166 6.5 50.499v268h170v-500h-152
l-5 94c-16 -35.333 -38.333 -61.5 -67 -78.5s-63.334 -25.5 -104.001 -25.5zM194.002 706.001c27.333 0 48.5 -6.66699 63.5 -20s22.5 -32.333 22.5 -57c0 -24 -7.5 -42.833 -22.5 -56.5s-36.167 -20.5 -63.5 -20.5c-26 0 -46.5 6.83301 -61.5 20.5s-22.5 32.5 -22.5 56.5
c0 24.667 7.5 43.667 22.5 57s35.5 20 61.5 20zM414.002 706.001c26.667 0 47.667 -6.66699 63 -20s23 -32.333 23 -57c0 -24 -7.66699 -42.833 -23 -56.5s-36.333 -20.5 -63 -20.5c-26 0 -46.5 6.83301 -61.5 20.5s-22.5 32.5 -22.5 56.5c0 24.667 7.5 43.667 22.5 57
s35.5 20 61.5 20z" />
    <glyph glyph-name="yacute" unicode="&#xfd;" horiz-adv-x="563" 
d="M564 500l-181.999 -500c-18.667 -52.667 -39 -94.667 -61 -126s-48 -54 -78 -68s-66 -21 -108 -21c-28 0 -53.667 3 -77 9s-43.666 14.333 -60.999 25l34 115c12 -8.66699 24.667 -14.834 38 -18.501s30.333 -5.5 51 -5.5c19.333 0 35.166 3.33301 47.499 10
s22.166 19.334 29.499 38.001l13 31l-58 136l-150 375h187l77 -285l24 -106l28 110l77 281h169zM287.001 734h158l-101 -173h-124z" />
    <glyph glyph-name="thorn" unicode="&#xfe;" horiz-adv-x="627" 
d="M61 -210l-0.000976562 922h170v-351l-16 6c9.33301 41.333 28.333 75.5 57 102.5s67.334 40.5 116.001 40.5c38.667 0 73.167 -10.333 103.5 -31s54 -50.5 71 -89.5s25.5 -86.167 25.5 -141.5c0 -53.333 -8.66699 -99.5 -26 -138.5s-41.5 -68.667 -72.5 -89
s-67.167 -30.5 -108.5 -30.5c-45.333 0 -82 13.5 -110 40.5s-46.667 61.167 -56 102.5l16 24v-367h-170zM322.999 115c29.333 0 52.332 10.8311 68.999 32.498s25 55.834 25 102.501s-8.16699 80.834 -24.5 102.501s-39.166 32.5 -68.499 32.5
c-18.667 0 -35 -5.16699 -49 -15.5s-24.833 -25.5 -32.5 -45.5s-11.5 -44.667 -11.5 -74c0 -28 3.5 -52.167 10.5 -72.5s17.5 -35.833 31.5 -46.5s30.667 -16 50 -16z" />
    <glyph glyph-name="ydieresis" unicode="&#xff;" horiz-adv-x="563" 
d="M564 500l-181.999 -500c-18.667 -52.667 -39 -94.667 -61 -126s-48 -54 -78 -68s-66 -21 -108 -21c-28 0 -53.667 3 -77 9s-43.666 14.333 -60.999 25l34 115c12 -8.66699 24.667 -14.834 38 -18.501s30.333 -5.5 51 -5.5c19.333 0 35.166 3.33301 47.499 10
s22.166 19.334 29.499 38.001l13 31l-58 136l-150 375h187l77 -285l24 -106l28 110l77 281h169zM186.001 706c27.333 0 48.5 -6.66699 63.5 -20s22.5 -32.333 22.5 -57c0 -24 -7.5 -42.833 -22.5 -56.5s-36.167 -20.5 -63.5 -20.5c-26 0 -46.5 6.83301 -61.5 20.5
s-22.5 32.5 -22.5 56.5c0 24.667 7.5 43.667 22.5 57s35.5 20 61.5 20zM406.001 706c26.667 0 47.667 -6.66699 63 -20s23 -32.333 23 -57c0 -24 -7.66699 -42.833 -23 -56.5s-36.333 -20.5 -63 -20.5c-26 0 -46.5 6.83301 -61.5 20.5s-22.5 32.5 -22.5 56.5
c0 24.667 7.5 43.667 22.5 57s35.5 20 61.5 20z" />
    <glyph glyph-name="Amacron" unicode="&#x100;" horiz-adv-x="677" 
d="M673 0h-177l-46 149h-226l-47 -149h-173l232 660h206zM256 266h162l-81 267zM520 834v-105h-364v105h364z" />
    <glyph glyph-name="amacron" unicode="&#x101;" 
d="M340 317c0 23.333 -6.5 41.8291 -19.5 55.4961s-30.5 20.5 -52.5 20.5s-40.833 -5.5 -56.5 -16.5s-26.5 -30.5 -32.5 -58.5l-144 34c9.33301 48 34 86.333 74 115s96.333 43 169 43c48.667 0 90.167 -7.16699 124.5 -21.5s60.666 -35.666 78.999 -63.999
s27.5 -63.166 27.5 -104.499v-183c0 -26 11.667 -39 35 -39c12 0 21.667 1.33301 29 4l-10 -97c-20 -9.33301 -44.333 -14 -73 -14c-26 0 -49 4.16699 -69 12.5s-35.667 21 -47 38s-17 38.5 -17 64.5v6l19 7c0 -28.667 -8.5 -52.667 -25.5 -72s-39 -33.666 -66 -42.999
s-55.167 -14 -84.5 -14c-34 0 -63.667 5.33301 -89 16s-44.833 26.167 -58.5 46.5s-20.5 45.5 -20.5 75.5c0 36 10.833 65.833 32.5 89.5s55.834 40.167 102.501 49.5l189 39l-1 -90l-96 -20c-20 -4 -34.833 -9.83301 -44.5 -17.5s-14.5 -19.167 -14.5 -34.5
c0 -14.667 5.33301 -25.667 16 -33s23.334 -11 38.001 -11c11.333 0 22.166 1.66699 32.499 5s19.5 8.5 27.5 15.5s14.333 15.833 19 26.5s7 23.334 7 38.001v132zM459 673.996v-105h-364v105h364z" />
    <glyph glyph-name="Abreve" unicode="&#x102;" horiz-adv-x="677" 
d="M673 0h-177l-46 149h-226l-47 -149h-173l232 660h206zM256 266h162l-81 267zM507 878c0 -50.667 -15.168 -90.5 -45.501 -119.5s-71.5 -43.5 -123.5 -43.5c-51.333 0 -92.333 14.5 -123 43.5s-46 68.833 -46 119.5h109c0.666992 -20 6 -36.333 16 -49s24.667 -19 44 -19
c20 0 34.833 6.33301 44.5 19s14.834 29 15.501 49h109z" />
    <glyph glyph-name="abreve" unicode="&#x103;" 
d="M340 317c0 23.333 -6.5 41.8291 -19.5 55.4961s-30.5 20.5 -52.5 20.5s-40.833 -5.5 -56.5 -16.5s-26.5 -30.5 -32.5 -58.5l-144 34c9.33301 48 34 86.333 74 115s96.333 43 169 43c48.667 0 90.167 -7.16699 124.5 -21.5s60.666 -35.666 78.999 -63.999
s27.5 -63.166 27.5 -104.499v-183c0 -26 11.667 -39 35 -39c12 0 21.667 1.33301 29 4l-10 -97c-20 -9.33301 -44.333 -14 -73 -14c-26 0 -49 4.16699 -69 12.5s-35.667 21 -47 38s-17 38.5 -17 64.5v6l19 7c0 -28.667 -8.5 -52.667 -25.5 -72s-39 -33.666 -66 -42.999
s-55.167 -14 -84.5 -14c-34 0 -63.667 5.33301 -89 16s-44.833 26.167 -58.5 46.5s-20.5 45.5 -20.5 75.5c0 36 10.833 65.833 32.5 89.5s55.834 40.167 102.501 49.5l189 39l-1 -90l-96 -20c-20 -4 -34.833 -9.83301 -44.5 -17.5s-14.5 -19.167 -14.5 -34.5
c0 -14.667 5.33301 -25.667 16 -33s23.334 -11 38.001 -11c11.333 0 22.166 1.66699 32.499 5s19.5 8.5 27.5 15.5s14.333 15.833 19 26.5s7 23.334 7 38.001v132zM446 717.996c0 -50.667 -15.168 -90.5 -45.501 -119.5s-71.5 -43.5 -123.5 -43.5
c-51.333 0 -92.333 14.5 -123 43.5s-46 68.833 -46 119.5h109c0.666992 -20 6 -36.333 16 -49s24.667 -19 44 -19c20 0 34.833 6.33301 44.5 19s14.834 29 15.501 49h109z" />
    <glyph glyph-name="Aogonek" unicode="&#x104;" horiz-adv-x="677" 
d="M576 -215c-26 0 -49.5 4.16602 -70.5 12.499s-37.667 20.833 -50 37.5s-18.5 37.667 -18.5 63c0 36.667 14.5 66.167 43.5 88.5s68.5 37.5 118.5 45.5l74 -32c-30 -5.33301 -53.667 -11.833 -71 -19.5s-29.333 -16.167 -36 -25.5s-10 -19.666 -10 -30.999
c0 -14 4.83301 -24.833 14.5 -32.5s23.167 -11.5 40.5 -11.5c7.33301 0 15.333 0.666992 24 2s16 4 22 8l22 -82c-13.333 -8.66699 -28.5 -14.667 -45.5 -18s-36.167 -5 -57.5 -5zM673 -0.000976562h-177l-46 149h-226l-47 -149h-173l232 660h206zM256 265.999h162l-81 267z
" />
    <glyph glyph-name="aogonek" unicode="&#x105;" 
d="M474 -221c-23.333 0 -45.167 4.16895 -65.5 12.502s-36.666 20.666 -48.999 36.999s-18.5 36.833 -18.5 61.5c0 38.667 14.667 69 44 91s69 38 119 48l61 -23c-30 -11.333 -52.833 -22 -68.5 -32s-26.5 -19.833 -32.5 -29.5s-9 -19.167 -9 -28.5
c0 -12.667 4.5 -22.834 13.5 -30.501s20.833 -11.5 35.5 -11.5c7.33301 0 15.333 0.666992 24 2s15.667 4 21 8l17 -86c-11.333 -6.66699 -24.833 -11.5 -40.5 -14.5s-32.834 -4.5 -51.501 -4.5zM339.999 316.002c0 24.667 -6.16504 43.665 -18.498 56.998
s-30.166 20 -53.499 20c-22 0 -40.667 -5.5 -56 -16.5s-25.666 -30.167 -30.999 -57.5l-142 32c8 48.667 32.167 87.334 72.5 116.001s96.166 43 167.499 43c48.667 0 90.167 -7.33301 124.5 -22s60.5 -35.5 78.5 -62.5s27 -59.833 27 -98.5v-190c0 -26 12.667 -39 38 -39
c10 0 18.333 1.33301 25 4l-7 -96c-20 -10 -44.667 -15 -74 -15c-26.667 0 -50.334 4.16699 -71.001 12.5s-36.834 21 -48.501 38s-17.5 38.833 -17.5 65.5v10l21 -2c-4 -25.333 -14.5 -47.333 -31.5 -66s-38.167 -33.167 -63.5 -43.5s-52.666 -15.5 -81.999 -15.5
c-32.667 0 -61.334 5.16699 -86.001 15.5s-43.834 25.666 -57.501 45.999s-20.5 44.5 -20.5 72.5c0 37.333 12 67.666 36 90.999s58 39.333 102 48l184 37l-1 -75l-96 -21c-22 -4.66699 -38 -11.667 -48 -21s-15 -21.666 -15 -36.999c0 -14.667 5.33301 -26.5 16 -35.5
s25.667 -13.5 45 -13.5c10.667 0 21 1.5 31 4.5s19 7.83301 27 14.5s14.167 14.834 18.5 24.501s6.5 20.834 6.5 33.501v142z" />
    <glyph glyph-name="Cacute" unicode="&#x106;" horiz-adv-x="681" 
d="M658 189c-12.667 -46 -32.999 -83.833 -60.999 -113.5s-61.333 -51.334 -100 -65.001s-81.334 -20.5 -128.001 -20.5c-66.667 0 -124.334 13.5 -173.001 40.5s-86 65.833 -112 116.5s-39 111.667 -39 183s13 132.333 39 183s63.333 89.5 112 116.5s106 40.5 172 40.5
c46 0 88.333 -6.5 127 -19.5s71.334 -32.833 98.001 -59.5s45.667 -61 57 -103l-151 -61c-9.33301 41.333 -24.5 69.666 -45.5 84.999s-47.5 23 -79.5 23c-31.333 0 -58.5 -7.66699 -81.5 -23s-40.667 -38.166 -53 -68.499s-18.5 -68.166 -18.5 -113.499
c0 -44.667 5.66699 -82.334 17 -113.001s28.5 -53.667 51.5 -69s51.5 -23 85.5 -23c32 0 59.167 8.83301 81.5 26.5s37.5 44.834 45.5 81.501zM351.001 886h152l-89 -163h-124z" />
    <glyph glyph-name="cacute" unicode="&#x107;" horiz-adv-x="567" 
d="M298 510c50.667 0 92.8301 -7.16699 126.497 -21.5s60 -33.333 79 -57s30.833 -49.167 35.5 -76.5l-157 -52c-4.66699 28.667 -13.167 50.167 -25.5 64.5s-30.166 21.5 -53.499 21.5c-21.333 0 -39.166 -4.83301 -53.499 -14.5s-25.166 -25 -32.499 -46
s-11 -47.833 -11 -80.5s4 -59.167 12 -79.5s19.333 -35 34 -44s32 -13.5 52 -13.5c16.667 0 30.5 3.16699 41.5 9.5s20.167 15.5 27.5 27.5s12 26.667 14 44l153 -49c-4.66699 -29.333 -17.167 -55.5 -37.5 -78.5s-47.166 -41.167 -80.499 -54.5s-72.333 -20 -117 -20
c-54.667 0 -102.334 10.167 -143.001 30.5s-72 50 -94 89s-33 85.833 -33 140.5s11 101.5 33 140.5s52.833 68.667 92.5 89s85.5 30.5 137.5 30.5zM284.996 738h158l-101 -173h-124z" />
    <glyph glyph-name="Ccircumflex" unicode="&#x108;" horiz-adv-x="681" 
d="M658 189c-12.667 -46 -32.999 -83.833 -60.999 -113.5s-61.333 -51.334 -100 -65.001s-81.334 -20.5 -128.001 -20.5c-66.667 0 -124.334 13.5 -173.001 40.5s-86 65.833 -112 116.5s-39 111.667 -39 183s13 132.333 39 183s63.333 89.5 112 116.5s106 40.5 172 40.5
c46 0 88.333 -6.5 127 -19.5s71.334 -32.833 98.001 -59.5s45.667 -61 57 -103l-151 -61c-9.33301 41.333 -24.5 69.666 -45.5 84.999s-47.5 23 -79.5 23c-31.333 0 -58.5 -7.66699 -81.5 -23s-40.667 -38.166 -53 -68.499s-18.5 -68.166 -18.5 -113.499
c0 -44.667 5.66699 -82.334 17 -113.001s28.5 -53.667 51.5 -69s51.5 -23 85.5 -23c32 0 59.167 8.83301 81.5 26.5s37.5 44.834 45.5 81.501zM545.001 723h-118l-65 92l-65 -92h-118l100 163h166z" />
    <glyph glyph-name="ccircumflex" unicode="&#x109;" horiz-adv-x="567" 
d="M298 510c50.667 0 92.8301 -7.16699 126.497 -21.5s60 -33.333 79 -57s30.833 -49.167 35.5 -76.5l-157 -52c-4.66699 28.667 -13.167 50.167 -25.5 64.5s-30.166 21.5 -53.499 21.5c-21.333 0 -39.166 -4.83301 -53.499 -14.5s-25.166 -25 -32.499 -46
s-11 -47.833 -11 -80.5s4 -59.167 12 -79.5s19.333 -35 34 -44s32 -13.5 52 -13.5c16.667 0 30.5 3.16699 41.5 9.5s20.167 15.5 27.5 27.5s12 26.667 14 44l153 -49c-4.66699 -29.333 -17.167 -55.5 -37.5 -78.5s-47.166 -41.167 -80.499 -54.5s-72.333 -20 -117 -20
c-54.667 0 -102.334 10.167 -143.001 30.5s-72 50 -94 89s-33 85.833 -33 140.5s11 101.5 33 140.5s52.833 68.667 92.5 89s85.5 30.5 137.5 30.5zM485.996 559h-122l-69 88l-69 -88h-122l109 173h164z" />
    <glyph glyph-name="Cdotaccent" unicode="&#x10a;" horiz-adv-x="681" 
d="M658 189c-12.667 -46 -32.999 -83.833 -60.999 -113.5s-61.333 -51.334 -100 -65.001s-81.334 -20.5 -128.001 -20.5c-66.667 0 -124.334 13.5 -173.001 40.5s-86 65.833 -112 116.5s-39 111.667 -39 183s13 132.333 39 183s63.333 89.5 112 116.5s106 40.5 172 40.5
c46 0 88.333 -6.5 127 -19.5s71.334 -32.833 98.001 -59.5s45.667 -61 57 -103l-151 -61c-9.33301 41.333 -24.5 69.666 -45.5 84.999s-47.5 23 -79.5 23c-31.333 0 -58.5 -7.66699 -81.5 -23s-40.667 -38.166 -53 -68.499s-18.5 -68.166 -18.5 -113.499
c0 -44.667 5.66699 -82.334 17 -113.001s28.5 -53.667 51.5 -69s51.5 -23 85.5 -23c32 0 59.167 8.83301 81.5 26.5s37.5 44.834 45.5 81.501zM362.001 882c30.667 0 53.834 -6.83301 69.501 -20.5s23.5 -33.5 23.5 -59.5s-7.83301 -46 -23.5 -60s-38.834 -21 -69.501 -21
c-29.333 0 -51.833 7 -67.5 21s-23.5 34 -23.5 60s7.83301 45.833 23.5 59.5s38.167 20.5 67.5 20.5z" />
    <glyph glyph-name="cdotaccent" unicode="&#x10b;" horiz-adv-x="567" 
d="M298 510c50.667 0 92.8301 -7.16699 126.497 -21.5s60 -33.333 79 -57s30.833 -49.167 35.5 -76.5l-157 -52c-4.66699 28.667 -13.167 50.167 -25.5 64.5s-30.166 21.5 -53.499 21.5c-21.333 0 -39.166 -4.83301 -53.499 -14.5s-25.166 -25 -32.499 -46
s-11 -47.833 -11 -80.5s4 -59.167 12 -79.5s19.333 -35 34 -44s32 -13.5 52 -13.5c16.667 0 30.5 3.16699 41.5 9.5s20.167 15.5 27.5 27.5s12 26.667 14 44l153 -49c-4.66699 -29.333 -17.167 -55.5 -37.5 -78.5s-47.166 -41.167 -80.499 -54.5s-72.333 -20 -117 -20
c-54.667 0 -102.334 10.167 -143.001 30.5s-72 50 -94 89s-33 85.833 -33 140.5s11 101.5 33 140.5s52.833 68.667 92.5 89s85.5 30.5 137.5 30.5zM294.996 722c30.667 0 53.834 -6.83301 69.501 -20.5s23.5 -33.5 23.5 -59.5s-7.83301 -46 -23.5 -60
s-38.834 -21 -69.501 -21c-29.333 0 -51.833 7 -67.5 21s-23.5 34 -23.5 60s7.83301 45.833 23.5 59.5s38.167 20.5 67.5 20.5z" />
    <glyph glyph-name="Ccaron" unicode="&#x10c;" horiz-adv-x="681" 
d="M658 189c-12.667 -46 -32.999 -83.833 -60.999 -113.5s-61.333 -51.334 -100 -65.001s-81.334 -20.5 -128.001 -20.5c-66.667 0 -124.334 13.5 -173.001 40.5s-86 65.833 -112 116.5s-39 111.667 -39 183s13 132.333 39 183s63.333 89.5 112 116.5s106 40.5 172 40.5
c46 0 88.333 -6.5 127 -19.5s71.334 -32.833 98.001 -59.5s45.667 -61 57 -103l-151 -61c-9.33301 41.333 -24.5 69.666 -45.5 84.999s-47.5 23 -79.5 23c-31.333 0 -58.5 -7.66699 -81.5 -23s-40.667 -38.166 -53 -68.499s-18.5 -68.166 -18.5 -113.499
c0 -44.667 5.66699 -82.334 17 -113.001s28.5 -53.667 51.5 -69s51.5 -23 85.5 -23c32 0 59.167 8.83301 81.5 26.5s37.5 44.834 45.5 81.501zM545.001 886l-100 -163h-166l-100 163h118l65 -92l65 92h118z" />
    <glyph glyph-name="ccaron" unicode="&#x10d;" horiz-adv-x="567" 
d="M298 510c50.667 0 92.8301 -7.16699 126.497 -21.5s60 -33.333 79 -57s30.833 -49.167 35.5 -76.5l-157 -52c-4.66699 28.667 -13.167 50.167 -25.5 64.5s-30.166 21.5 -53.499 21.5c-21.333 0 -39.166 -4.83301 -53.499 -14.5s-25.166 -25 -32.499 -46
s-11 -47.833 -11 -80.5s4 -59.167 12 -79.5s19.333 -35 34 -44s32 -13.5 52 -13.5c16.667 0 30.5 3.16699 41.5 9.5s20.167 15.5 27.5 27.5s12 26.667 14 44l153 -49c-4.66699 -29.333 -17.167 -55.5 -37.5 -78.5s-47.166 -41.167 -80.499 -54.5s-72.333 -20 -117 -20
c-54.667 0 -102.334 10.167 -143.001 30.5s-72 50 -94 89s-33 85.833 -33 140.5s11 101.5 33 140.5s52.833 68.667 92.5 89s85.5 30.5 137.5 30.5zM482.996 738l-109 -173h-165l-109 173h123l68 -89l69 89h123z" />
    <glyph glyph-name="Dcaron" unicode="&#x10e;" horiz-adv-x="718" 
d="M353 660c103.333 0 182.5 -28.6689 237.5 -86.002s82.5 -138.666 82.5 -243.999s-27.5 -186.666 -82.5 -243.999s-134.167 -86 -237.5 -86h-280v660h280zM336 129.998c56 0 96.833 16.833 122.5 50.5s38.5 83.5 38.5 149.5s-12.833 115.833 -38.5 149.5
s-66.5 50.5 -122.5 50.5h-91v-400h91zM528 885.998l-100 -163h-166l-100 163h118l65 -92l65 92h118z" />
    <glyph glyph-name="dcaron" unicode="&#x10f;" horiz-adv-x="702" 
d="M760 712l-53 -239h-98l21 239h130zM245 -10c-41.333 0 -77.501 10.168 -108.501 30.501s-55 49.833 -72 88.5s-25.5 85 -25.5 139c0 56 8.83301 103.333 26.5 142s42.334 68.334 74.001 89.001s68.167 31 109.5 31c45.333 0 81.833 -13.833 109.5 -41.5
s45.5 -62.834 53.5 -105.501l-16 -21v370h170v-712h-152l-11 170l20 -15c-4 -33.333 -14.167 -62.333 -30.5 -87s-37 -43.834 -62 -57.501s-53.5 -20.5 -85.5 -20.5zM303.999 115.001c19.333 0 35.833 5.16895 49.5 15.502s24.167 25.833 31.5 46.5s11 46 11 76
c0 28 -3.5 51.833 -10.5 71.5s-17.333 34.667 -31 45s-30.167 15.5 -49.5 15.5c-29.333 0 -52.5 -10.833 -69.5 -32.5s-25.5 -55.834 -25.5 -102.501s8.33301 -80.834 25 -102.501s39.667 -32.5 69 -32.5z" />
    <glyph glyph-name="Dcroat" unicode="&#x110;" horiz-adv-x="741" 
d="M13 270v120h386v-120h-386zM376 660c103.333 0 182.666 -28.6689 237.999 -86.002s83 -138.666 83 -243.999s-27.667 -186.666 -83 -243.999s-134.666 -86 -237.999 -86h-280v660h280zM359 129.998c56.667 0 97.667 16.833 123 50.5s38 83.5 38 149.5
s-12.667 115.833 -38 149.5s-66.333 50.5 -123 50.5h-91v-400h91z" />
    <glyph glyph-name="dcroat" unicode="&#x111;" horiz-adv-x="628" 
d="M268 538v97h376v-97h-376zM245 -10c-41.333 0 -77.501 10.168 -108.501 30.501s-55 49.833 -72 88.5s-25.5 85 -25.5 139c0 56 8.83301 103.333 26.5 142s42.334 68.334 74.001 89.001s68.167 31 109.5 31c45.333 0 81.833 -13.833 109.5 -41.5
s45.5 -62.834 53.5 -105.501l-16 -21v370h170v-712h-152l-11 170l20 -15c-4 -33.333 -14.167 -62.333 -30.5 -87s-37 -43.834 -62 -57.501s-53.5 -20.5 -85.5 -20.5zM303.999 115.001c19.333 0 35.833 5.16895 49.5 15.502s24.167 25.833 31.5 46.5s11 46 11 76
c0 28 -3.5 51.833 -10.5 71.5s-17.333 34.667 -31 45s-30.167 15.5 -49.5 15.5c-29.333 0 -52.5 -10.833 -69.5 -32.5s-25.5 -55.834 -25.5 -102.501s8.33301 -80.834 25 -102.501s39.667 -32.5 69 -32.5z" />
    <glyph glyph-name="Emacron" unicode="&#x112;" horiz-adv-x="631" 
d="M73 0v660h514v-133h-342v-134h272v-125h-272v-135h355v-133h-527zM512 834v-105h-364v105h364z" />
    <glyph glyph-name="emacron" unicode="&#x113;" 
d="M305 -10c-55.333 0 -103.166 10.3291 -143.499 30.9961s-71.5 50.334 -93.5 89.001s-33 85.334 -33 140.001s11 101.334 33 140.001s52.833 68.334 92.5 89.001s85.167 31 136.5 31c52.667 0 97.5 -10.167 134.5 -30.5s65.167 -48.333 84.5 -84s29 -76.5 29 -122.5
c0 -12 -0.333008 -24 -1 -36s-1.66699 -22 -3 -30h-396v91h321l-81 -31c0 40 -7.16699 70.667 -21.5 92s-36.5 32 -66.5 32c-21.333 0 -39.5 -5 -54.5 -15s-26.333 -25.667 -34 -47s-11.5 -48.666 -11.5 -81.999c0 -32.667 4.33301 -59.167 13 -79.5s21 -35 37 -44
s35.333 -13.5 58 -13.5c25.333 0 45.5 5 60.5 15s26.167 24 33.5 42l136 -45c-9.33301 -28.667 -25.5 -52.834 -48.5 -72.501s-50.333 -34.5 -82 -44.5s-64.834 -15 -99.501 -15zM476 673.996v-105h-364v105h364z" />
    <glyph glyph-name="Ebreve" unicode="&#x114;" horiz-adv-x="631" 
d="M73 0v660h514v-133h-342v-134h272v-125h-272v-135h355v-133h-527zM499 878c0 -50.667 -15.168 -90.5 -45.501 -119.5s-71.5 -43.5 -123.5 -43.5c-51.333 0 -92.333 14.5 -123 43.5s-46 68.833 -46 119.5h109c0.666992 -20 6 -36.333 16 -49s24.667 -19 44 -19
c20 0 34.833 6.33301 44.5 19s14.834 29 15.501 49h109z" />
    <glyph glyph-name="ebreve" unicode="&#x115;" 
d="M305 -10c-55.333 0 -103.166 10.3291 -143.499 30.9961s-71.5 50.334 -93.5 89.001s-33 85.334 -33 140.001s11 101.334 33 140.001s52.833 68.334 92.5 89.001s85.167 31 136.5 31c52.667 0 97.5 -10.167 134.5 -30.5s65.167 -48.333 84.5 -84s29 -76.5 29 -122.5
c0 -12 -0.333008 -24 -1 -36s-1.66699 -22 -3 -30h-396v91h321l-81 -31c0 40 -7.16699 70.667 -21.5 92s-36.5 32 -66.5 32c-21.333 0 -39.5 -5 -54.5 -15s-26.333 -25.667 -34 -47s-11.5 -48.666 -11.5 -81.999c0 -32.667 4.33301 -59.167 13 -79.5s21 -35 37 -44
s35.333 -13.5 58 -13.5c25.333 0 45.5 5 60.5 15s26.167 24 33.5 42l136 -45c-9.33301 -28.667 -25.5 -52.834 -48.5 -72.501s-50.333 -34.5 -82 -44.5s-64.834 -15 -99.501 -15zM463 717.996c0 -50.667 -15.168 -90.5 -45.501 -119.5s-71.5 -43.5 -123.5 -43.5
c-51.333 0 -92.333 14.5 -123 43.5s-46 68.833 -46 119.5h109c0.666992 -20 6 -36.333 16 -49s24.667 -19 44 -19c20 0 34.833 6.33301 44.5 19s14.834 29 15.501 49h109z" />
    <glyph glyph-name="Edotaccent" unicode="&#x116;" horiz-adv-x="631" 
d="M73 0v660h514v-133h-342v-134h272v-125h-272v-135h355v-133h-527zM330 882c30.667 0 53.834 -6.83301 69.501 -20.5s23.5 -33.5 23.5 -59.5s-7.83301 -46 -23.5 -60s-38.834 -21 -69.501 -21c-29.333 0 -51.833 7 -67.5 21s-23.5 34 -23.5 60s7.83301 45.833 23.5 59.5
s38.167 20.5 67.5 20.5z" />
    <glyph glyph-name="edotaccent" unicode="&#x117;" 
d="M305 -10c-55.333 0 -103.166 10.3291 -143.499 30.9961s-71.5 50.334 -93.5 89.001s-33 85.334 -33 140.001s11 101.334 33 140.001s52.833 68.334 92.5 89.001s85.167 31 136.5 31c52.667 0 97.5 -10.167 134.5 -30.5s65.167 -48.333 84.5 -84s29 -76.5 29 -122.5
c0 -12 -0.333008 -24 -1 -36s-1.66699 -22 -3 -30h-396v91h321l-81 -31c0 40 -7.16699 70.667 -21.5 92s-36.5 32 -66.5 32c-21.333 0 -39.5 -5 -54.5 -15s-26.333 -25.667 -34 -47s-11.5 -48.666 -11.5 -81.999c0 -32.667 4.33301 -59.167 13 -79.5s21 -35 37 -44
s35.333 -13.5 58 -13.5c25.333 0 45.5 5 60.5 15s26.167 24 33.5 42l136 -45c-9.33301 -28.667 -25.5 -52.834 -48.5 -72.501s-50.333 -34.5 -82 -44.5s-64.834 -15 -99.501 -15zM294 721.996c30.667 0 53.834 -6.83301 69.501 -20.5s23.5 -33.5 23.5 -59.5
s-7.83301 -46 -23.5 -60s-38.834 -21 -69.501 -21c-29.333 0 -51.833 7 -67.5 21s-23.5 34 -23.5 60s7.83301 45.833 23.5 59.5s38.167 20.5 67.5 20.5z" />
    <glyph glyph-name="Eogonek" unicode="&#x118;" horiz-adv-x="631" 
d="M500 -221c-26 0 -49.5 4.16992 -70.5 12.5029s-37.667 20.666 -50 36.999s-18.5 36.833 -18.5 61.5c0 38 17.333 68.167 52 90.5s80.667 38.5 138 48.5l50 -29c-45.333 -10.667 -76.833 -22.834 -94.5 -36.501s-26.5 -28.834 -26.5 -45.501c0 -14 5 -24.833 15 -32.5
s23.333 -11.5 40 -11.5c7.33301 0 15.333 0.666992 24 2s16 4 22 8l22 -83c-13.333 -8 -28.5 -13.667 -45.5 -17s-36.167 -5 -57.5 -5zM73 0.00292969v660h514v-133h-342v-134h272v-125h-272v-135h355v-133h-527z" />
    <glyph glyph-name="eogonek" unicode="&#x119;" 
d="M305 -10c-55.333 0 -103.166 10.3291 -143.499 30.9961s-71.5 50.334 -93.5 89.001s-33 85.334 -33 140.001s11 101.334 33 140.001s52.833 68.334 92.5 89.001s85.167 31 136.5 31c52.667 0 97.5 -10.167 134.5 -30.5s65.167 -48.333 84.5 -84s29 -76.5 29 -122.5
c0 -12 -0.333008 -24 -1 -36s-1.66699 -22 -3 -30h-396v91h321l-81 -31c0 40 -7.16699 70.667 -21.5 92s-36.5 32 -66.5 32c-21.333 0 -39.5 -5 -54.5 -15s-26.333 -25.667 -34 -47s-11.5 -48.666 -11.5 -81.999c0 -32.667 4.33301 -59.167 13 -79.5s21 -35 37 -44
s35.333 -13.5 58 -13.5c25.333 0 45.5 5 60.5 15s26.167 24 33.5 42l136 -45c-9.33301 -28.667 -25.5 -52.834 -48.5 -72.501s-50.333 -34.5 -82 -44.5s-64.834 -15 -99.501 -15zM321 -220.004c-42 0 -74.8369 10.002 -98.5039 30.002s-35.5 47 -35.5 81
c0 39.333 13.833 70 41.5 92s65.834 37.333 114.501 46l67 -22c-27.333 -8.66699 -49.166 -17.334 -65.499 -26.001s-28.166 -17.834 -35.499 -27.501s-11 -20.834 -11 -33.501c0 -14 4.83301 -24.833 14.5 -32.5s22.834 -11.5 39.501 -11.5c8.66699 0 17 0.833008 25 2.5
s15 3.83398 21 6.50098l17 -85c-12.667 -7.33301 -26.5 -12.5 -41.5 -15.5s-32.5 -4.5 -52.5 -4.5z" />
    <glyph glyph-name="Ecaron" unicode="&#x11a;" horiz-adv-x="631" 
d="M73 0v660h514v-133h-342v-134h272v-125h-272v-135h355v-133h-527zM513 886l-100 -163h-166l-100 163h118l65 -92l65 92h118z" />
    <glyph glyph-name="ecaron" unicode="&#x11b;" 
d="M305 -10c-55.333 0 -103.166 10.3291 -143.499 30.9961s-71.5 50.334 -93.5 89.001s-33 85.334 -33 140.001s11 101.334 33 140.001s52.833 68.334 92.5 89.001s85.167 31 136.5 31c52.667 0 97.5 -10.167 134.5 -30.5s65.167 -48.333 84.5 -84s29 -76.5 29 -122.5
c0 -12 -0.333008 -24 -1 -36s-1.66699 -22 -3 -30h-396v91h321l-81 -31c0 40 -7.16699 70.667 -21.5 92s-36.5 32 -66.5 32c-21.333 0 -39.5 -5 -54.5 -15s-26.333 -25.667 -34 -47s-11.5 -48.666 -11.5 -81.999c0 -32.667 4.33301 -59.167 13 -79.5s21 -35 37 -44
s35.333 -13.5 58 -13.5c25.333 0 45.5 5 60.5 15s26.167 24 33.5 42l136 -45c-9.33301 -28.667 -25.5 -52.834 -48.5 -72.501s-50.333 -34.5 -82 -44.5s-64.834 -15 -99.501 -15zM482 737.996l-109 -173h-165l-109 173h123l68 -89l69 89h123z" />
    <glyph glyph-name="Gcircumflex" unicode="&#x11c;" horiz-adv-x="723" 
d="M346 -10c-58.667 0 -110.834 12.9971 -156.501 38.9971s-81.167 64.333 -106.5 115s-38 112.334 -38 185.001c0 71.333 13.333 132.333 40 183s64.834 89.667 114.501 117s108.167 41 175.5 41c74.667 0 135 -13.5 181 -40.5s81.667 -69.833 107 -128.5l-159 -63
c-8.66699 34 -24 58.667 -46 74s-49.333 23 -82 23s-60.667 -7.83301 -84 -23.5s-41 -38.667 -53 -69s-18 -67.833 -18 -112.5c0 -46.667 6.16699 -85.667 18.5 -117s30.666 -54.5 54.999 -69.5s54.5 -22.5 90.5 -22.5c19.333 0 37 2.33301 53 7s30 11.5 42 20.5
s21.333 20.333 28 34s10 29.834 10 48.501v10h-151v115h297v-356h-117l-13 155l28 -24c-14 -45.333 -39.167 -80.166 -75.5 -104.499s-83.166 -36.5 -140.499 -36.5zM551 722.997h-118l-65 92l-65 -92h-118l100 163h166z" />
    <glyph glyph-name="gcircumflex" unicode="&#x11d;" horiz-adv-x="560" 
d="M98 559l83 173h146l82 -173h-99l-56 96l-57 -96h-99zM552 634l19.001 -112.999h-5.5h-5.5c-28 0 -50.667 -6.83301 -68 -20.5s-26 -35.167 -26 -64.5l-58 34c0.666992 32 7.16699 60.167 19.5 84.5s29.166 43.666 50.499 57.999s45.333 21.5 72 21.5h1h1z
M373.001 111.001c58 0 102.499 -12.1699 133.499 -36.5029s46.5 -59.166 46.5 -104.499c0 -41.333 -11.333 -75.666 -34 -102.999s-54.5 -47.833 -95.5 -61.5s-89.5 -20.5 -145.5 -20.5c-90.667 0 -156 11.333 -196 34s-60 53.334 -60 92.001c0 28 11.333 50.667 34 68
s60.334 26.666 113.001 27.999l-4 -16c-40.667 5.33301 -71 17.333 -91 36s-30 44 -30 76s12.667 58 38 78s59 31 101 33l62 -29h-16c-26 -1.33301 -44.333 -5.66602 -55 -12.999s-16 -16.333 -16 -27c0 -11.333 4.66699 -19.833 14 -25.5s23.333 -8.5 42 -8.5h159z
M279 -105.002c32 0 58.499 2.16602 79.499 6.49902s36.833 10.333 47.5 18s16 16.5 16 26.5s-3.66699 17.833 -11 23.5s-20.666 8.5 -39.999 8.5h-179c-12.667 0 -22.834 -3.33301 -30.501 -10s-11.5 -15 -11.5 -25c0 -15.333 11.333 -27.166 34 -35.499
s54.334 -12.5 95.001 -12.5zM284.999 509.997c50.667 0 94 -6.66699 130 -20s63.5 -32.5 82.5 -57.5s28.5 -55.833 28.5 -92.5c0 -36 -9.5 -66.667 -28.5 -92s-46.5 -44.5 -82.5 -57.5s-79.333 -19.5 -130 -19.5c-79.333 0 -139.5 14.667 -180.5 44s-61.5 71 -61.5 125
c0 36.667 9.5 67.5 28.5 92.5s46.5 44.167 82.5 57.5s79.667 20 131 20zM284.999 412.997c-22 0 -39.833 -6.33301 -53.5 -19s-20.5 -30.667 -20.5 -54c0 -22.667 6.83301 -40.334 20.5 -53.001s31.5 -19 53.5 -19c21.333 0 39 6.33301 53 19s21 30.334 21 53.001
c0 23.333 -7 41.333 -21 54s-31.667 19 -53 19z" />
    <glyph glyph-name="Gbreve" unicode="&#x11e;" horiz-adv-x="723" 
d="M346 -10c-58.667 0 -110.834 12.9971 -156.501 38.9971s-81.167 64.333 -106.5 115s-38 112.334 -38 185.001c0 71.333 13.333 132.333 40 183s64.834 89.667 114.501 117s108.167 41 175.5 41c74.667 0 135 -13.5 181 -40.5s81.667 -69.833 107 -128.5l-159 -63
c-8.66699 34 -24 58.667 -46 74s-49.333 23 -82 23s-60.667 -7.83301 -84 -23.5s-41 -38.667 -53 -69s-18 -67.833 -18 -112.5c0 -46.667 6.16699 -85.667 18.5 -117s30.666 -54.5 54.999 -69.5s54.5 -22.5 90.5 -22.5c19.333 0 37 2.33301 53 7s30 11.5 42 20.5
s21.333 20.333 28 34s10 29.834 10 48.501v10h-151v115h297v-356h-117l-13 155l28 -24c-14 -45.333 -39.167 -80.166 -75.5 -104.499s-83.166 -36.5 -140.499 -36.5zM537 877.997c0 -50.667 -15.168 -90.5 -45.501 -119.5s-71.5 -43.5 -123.5 -43.5
c-51.333 0 -92.333 14.5 -123 43.5s-46 68.833 -46 119.5h109c0.666992 -20 6 -36.333 16 -49s24.667 -19 44 -19c20 0 34.833 6.33301 44.5 19s14.834 29 15.501 49h109z" />
    <glyph glyph-name="gbreve" unicode="&#x11f;" horiz-adv-x="560" 
d="M552 634l19.001 -112.999h-5.5h-5.5c-28 0 -50.667 -6.83301 -68 -20.5s-26 -35.167 -26 -64.5l-58 34c0.666992 32 7.16699 60.167 19.5 84.5s29.166 43.666 50.499 57.999s45.333 21.5 72 21.5h1h1zM373.001 111.001c58 0 102.499 -12.1699 133.499 -36.5029
s46.5 -59.166 46.5 -104.499c0 -41.333 -11.333 -75.666 -34 -102.999s-54.5 -47.833 -95.5 -61.5s-89.5 -20.5 -145.5 -20.5c-90.667 0 -156 11.333 -196 34s-60 53.334 -60 92.001c0 28 11.333 50.667 34 68s60.334 26.666 113.001 27.999l-4 -16
c-40.667 5.33301 -71 17.333 -91 36s-30 44 -30 76s12.667 58 38 78s59 31 101 33l62 -29h-16c-26 -1.33301 -44.333 -5.66602 -55 -12.999s-16 -16.333 -16 -27c0 -11.333 4.66699 -19.833 14 -25.5s23.333 -8.5 42 -8.5h159zM279 -105.002
c32 0 58.499 2.16602 79.499 6.49902s36.833 10.333 47.5 18s16 16.5 16 26.5s-3.66699 17.833 -11 23.5s-20.666 8.5 -39.999 8.5h-179c-12.667 0 -22.834 -3.33301 -30.501 -10s-11.5 -15 -11.5 -25c0 -15.333 11.333 -27.166 34 -35.499s54.334 -12.5 95.001 -12.5z
M284.999 509.997c50.667 0 94 -6.66699 130 -20s63.5 -32.5 82.5 -57.5s28.5 -55.833 28.5 -92.5c0 -36 -9.5 -66.667 -28.5 -92s-46.5 -44.5 -82.5 -57.5s-79.333 -19.5 -130 -19.5c-79.333 0 -139.5 14.667 -180.5 44s-61.5 71 -61.5 125c0 36.667 9.5 67.5 28.5 92.5
s46.5 44.167 82.5 57.5s79.667 20 131 20zM284.999 412.997c-22 0 -39.833 -6.33301 -53.5 -19s-20.5 -30.667 -20.5 -54c0 -22.667 6.83301 -40.334 20.5 -53.001s31.5 -19 53.5 -19c21.333 0 39 6.33301 53 19s21 30.334 21 53.001c0 23.333 -7 41.333 -21 54
s-31.667 19 -53 19zM452.999 717.997c0 -50.667 -15.168 -90.5 -45.501 -119.5s-71.5 -43.5 -123.5 -43.5c-51.333 0 -92.333 14.5 -123 43.5s-46 68.833 -46 119.5h110c0 -20 5 -36.333 15 -49s24.667 -19 44 -19c20 0 34.833 6.33301 44.5 19s14.834 29 15.501 49h109z
" />
    <glyph glyph-name="Gdotaccent" unicode="&#x120;" horiz-adv-x="723" 
d="M346 -10c-58.667 0 -110.834 12.9971 -156.501 38.9971s-81.167 64.333 -106.5 115s-38 112.334 -38 185.001c0 71.333 13.333 132.333 40 183s64.834 89.667 114.501 117s108.167 41 175.5 41c74.667 0 135 -13.5 181 -40.5s81.667 -69.833 107 -128.5l-159 -63
c-8.66699 34 -24 58.667 -46 74s-49.333 23 -82 23s-60.667 -7.83301 -84 -23.5s-41 -38.667 -53 -69s-18 -67.833 -18 -112.5c0 -46.667 6.16699 -85.667 18.5 -117s30.666 -54.5 54.999 -69.5s54.5 -22.5 90.5 -22.5c19.333 0 37 2.33301 53 7s30 11.5 42 20.5
s21.333 20.333 28 34s10 29.834 10 48.501v10h-151v115h297v-356h-117l-13 155l28 -24c-14 -45.333 -39.167 -80.166 -75.5 -104.499s-83.166 -36.5 -140.499 -36.5zM368 881.997c30.667 0 53.834 -6.83301 69.501 -20.5s23.5 -33.5 23.5 -59.5s-7.83301 -46 -23.5 -60
s-38.834 -21 -69.501 -21c-29.333 0 -51.833 7 -67.5 21s-23.5 34 -23.5 60s7.83301 45.833 23.5 59.5s38.167 20.5 67.5 20.5z" />
    <glyph glyph-name="gdotaccent" unicode="&#x121;" horiz-adv-x="560" 
d="M545 634l13.999 -113.999c-4 1.33301 -8 2.16602 -12 2.49902s-8 0.5 -12 0.5c-29.333 0 -51.166 -7.16699 -65.499 -21.5s-21.5 -32.166 -21.5 -53.499l-60 22c0 27.333 5 53.666 15 78.999s25.5 46 46.5 62s47.5 24 79.5 24h7.5c3 0 5.83301 -0.333008 8.5 -1z
M372.999 111.001c58 0 102.499 -12.1699 133.499 -36.5029s46.5 -59.166 46.5 -104.499c0 -41.333 -11.333 -75.666 -34 -102.999s-54.5 -47.833 -95.5 -61.5s-89.5 -20.5 -145.5 -20.5c-90.667 0 -156 11.333 -196 34s-60 53.334 -60 92.001c0 28 11.333 50.667 34 68
s60.334 26.666 113.001 27.999l-4 -16c-40.667 5.33301 -71 17.333 -91 36s-30 44 -30 76s12.667 58 38 78s59 31 101 33l62 -29h-16c-26 -1.33301 -44.333 -5.66602 -55 -12.999s-16 -16.333 -16 -27c0 -11.333 4.66699 -19.833 14 -25.5s23.333 -8.5 42 -8.5h159z
M278.998 -105.002c32 0 58.499 2.16602 79.499 6.49902s36.833 10.333 47.5 18s16 16.5 16 26.5s-3.66699 17.833 -11 23.5s-20.666 8.5 -39.999 8.5h-179c-12.667 0 -22.834 -3.33301 -30.501 -10s-11.5 -15 -11.5 -25c0 -15.333 11.333 -27.166 34 -35.499
s54.334 -12.5 95.001 -12.5zM284.997 509.997c50.667 0 94 -6.66699 130 -20s63.5 -32.5 82.5 -57.5s28.5 -55.833 28.5 -92.5c0 -36 -9.5 -66.667 -28.5 -92s-46.5 -44.5 -82.5 -57.5s-79.333 -19.5 -130 -19.5c-79.333 0 -139.5 14.667 -180.5 44s-61.5 71 -61.5 125
c0 36.667 9.5 67.5 28.5 92.5s46.5 44.167 82.5 57.5s79.667 20 131 20zM284.997 412.997c-22 0 -39.833 -6.33301 -53.5 -19s-20.5 -30.667 -20.5 -54c0 -22.667 6.83301 -40.334 20.5 -53.001s31.5 -19 53.5 -19c21.333 0 39 6.33301 53 19s21 30.334 21 53.001
c0 23.333 -7 41.333 -21 54s-31.667 19 -53 19zM259.997 721.997c30.667 0 53.834 -6.83301 69.501 -20.5s23.5 -33.5 23.5 -59.5s-7.83301 -46 -23.5 -60s-38.834 -21 -69.501 -21c-29.333 0 -51.833 7 -67.5 21s-23.5 34 -23.5 60s7.83301 45.833 23.5 59.5
s38.167 20.5 67.5 20.5z" />
    <glyph glyph-name="uni0122" unicode="&#x122;" horiz-adv-x="723" 
d="M346 -10c-58.667 0 -110.834 12.9971 -156.501 38.9971s-81.167 64.333 -106.5 115s-38 112.334 -38 185.001c0 71.333 13.333 132.333 40 183s64.834 89.667 114.501 117s108.167 41 175.5 41c74.667 0 135 -13.5 181 -40.5s81.667 -69.833 107 -128.5l-159 -63
c-8.66699 34 -24 58.667 -46 74s-49.333 23 -82 23s-60.667 -7.83301 -84 -23.5s-41 -38.667 -53 -69s-18 -67.833 -18 -112.5c0 -46.667 6.16699 -85.667 18.5 -117s30.666 -54.5 54.999 -69.5s54.5 -22.5 90.5 -22.5c19.333 0 37 2.33301 53 7s30 11.5 42 20.5
s21.333 20.333 28 34s10 29.834 10 48.501v10h-151v115h297v-356h-117l-13 155l28 -24c-14 -45.333 -39.167 -80.166 -75.5 -104.499s-83.166 -36.5 -140.499 -36.5zM475 -60.0029l-71 -181h-110l32 181h149z" />
    <glyph glyph-name="uni0123" unicode="&#x123;" horiz-adv-x="560" 
d="M545 634l13.999 -113.999c-4 1.33301 -8 2.16602 -12 2.49902s-8 0.5 -12 0.5c-29.333 0 -51.166 -7.16699 -65.499 -21.5s-21.5 -32.166 -21.5 -53.499l-60 22c0 27.333 5 53.666 15 78.999s25.5 46 46.5 62s47.5 24 79.5 24h7.5c3 0 5.83301 -0.333008 8.5 -1z
M372.999 111.001c58 0 102.499 -12.1699 133.499 -36.5029s46.5 -59.166 46.5 -104.499c0 -41.333 -11.333 -75.666 -34 -102.999s-54.5 -47.833 -95.5 -61.5s-89.5 -20.5 -145.5 -20.5c-90.667 0 -156 11.333 -196 34s-60 53.334 -60 92.001c0 28 11.333 50.667 34 68
s60.334 26.666 113.001 27.999l-4 -16c-40.667 5.33301 -71 17.333 -91 36s-30 44 -30 76s12.667 58 38 78s59 31 101 33l62 -29h-16c-26 -1.33301 -44.333 -5.66602 -55 -12.999s-16 -16.333 -16 -27c0 -11.333 4.66699 -19.833 14 -25.5s23.333 -8.5 42 -8.5h159z
M278.998 -105.002c32 0 58.499 2.16602 79.499 6.49902s36.833 10.333 47.5 18s16 16.5 16 26.5s-3.66699 17.833 -11 23.5s-20.666 8.5 -39.999 8.5h-179c-12.667 0 -22.834 -3.33301 -30.501 -10s-11.5 -15 -11.5 -25c0 -15.333 11.333 -27.166 34 -35.499
s54.334 -12.5 95.001 -12.5zM284.997 509.997c50.667 0 94 -6.66699 130 -20s63.5 -32.5 82.5 -57.5s28.5 -55.833 28.5 -92.5c0 -36 -9.5 -66.667 -28.5 -92s-46.5 -44.5 -82.5 -57.5s-79.333 -19.5 -130 -19.5c-79.333 0 -139.5 14.667 -180.5 44s-61.5 71 -61.5 125
c0 36.667 9.5 67.5 28.5 92.5s46.5 44.167 82.5 57.5s79.667 20 131 20zM284.997 412.997c-22 0 -39.833 -6.33301 -53.5 -19s-20.5 -30.667 -20.5 -54c0 -22.667 6.83301 -40.334 20.5 -53.001s31.5 -19 53.5 -19c21.333 0 39 6.33301 53 19s21 30.334 21 53.001
c0 23.333 -7 41.333 -21 54s-31.667 19 -53 19zM382.997 771.997l-36 -209h-142l71 209h107z" />
    <glyph glyph-name="Hcircumflex" unicode="&#x124;" horiz-adv-x="742" 
d="M669 660v-660h-172v660h172zM245 660v-660h-172v660h172zM589 399v-133h-432v133h432zM554 723h-118l-65 92l-65 -92h-118l100 163h166z" />
    <glyph glyph-name="hcircumflex" unicode="&#x125;" horiz-adv-x="620" 
d="M61 0l-0.00195312 712h170v-303c14.667 33.333 35.667 58.5 63 75.5s59 25.5 95 25.5c34.667 0 64.834 -6.66699 90.501 -20s45.834 -33 60.501 -59s22 -58.667 22 -98v-333h-170v286c0 36 -6.5 60.833 -19.5 74.5s-30.167 20.5 -51.5 20.5c-16 0 -31 -4 -45 -12
s-25 -20.667 -33 -38s-12 -40 -12 -68v-263h-170zM328.998 767h-118l-65 92l-65 -92h-118l100 163h166z" />
    <glyph glyph-name="Hbar" unicode="&#x126;" horiz-adv-x="742" 
d="M669 660v-660h-172v660h172zM245 660v-660h-172v660h172zM589 399v-133h-432v133h432zM740 575v-96h-738v96h738z" />
    <glyph glyph-name="hbar" unicode="&#x127;" horiz-adv-x="620" 
d="M-16 635h377v-97h-377v97zM61 0l-0.00195312 712h170v-303c14.667 33.333 35.667 58.5 63 75.5s59 25.5 95 25.5c34.667 0 64.834 -6.66699 90.501 -20s45.834 -33 60.501 -59s22 -58.667 22 -98v-333h-170v286c0 36 -6.5 60.833 -19.5 74.5s-30.167 20.5 -51.5 20.5
c-16 0 -31 -4 -45 -12s-25 -20.667 -33 -38s-12 -40 -12 -68v-263h-170z" />
    <glyph glyph-name="Itilde" unicode="&#x128;" horiz-adv-x="318" 
d="M245 660v-660h-172v660h172zM357 878c-1.33301 -35.333 -7.49707 -64.8311 -18.4971 -88.498s-25.667 -41.334 -44 -53.001s-38.5 -17.5 -60.5 -17.5c-18.667 0 -34.834 2.83301 -48.501 8.5s-25.5 12.334 -35.5 20.001s-19.333 14.334 -28 20.001s-18 8.5 -28 8.5
c-11.333 0 -20 -4.66699 -26 -14s-10 -23.333 -12 -42h-96c2 53.333 15 93.166 39 119.499s54.667 39.5 92 39.5c18 0 33.333 -2.83301 46 -8.5s23.667 -12.334 33 -20.001s18.166 -14.334 26.499 -20.001s17.166 -8.5 26.499 -8.5c12 0 20.833 4.66699 26.5 14
s9.5 23.333 11.5 42h96z" />
    <glyph glyph-name="itilde" unicode="&#x129;" horiz-adv-x="291" 
d="M231 500v-500h-170v500h170zM344 718c-1.33301 -35.333 -7.49707 -64.8311 -18.4971 -88.498s-25.667 -41.334 -44 -53.001s-38.5 -17.5 -60.5 -17.5c-18.667 0 -34.834 2.83301 -48.501 8.5s-25.5 12.334 -35.5 20.001s-19.333 14.334 -28 20.001s-18 8.5 -28 8.5
c-11.333 0 -20 -4.66699 -26 -14s-10 -23.333 -12 -42h-96c2 53.333 15 93.166 39 119.499s54.667 39.5 92 39.5c18 0 33.333 -2.83301 46 -8.5s23.667 -12.334 33 -20.001s18.166 -14.334 26.499 -20.001s17.166 -8.5 26.499 -8.5c12 0 20.833 4.66699 26.5 14
s9.5 23.333 11.5 42h96z" />
    <glyph glyph-name="Imacron" unicode="&#x12a;" horiz-adv-x="318" 
d="M300 834v-105h-283v105h283zM245 660v-660h-172v660h172z" />
    <glyph glyph-name="imacron" unicode="&#x12b;" horiz-adv-x="291" 
d="M281 674v-105h-270v105h270zM231 500v-500h-170v500h170z" />
    <glyph glyph-name="Ibreve" unicode="&#x12c;" horiz-adv-x="318" 
d="M245 660v-660h-172v660h172zM328 878c0 -50.667 -15.168 -90.5 -45.501 -119.5s-71.5 -43.5 -123.5 -43.5c-51.333 0 -92.333 14.5 -123 43.5s-46 68.833 -46 119.5h109c0.666992 -20 6 -36.333 16 -49s24.667 -19 44 -19c20 0 34.833 6.33301 44.5 19
s14.834 29 15.501 49h109z" />
    <glyph glyph-name="ibreve" unicode="&#x12d;" horiz-adv-x="291" 
d="M231 500v-500h-170v500h170zM315 718c0 -50.667 -15.168 -90.5 -45.501 -119.5s-71.5 -43.5 -123.5 -43.5c-51.333 0 -92.333 14.5 -123 43.5s-46 68.833 -46 119.5h109c0.666992 -20 6 -36.333 16 -49s24.667 -19 44 -19c20 0 34.833 6.33301 44.5 19
s14.834 29 15.501 49h109z" />
    <glyph glyph-name="Iogonek" unicode="&#x12e;" horiz-adv-x="318" 
d="M158 -227c-24.667 0 -48.0029 3.99609 -70.0029 11.9961s-39.667 20.5 -53 37.5s-20 39.5 -20 67.5c0 30.667 7.16699 55.834 21.5 75.501s33.833 35.334 58.5 47.001s52.667 20.834 84 27.501l66 -40c-35.333 -14 -61.666 -27.667 -78.999 -41s-26 -29 -26 -47
c0 -13.333 4.66699 -24 14 -32s22.333 -12 39 -12c7.33301 0 15 0.833008 23 2.5s14.667 3.83398 20 6.50098l23 -82c-13.333 -8 -28.166 -13.667 -44.499 -17s-35.166 -5 -56.499 -5zM244.997 659.996v-660h-172v660h172z" />
    <glyph glyph-name="iogonek" unicode="&#x12f;" horiz-adv-x="291" 
d="M144 -227c-24.667 0 -48.0039 3.99609 -70.0039 11.9961s-39.833 20.5 -53.5 37.5s-20.5 39.5 -20.5 67.5c0 30.667 7.33301 55.834 22 75.501s34.334 35.334 59.001 47.001s52.334 20.834 83.001 27.501l67 -40c-35.333 -14 -61.666 -27.667 -78.999 -41
s-26 -29 -26 -47c0 -13.333 4.5 -24 13.5 -32s21.833 -12 38.5 -12c8 0 16 0.833008 24 2.5s14.667 3.83398 20 6.50098l22 -82c-12.667 -8 -27.167 -13.667 -43.5 -17s-35.166 -5 -56.499 -5zM145.996 557.996c-34.667 0 -59.834 6.5 -75.501 19.5s-23.5 33.5 -23.5 61.5
c0 28.667 7.83301 49.5 23.5 62.5s40.834 19.5 75.501 19.5c34 0 59 -6.5 75 -19.5s24 -33.833 24 -62.5c0 -28 -8 -48.5 -24 -61.5s-41 -19.5 -75 -19.5zM230.996 499.996v-500h-170v500h170z" />
    <glyph glyph-name="Idotaccent" unicode="&#x130;" horiz-adv-x="318" 
d="M245 660v-660h-172v660h172zM159 882c30.667 0 53.834 -6.83301 69.501 -20.5s23.5 -33.5 23.5 -59.5s-7.83301 -46 -23.5 -60s-38.834 -21 -69.501 -21c-29.333 0 -51.833 7 -67.5 21s-23.5 34 -23.5 60s7.83301 45.833 23.5 59.5s38.167 20.5 67.5 20.5z" />
    <glyph glyph-name="dotlessi" unicode="&#x131;" horiz-adv-x="291" 
d="M231 500v-500h-170v500h170z" />
    <glyph glyph-name="IJ" unicode="&#x132;" horiz-adv-x="936" 
d="M245 660v-660h-172v660h172zM875 660l-0.000976562 -406.001c0 -83.333 -24 -148.166 -72 -194.499s-116 -69.5 -204 -69.5c-64.667 0 -116.667 11.5 -156 34.5s-66.333 55 -81 96s-17.667 87.833 -9 140.5l168 30c-8 -60.667 -5.16699 -103.5 8.5 -128.5
s38.834 -37.5 75.501 -37.5c36 0 61.333 12 76 36s22 61 22 111v388h172z" />
    <glyph glyph-name="ij" unicode="&#x133;" horiz-adv-x="582" 
d="M146 558c-34.667 0 -59.834 6.5 -75.501 19.5s-23.5 33.5 -23.5 61.5c0 28.667 7.83301 49.5 23.5 62.5s40.834 19.5 75.501 19.5c34 0 59 -6.5 75 -19.5s24 -33.833 24 -62.5c0 -28 -8 -48.5 -24 -61.5s-41 -19.5 -75 -19.5zM231 500v-500h-170v500h170zM437 558
c-34.667 0 -59.834 6.5 -75.501 19.5s-23.5 33.5 -23.5 61.5c0 28.667 7.83301 49.5 23.5 62.5s40.834 19.5 75.501 19.5c34 0 59 -6.5 75 -19.5s24 -33.833 24 -62.5c0 -28 -8 -48.5 -24 -61.5s-41 -19.5 -75 -19.5zM522 500l0.00195312 -528.002
c0 -45.333 -7.83301 -81.666 -23.5 -108.999s-37.834 -47.166 -66.501 -59.499s-63.334 -18.5 -104.001 -18.5c-26.667 0 -51 2.83301 -73 8.5s-41.333 13.5 -58 23.5l24 110c7.33301 -5.33301 16.333 -9.83301 27 -13.5s23 -5.5 37 -5.5c20 0 36.167 5.83301 48.5 17.5
s18.5 32.167 18.5 61.5v513h170z" />
    <glyph glyph-name="Jcircumflex" unicode="&#x134;" horiz-adv-x="618" 
d="M557 660l-0.000976562 -406.001c0 -83.333 -24 -148.166 -72 -194.499s-116 -69.5 -204 -69.5c-64.667 0 -116.667 11.5 -156 34.5s-66.333 55 -81 96s-17.667 87.833 -9 140.5l168 30c-8 -60.667 -5.16699 -103.5 8.5 -128.5s38.834 -37.5 75.501 -37.5
c36 0 61.333 12 76 36s22 61 22 111v388h172zM653.999 722.999h-118l-65 92l-65 -92h-118l100 163h166z" />
    <glyph glyph-name="jcircumflex" unicode="&#x135;" horiz-adv-x="291" 
d="M231 500l0.00195312 -528.002c0 -45.333 -7.83301 -81.666 -23.5 -108.999s-37.834 -47.166 -66.501 -59.499s-63.334 -18.5 -104.001 -18.5c-26.667 0 -51 2.83301 -73 8.5s-41.333 13.5 -58 23.5l24 110c7.33301 -5.33301 16.333 -9.83301 27 -13.5s23 -5.5 37 -5.5
c20 0 36.167 5.83301 48.5 17.5s18.5 32.167 18.5 61.5v513h170zM337.002 558.998h-122l-69 88l-69 -88h-122l109 173h164z" />
    <glyph glyph-name="uni0136" unicode="&#x136;" horiz-adv-x="693" 
d="M672 660l-310 -371l-11 26l-157 -191l-33 139l320 397h191zM245 660v-660h-172v660h172zM418 442l266 -442h-195l-200 346zM449 -60l-71 -181h-110l32 181h149z" />
    <glyph glyph-name="uni0137" unicode="&#x137;" horiz-adv-x="622" 
d="M610 500l-240 -256l-32 -9l-143 -160l-1 174l227 251h189zM231 712v-712h-170v712h170zM396 350l225 -350h-188l-148 250zM414 -60l-71 -181h-110l32 181h149z" />
    <glyph glyph-name="kgreenlandic" unicode="&#x138;" horiz-adv-x="622" 
d="M610 500l-240 -256l-32 -9l-143 -160l-1 174l228 251h188zM231 500v-500h-170v500h170zM396 350l225 -350h-188l-148 250z" />
    <glyph glyph-name="Lacute" unicode="&#x139;" horiz-adv-x="602" 
d="M245 133h331v-133h-503v660h172v-527zM148 886h152l-89 -163h-124z" />
    <glyph glyph-name="lacute" unicode="&#x13a;" horiz-adv-x="327" 
d="M229 712l0.000976562 -542c0 -22 3.66699 -37.667 11 -47s19.666 -14 36.999 -14c10 0 18.333 0.666992 25 2s14.667 3.33301 24 6l-11 -102c-12 -7.33301 -27.667 -13.333 -47 -18s-38.333 -7 -57 -7c-53.333 0 -92 12.333 -116 37s-36 65 -36 121v564h170zM61.001 768
l56 152h151l-84 -152h-123z" />
    <glyph glyph-name="uni013B" unicode="&#x13b;" horiz-adv-x="602" 
d="M245 133h331v-133h-503v660h172v-527zM422 -60l-71 -181h-110l32 181h149z" />
    <glyph glyph-name="uni013C" unicode="&#x13c;" horiz-adv-x="327" 
d="M229 712l0.000976562 -542c0 -22 3.66699 -37.667 11 -47s19.666 -14 36.999 -14c10 0 18.333 0.666992 25 2s14.667 3.33301 24 6l-11 -102c-12 -7.33301 -27.667 -13.333 -47 -18s-38.333 -7 -57 -7c-53.333 0 -92 12.333 -116 37s-36 65 -36 121v564h170zM281.001 -60
l-71 -181h-110l32 181h149z" />
    <glyph glyph-name="Lcaron" unicode="&#x13d;" horiz-adv-x="602" 
d="M534 660l-60 -239h-113l24 239h149zM245 133h331v-133h-503v660h172v-527z" />
    <glyph glyph-name="lcaron" unicode="&#x13e;" horiz-adv-x="391" 
d="M418 712l-53 -239h-98l22 239h129zM229 712l0.000976562 -542c0 -22 3.66699 -37.667 11 -47s19.666 -14 36.999 -14c10 0 18.333 0.666992 25 2s14.667 3.33301 24 6l-11 -102c-12 -7.33301 -27.667 -13.333 -47 -18s-38.333 -7 -57 -7c-53.333 0 -92 12.333 -116 37
s-36 65 -36 121v564h170z" />
    <glyph glyph-name="Ldot" unicode="&#x13f;" horiz-adv-x="644" 
d="M245 133h331v-133h-503v660h172v-527zM486 467c31.333 0 55.833 -8 73.5 -24s26.5 -38.333 26.5 -67c0 -28 -8.83301 -50 -26.5 -66s-42.167 -24 -73.5 -24c-30.667 0 -55 8 -73 24s-27 38 -27 66c0 28.667 9 51 27 67s42.333 24 73 24z" />
    <glyph glyph-name="ldot" unicode="&#x140;" horiz-adv-x="497" 
d="M229 712l0.000976562 -542c0 -22 3.66699 -37.667 11 -47s19.666 -14 36.999 -14c10 0 18.333 0.666992 25 2s14.667 3.33301 24 6l-11 -102c-12 -7.33301 -27.667 -13.333 -47 -18s-38.333 -7 -57 -7c-53.333 0 -92 12.333 -116 37s-36 65 -36 121v564h170zM394.001 448
c31.333 0 55.833 -8 73.5 -24s26.5 -38.333 26.5 -67c0 -28 -8.83301 -50 -26.5 -66s-42.167 -24 -73.5 -24c-30.667 0 -55 8 -73 24s-27 38 -27 66c0 28.667 9 51 27 67s42.333 24 73 24z" />
    <glyph glyph-name="Lslash" unicode="&#x141;" horiz-adv-x="668" 
d="M481 507v-125l-452 -216v125zM311 133h331v-133h-503v660h172v-527z" />
    <glyph glyph-name="lslash" unicode="&#x142;" horiz-adv-x="407" 
d="M382 509v-119l-134 -83l-59 -24l-167 -99v119l141 82l58 21zM278 712l0.000976562 -542c0 -22 3.66699 -37.667 11 -47s19.666 -14 36.999 -14c10 0 18.333 0.666992 25 2s14.667 3.33301 24 6l-11 -102c-12 -7.33301 -27.667 -13.333 -47 -18s-38.333 -7 -57 -7
c-53.333 0 -92 12.333 -116 37s-36 65 -36 121v564h170z" />
    <glyph glyph-name="Nacute" unicode="&#x143;" horiz-adv-x="741" 
d="M668 660v-660h-191l-205 357l-50 98h-1l4 -122v-333h-152v660h191l205 -357l50 -98h1l-4 122v333h152zM361 886h152l-89 -163h-124z" />
    <glyph glyph-name="nacute" unicode="&#x144;" horiz-adv-x="620" 
d="M61 0l-0.00195312 500.001h152l9 -172l-19 19c6.66699 36 18.5 66 35.5 90s38.333 42.167 64 54.5s54.5 18.5 86.5 18.5c34.667 0 64.834 -6.66699 90.501 -20s45.834 -33 60.501 -59s22 -58.667 22 -98v-333h-170v288c0 34.667 -6.66699 58.667 -20 72
s-30.333 20 -51 20c-16 0 -31 -3.83301 -45 -11.5s-25 -19.834 -33 -36.501s-12 -39 -12 -67v-265h-170zM302.998 738.001h158l-101 -173h-124z" />
    <glyph glyph-name="uni0145" unicode="&#x145;" horiz-adv-x="741" 
d="M668 660v-660h-191l-205 357l-50 98h-1l4 -122v-333h-152v660h191l205 -357l50 -98h1l-4 122v333h152zM469 -60l-71 -181h-110l32 181h149z" />
    <glyph glyph-name="uni0146" unicode="&#x146;" horiz-adv-x="620" 
d="M61 0l-0.00195312 500.001h152l9 -172l-19 19c6.66699 36 18.5 66 35.5 90s38.333 42.167 64 54.5s54.5 18.5 86.5 18.5c34.667 0 64.834 -6.66699 90.501 -20s45.834 -33 60.501 -59s22 -58.667 22 -98v-333h-170v288c0 34.667 -6.66699 58.667 -20 72
s-30.333 20 -51 20c-16 0 -31 -3.83301 -45 -11.5s-25 -19.834 -33 -36.501s-12 -39 -12 -67v-265h-170zM404.998 -59.999l-71 -181h-110l32 181h149z" />
    <glyph glyph-name="Ncaron" unicode="&#x147;" horiz-adv-x="741" 
d="M668 660v-660h-191l-205 357l-50 98h-1l4 -122v-333h-152v660h191l205 -357l50 -98h1l-4 122v333h152zM555 886l-100 -163h-166l-100 163h118l65 -92l65 92h118z" />
    <glyph glyph-name="ncaron" unicode="&#x148;" horiz-adv-x="620" 
d="M61 0l-0.00195312 500.001h152l9 -172l-19 19c6.66699 36 18.5 66 35.5 90s38.333 42.167 64 54.5s54.5 18.5 86.5 18.5c34.667 0 64.834 -6.66699 90.501 -20s45.834 -33 60.501 -59s22 -58.667 22 -98v-333h-170v288c0 34.667 -6.66699 58.667 -20 72
s-30.333 20 -51 20c-16 0 -31 -3.83301 -45 -11.5s-25 -19.834 -33 -36.501s-12 -39 -12 -67v-265h-170zM500.998 738.001l-109 -173h-165l-109 173h123l68 -89l69 89h123z" />
    <glyph glyph-name="Eng" unicode="&#x14a;" horiz-adv-x="741" 
d="M488 -215c-25.333 0 -48.167 2.33008 -68.5 6.99707s-38.5 11.334 -54.5 20.001l21 119c8 -6 17.833 -11 29.5 -15s24.834 -6 39.501 -6c18.667 0 33.5 5.83301 44.5 17.5s16.5 31.5 16.5 59.5v18l-242 359l-52 93h-1l4 -124v-333h-152v660h191l205 -315l47 -87h1l-1 402
h152v-688c0 -45.333 -7.5 -81.666 -22.5 -108.999s-35.833 -47.166 -62.5 -59.499s-58.334 -18.5 -95.001 -18.5z" />
    <glyph glyph-name="eng" unicode="&#x14b;" horiz-adv-x="620" 
d="M562 182v-198c0 -49.333 -7.83301 -88.5 -23.5 -117.5s-37.667 -49.833 -66 -62.5s-61.5 -19 -99.5 -19c-30 0 -56 2.83301 -78 8.5s-41.333 13.5 -58 23.5l24 110c7.33301 -5.33301 16.333 -9.83301 27 -13.5s23 -5.5 37 -5.5c20 0 36.167 5.83301 48.5 17.5
s18.5 32.167 18.5 61.5v195h170zM61 0l-0.00195312 500.001h152l9 -172l-19 19c6.66699 36 18.5 66 35.5 90s38.333 42.167 64 54.5s54.5 18.5 86.5 18.5c34.667 0 64.834 -6.66699 90.501 -20s45.834 -33 60.501 -59s22 -58.667 22 -98v-333h-170v288
c0 34.667 -6.66699 58.667 -20 72s-30.333 20 -51 20c-16 0 -31 -3.83301 -45 -11.5s-25 -19.834 -33 -36.501s-12 -39 -12 -67v-265h-170z" />
    <glyph glyph-name="Omacron" unicode="&#x14c;" horiz-adv-x="737" 
d="M369 670c66.667 0 124.167 -13.5 172.5 -40.5s85.5 -65.833 111.5 -116.5s39 -111.667 39 -183s-13 -132.333 -39 -183s-63.167 -89.5 -111.5 -116.5s-105.833 -40.5 -172.5 -40.5s-124.334 13.5 -173.001 40.5s-86 65.833 -112 116.5s-39 111.667 -39 183
s13 132.333 39 183s63.333 89.5 112 116.5s106.334 40.5 173.001 40.5zM369 535c-32 0 -59 -7.66699 -81 -23s-38.667 -38.166 -50 -68.499s-17 -68.166 -17 -113.499c0 -44.667 5.66699 -82.334 17 -113.001s28 -53.667 50 -69s49 -23 81 -23s58.833 7.66699 80.5 23
s38.167 38.333 49.5 69s17 68.334 17 113.001c0 45.333 -5.66699 83.166 -17 113.499s-27.833 53.166 -49.5 68.499s-48.5 23 -80.5 23zM551 834v-105h-364v105h364z" />
    <glyph glyph-name="omacron" unicode="&#x14d;" horiz-adv-x="599" 
d="M299 510c52.667 0 98.834 -10.167 138.501 -30.5s70.667 -50 93 -89s33.5 -85.833 33.5 -140.5s-11.167 -101.5 -33.5 -140.5s-53.333 -68.667 -93 -89s-85.834 -30.5 -138.501 -30.5c-51.333 0 -97 10.167 -137 30.5s-71.167 50 -93.5 89s-33.5 85.833 -33.5 140.5
s11.167 101.5 33.5 140.5s53.5 68.667 93.5 89s85.667 30.5 137 30.5zM299 389c-19.333 0 -36 -4.66699 -50 -14s-24.667 -24.333 -32 -45s-11 -47.334 -11 -80.001s3.66699 -59.167 11 -79.5s18 -35.333 32 -45s30.667 -14.5 50 -14.5c20 0 37 4.83301 51 14.5
s24.667 24.667 32 45s11 46.833 11 79.5s-3.66699 59.334 -11 80.001s-18 35.667 -32 45s-31 14 -51 14zM481 674v-105h-364v105h364z" />
    <glyph glyph-name="Obreve" unicode="&#x14e;" horiz-adv-x="737" 
d="M369 670c66.667 0 124.167 -13.5 172.5 -40.5s85.5 -65.833 111.5 -116.5s39 -111.667 39 -183s-13 -132.333 -39 -183s-63.167 -89.5 -111.5 -116.5s-105.833 -40.5 -172.5 -40.5s-124.334 13.5 -173.001 40.5s-86 65.833 -112 116.5s-39 111.667 -39 183
s13 132.333 39 183s63.333 89.5 112 116.5s106.334 40.5 173.001 40.5zM369 535c-32 0 -59 -7.66699 -81 -23s-38.667 -38.166 -50 -68.499s-17 -68.166 -17 -113.499c0 -44.667 5.66699 -82.334 17 -113.001s28 -53.667 50 -69s49 -23 81 -23s58.833 7.66699 80.5 23
s38.167 38.333 49.5 69s17 68.334 17 113.001c0 45.333 -5.66699 83.166 -17 113.499s-27.833 53.166 -49.5 68.499s-48.5 23 -80.5 23zM538 878c0 -50.667 -15.168 -90.5 -45.501 -119.5s-71.5 -43.5 -123.5 -43.5c-51.333 0 -92.333 14.5 -123 43.5s-46 68.833 -46 119.5
h109c0.666992 -20 6 -36.333 16 -49s24.667 -19 44 -19c20 0 34.833 6.33301 44.5 19s14.834 29 15.501 49h109z" />
    <glyph glyph-name="obreve" unicode="&#x14f;" horiz-adv-x="599" 
d="M299 510c52.667 0 98.834 -10.167 138.501 -30.5s70.667 -50 93 -89s33.5 -85.833 33.5 -140.5s-11.167 -101.5 -33.5 -140.5s-53.333 -68.667 -93 -89s-85.834 -30.5 -138.501 -30.5c-51.333 0 -97 10.167 -137 30.5s-71.167 50 -93.5 89s-33.5 85.833 -33.5 140.5
s11.167 101.5 33.5 140.5s53.5 68.667 93.5 89s85.667 30.5 137 30.5zM299 389c-19.333 0 -36 -4.66699 -50 -14s-24.667 -24.333 -32 -45s-11 -47.334 -11 -80.001s3.66699 -59.167 11 -79.5s18 -35.333 32 -45s30.667 -14.5 50 -14.5c20 0 37 4.83301 51 14.5
s24.667 24.667 32 45s11 46.833 11 79.5s-3.66699 59.334 -11 80.001s-18 35.667 -32 45s-31 14 -51 14zM468 718c0 -50.667 -15.168 -90.5 -45.501 -119.5s-71.5 -43.5 -123.5 -43.5c-51.333 0 -92.333 14.5 -123 43.5s-46 68.833 -46 119.5h109
c0.666992 -20 6 -36.333 16 -49s24.667 -19 44 -19c20 0 34.833 6.33301 44.5 19s14.834 29 15.501 49h109z" />
    <glyph glyph-name="Ohungarumlaut" unicode="&#x150;" horiz-adv-x="737" 
d="M369 670c66.667 0 124.167 -13.5 172.5 -40.5s85.5 -65.833 111.5 -116.5s39 -111.667 39 -183s-13 -132.333 -39 -183s-63.167 -89.5 -111.5 -116.5s-105.833 -40.5 -172.5 -40.5s-124.334 13.5 -173.001 40.5s-86 65.833 -112 116.5s-39 111.667 -39 183
s13 132.333 39 183s63.333 89.5 112 116.5s106.334 40.5 173.001 40.5zM369 535c-32 0 -59 -7.66699 -81 -23s-38.667 -38.166 -50 -68.499s-17 -68.166 -17 -113.499c0 -44.667 5.66699 -82.334 17 -113.001s28 -53.667 50 -69s49 -23 81 -23s58.833 7.66699 80.5 23
s38.167 38.333 49.5 69s17 68.334 17 113.001c0 45.333 -5.66699 83.166 -17 113.499s-27.833 53.166 -49.5 68.499s-48.5 23 -80.5 23zM474 886h152l-89 -163h-124zM251 886h152l-89 -163h-124z" />
    <glyph glyph-name="ohungarumlaut" unicode="&#x151;" horiz-adv-x="599" 
d="M299 510c52.667 0 98.834 -10.167 138.501 -30.5s70.667 -50 93 -89s33.5 -85.833 33.5 -140.5s-11.167 -101.5 -33.5 -140.5s-53.333 -68.667 -93 -89s-85.834 -30.5 -138.501 -30.5c-51.333 0 -97 10.167 -137 30.5s-71.167 50 -93.5 89s-33.5 85.833 -33.5 140.5
s11.167 101.5 33.5 140.5s53.5 68.667 93.5 89s85.667 30.5 137 30.5zM299 389c-19.333 0 -36 -4.66699 -50 -14s-24.667 -24.333 -32 -45s-11 -47.334 -11 -80.001s3.66699 -59.167 11 -79.5s18 -35.333 32 -45s30.667 -14.5 50 -14.5c20 0 37 4.83301 51 14.5
s24.667 24.667 32 45s11 46.833 11 79.5s-3.66699 59.334 -11 80.001s-18 35.667 -32 45s-31 14 -51 14zM333 565l69 173h144l-95 -173h-118zM121 565l69 173h144l-95 -173h-118z" />
    <glyph glyph-name="OE" unicode="&#x152;" horiz-adv-x="1048" 
d="M675 133h343v-133h-458v79c-24.667 -28 -54.167 -49.833 -88.5 -65.5s-73.5 -23.5 -117.5 -23.5c-63.333 0 -118.166 13.5 -164.499 40.5s-82 65.833 -107 116.5s-37.5 111.667 -37.5 183s12.5 132.333 37.5 183s60.833 89.5 107.5 116.5s102 40.5 166 40.5
c43.333 0 82.166 -7.83301 116.499 -23.5s63.5 -37.167 87.5 -64.5v78h445v-133h-330v-134h259v-125h-259v-135zM363 125c30.667 0 56.5 7.66699 77.5 23s37.167 38.333 48.5 69s17 68.334 17 113.001c0 45.333 -5.66699 83.166 -17 113.499s-27.5 53.166 -48.5 68.499
s-46.833 23 -77.5 23c-31.333 0 -57.833 -7.66699 -79.5 -23s-38 -38.166 -49 -68.499s-16.5 -68.166 -16.5 -113.499c0 -44.667 5.5 -82.334 16.5 -113.001s27.333 -53.667 49 -69s48.167 -23 79.5 -23z" />
    <glyph glyph-name="oe" unicode="&#x153;" horiz-adv-x="943" 
d="M291 -10c-47.333 0 -90.5 10.166 -129.5 30.499s-69.833 50 -92.5 89s-34 85.833 -34 140.5s11.333 101.5 34 140.5s53.5 68.667 92.5 89s82.167 30.5 129.5 30.5c50.667 0 94.5 -10.833 131.5 -32.5s64.833 -53.834 83.5 -96.501l-51 -1c18.667 42.667 46 75 82 97
s79.333 33 130 33c50 0 93 -10.167 129 -30.5s63.833 -48.333 83.5 -84s29.5 -76.5 29.5 -122.5c0 -11.333 -0.5 -22.166 -1.5 -32.499s-2.16699 -19.166 -3.5 -26.499h-395v80h239c-2 31.333 -10.5 55.333 -25.5 72s-35.5 25 -61.5 25c-22 0 -40.333 -5 -55 -15
s-25.834 -25.667 -33.501 -47s-11.5 -48.333 -11.5 -81c0 -33.333 4.33301 -60.166 13 -80.499s21 -35 37 -44s35.333 -13.5 58 -13.5c25.333 0 45.5 5 60.5 15s26.167 24 33.5 42l136 -45c-9.33301 -28.667 -25.333 -52.834 -48 -72.501s-49.667 -34.5 -81 -44.5
s-64.666 -15 -99.999 -15c-51.333 0 -95.333 10.833 -132 32.5s-64 53.167 -82 94.5h50c-18 -41.333 -45.5 -72.833 -82.5 -94.5s-81.167 -32.5 -132.5 -32.5zM299 110.999c20 0 37 4.83301 51 14.5s24.667 24.667 32 45s11 46.833 11 79.5s-3.66699 59.334 -11 80.001
s-18 35.667 -32 45s-31 14 -51 14c-19.333 0 -36 -4.66699 -50 -14s-24.667 -24.333 -32 -45s-11 -47.334 -11 -80.001s3.66699 -59.167 11 -79.5s18 -35.333 32 -45s30.667 -14.5 50 -14.5z" />
    <glyph glyph-name="Racute" unicode="&#x154;" horiz-adv-x="689" 
d="M388 660c78.667 0 139.833 -18.501 183.5 -55.501s65.5 -86.167 65.5 -147.5c0 -67.333 -21.667 -118.666 -65 -153.999s-104.333 -53 -183 -53l-16 -9h-131v-241h-169v660h315zM363.999 362.999c33.333 0 58.333 6.66797 75 20.001s25 34.666 25 63.999
c0 28.667 -8.33301 49.667 -25 63s-41.667 20 -75 20h-122v-167h122zM464.999 327l211 -327h-190l-169 289zM317.999 886h152l-89 -163h-124z" />
    <glyph glyph-name="racute" unicode="&#x155;" horiz-adv-x="430" 
d="M61 0l-0.000976562 499.999h150l7 -108c12.667 37.333 31.5 66.333 56.5 87s56.833 31 95.5 31c12.667 0 23.5 -1 32.5 -3s16.167 -4.66699 21.5 -8l-17 -140c-6.66699 2.66699 -15.167 4.83398 -25.5 6.50098s-22.833 2.5 -37.5 2.5c-20 0 -38.667 -4.33301 -56 -13
s-31.166 -21.5 -41.499 -38.5s-15.5 -38.5 -15.5 -64.5v-252h-170zM232.999 737.999h158l-101 -173h-124z" />
    <glyph glyph-name="uni0156" unicode="&#x156;" horiz-adv-x="689" 
d="M388 660c78.667 0 139.833 -18.501 183.5 -55.501s65.5 -86.167 65.5 -147.5c0 -67.333 -21.667 -118.666 -65 -153.999s-104.333 -53 -183 -53l-16 -9h-131v-241h-169v660h315zM363.999 362.999c33.333 0 58.333 6.66797 75 20.001s25 34.666 25 63.999
c0 28.667 -8.33301 49.667 -25 63s-41.667 20 -75 20h-122v-167h122zM464.999 327l211 -327h-190l-169 289zM448.999 -60l-71 -181h-110l32 181h149z" />
    <glyph glyph-name="uni0157" unicode="&#x157;" horiz-adv-x="430" 
d="M61 0l-0.000976562 499.999h150l7 -108c12.667 37.333 31.5 66.333 56.5 87s56.833 31 95.5 31c12.667 0 23.5 -1 32.5 -3s16.167 -4.66699 21.5 -8l-17 -140c-6.66699 2.66699 -15.167 4.83398 -25.5 6.50098s-22.833 2.5 -37.5 2.5c-20 0 -38.667 -4.33301 -56 -13
s-31.166 -21.5 -41.499 -38.5s-15.5 -38.5 -15.5 -64.5v-252h-170zM231.999 -60.001l-71 -181h-110l32 181h149z" />
    <glyph glyph-name="Rcaron" unicode="&#x158;" horiz-adv-x="689" 
d="M388 660c78.667 0 139.833 -18.501 183.5 -55.501s65.5 -86.167 65.5 -147.5c0 -67.333 -21.667 -118.666 -65 -153.999s-104.333 -53 -183 -53l-16 -9h-131v-241h-169v660h315zM363.999 362.999c33.333 0 58.333 6.66797 75 20.001s25 34.666 25 63.999
c0 28.667 -8.33301 49.667 -25 63s-41.667 20 -75 20h-122v-167h122zM464.999 327l211 -327h-190l-169 289zM511.999 886l-100 -163h-166l-100 163h118l65 -92l65 92h118z" />
    <glyph glyph-name="rcaron" unicode="&#x159;" horiz-adv-x="430" 
d="M61 0l-0.000976562 499.999h150l7 -108c12.667 37.333 31.5 66.333 56.5 87s56.833 31 95.5 31c12.667 0 23.5 -1 32.5 -3s16.167 -4.66699 21.5 -8l-17 -140c-6.66699 2.66699 -15.167 4.83398 -25.5 6.50098s-22.833 2.5 -37.5 2.5c-20 0 -38.667 -4.33301 -56 -13
s-31.166 -21.5 -41.499 -38.5s-15.5 -38.5 -15.5 -64.5v-252h-170zM430.999 737.999l-109 -173h-165l-109 173h123l68 -89l69 89h123z" />
    <glyph glyph-name="Sacute" unicode="&#x15a;" horiz-adv-x="645" 
d="M331 670c61.333 0 115.499 -9.50098 162.499 -28.501s87.833 -46.833 122.5 -83.5l-83 -111c-28.667 30 -59.5 52.5 -92.5 67.5s-70.5 22.5 -112.5 22.5c-24.667 0 -44.667 -2.66699 -60 -8s-26.333 -12.666 -33 -21.999s-10 -20 -10 -32c0 -14 6.5 -25.833 19.5 -35.5
s34.167 -17.834 63.5 -24.501l111 -25c66 -15.333 114.333 -37.666 145 -66.999s46 -68.333 46 -117c0 -46.667 -12 -86.167 -36 -118.5s-57 -56.666 -99 -72.999s-90 -24.5 -144 -24.5c-44 0 -86 4.83301 -126 14.5s-76 23.5 -108 41.5s-59 38.667 -81 62l83 115
c16.667 -19.333 37.167 -36.5 61.5 -51.5s51 -26.833 80 -35.5s58.5 -13 88.5 -13c23.333 0 42.833 2.33301 58.5 7s27.167 11.667 34.5 21s11 20.333 11 33c0 14 -5 25.833 -15 35.5s-29 17.834 -57 24.501l-122 27c-37.333 8.66699 -70.5 20.167 -99.5 34.5
s-51.833 33.666 -68.5 57.999s-25 54.833 -25 91.5c0 41.333 11.333 78.166 34 110.499s55.334 57.833 98.001 76.5s93.667 28 153 28zM317.999 885.999h152l-89 -163h-124z" />
    <glyph glyph-name="sacute" unicode="&#x15b;" horiz-adv-x="534" 
d="M271 -10c-50 0 -96.5039 8.16699 -139.504 24.5s-78.5 39.833 -106.5 70.5l80 94c16.667 -21.333 38.834 -39.166 66.501 -53.499s58.5 -21.5 92.5 -21.5c20.667 0 37.667 3 51 9s20 15.333 20 28c0 9.33301 -3.33301 16.833 -10 22.5s-20 10.5 -40 14.5l-70 14
c-62.667 12.667 -107.167 31.5 -133.5 56.5s-39.5 57.833 -39.5 98.5c0 27.333 8.33301 53.5 25 78.5s42.334 45.333 77.001 61s79 23.5 133 23.5c50.667 0 95.334 -7.33301 134.001 -22s69.334 -36 92.001 -64l-81 -92c-16 20 -36.667 35.667 -62 47s-50.666 17 -75.999 17
c-16 0 -29.5 -1.5 -40.5 -4.5s-19.167 -7.16699 -24.5 -12.5s-8 -12 -8 -20c0 -8.66699 4.16699 -16.167 12.5 -22.5s23.833 -11.833 46.5 -16.5l91 -18c51.333 -9.33301 88.333 -26.333 111 -51s34 -54.334 34 -89.001c0 -32.667 -8.66699 -62 -26 -88
s-43.333 -46.5 -78 -61.5s-78.334 -22.5 -131.001 -22.5zM263.996 738h158l-101 -173h-124z" />
    <glyph glyph-name="Scircumflex" unicode="&#x15c;" horiz-adv-x="645" 
d="M331 670c61.333 0 115.499 -9.50098 162.499 -28.501s87.833 -46.833 122.5 -83.5l-83 -111c-28.667 30 -59.5 52.5 -92.5 67.5s-70.5 22.5 -112.5 22.5c-24.667 0 -44.667 -2.66699 -60 -8s-26.333 -12.666 -33 -21.999s-10 -20 -10 -32c0 -14 6.5 -25.833 19.5 -35.5
s34.167 -17.834 63.5 -24.501l111 -25c66 -15.333 114.333 -37.666 145 -66.999s46 -68.333 46 -117c0 -46.667 -12 -86.167 -36 -118.5s-57 -56.666 -99 -72.999s-90 -24.5 -144 -24.5c-44 0 -86 4.83301 -126 14.5s-76 23.5 -108 41.5s-59 38.667 -81 62l83 115
c16.667 -19.333 37.167 -36.5 61.5 -51.5s51 -26.833 80 -35.5s58.5 -13 88.5 -13c23.333 0 42.833 2.33301 58.5 7s27.167 11.667 34.5 21s11 20.333 11 33c0 14 -5 25.833 -15 35.5s-29 17.834 -57 24.501l-122 27c-37.333 8.66699 -70.5 20.167 -99.5 34.5
s-51.833 33.666 -68.5 57.999s-25 54.833 -25 91.5c0 41.333 11.333 78.166 34 110.499s55.334 57.833 98.001 76.5s93.667 28 153 28zM511.999 722.999h-118l-65 92l-65 -92h-118l100 163h166z" />
    <glyph glyph-name="scircumflex" unicode="&#x15d;" horiz-adv-x="534" 
d="M271 -10c-50 0 -96.5039 8.16699 -139.504 24.5s-78.5 39.833 -106.5 70.5l80 94c16.667 -21.333 38.834 -39.166 66.501 -53.499s58.5 -21.5 92.5 -21.5c20.667 0 37.667 3 51 9s20 15.333 20 28c0 9.33301 -3.33301 16.833 -10 22.5s-20 10.5 -40 14.5l-70 14
c-62.667 12.667 -107.167 31.5 -133.5 56.5s-39.5 57.833 -39.5 98.5c0 27.333 8.33301 53.5 25 78.5s42.334 45.333 77.001 61s79 23.5 133 23.5c50.667 0 95.334 -7.33301 134.001 -22s69.334 -36 92.001 -64l-81 -92c-16 20 -36.667 35.667 -62 47s-50.666 17 -75.999 17
c-16 0 -29.5 -1.5 -40.5 -4.5s-19.167 -7.16699 -24.5 -12.5s-8 -12 -8 -20c0 -8.66699 4.16699 -16.167 12.5 -22.5s23.833 -11.833 46.5 -16.5l91 -18c51.333 -9.33301 88.333 -26.333 111 -51s34 -54.334 34 -89.001c0 -32.667 -8.66699 -62 -26 -88
s-43.333 -46.5 -78 -61.5s-78.334 -22.5 -131.001 -22.5zM464.996 559h-122l-69 88l-69 -88h-122l109 173h164z" />
    <glyph glyph-name="Scedilla" unicode="&#x15e;" horiz-adv-x="645" 
d="M331 670c61.333 0 115.499 -9.50098 162.499 -28.501s87.833 -46.833 122.5 -83.5l-83 -111c-28.667 30 -59.5 52.5 -92.5 67.5s-70.5 22.5 -112.5 22.5c-24.667 0 -44.667 -2.66699 -60 -8s-26.333 -12.666 -33 -21.999s-10 -20 -10 -32c0 -14 6.5 -25.833 19.5 -35.5
s34.167 -17.834 63.5 -24.501l111 -25c66 -15.333 114.333 -37.666 145 -66.999s46 -68.333 46 -117c0 -46.667 -12 -86.167 -36 -118.5s-57 -56.666 -99 -72.999s-90 -24.5 -144 -24.5c-44 0 -86 4.83301 -126 14.5s-76 23.5 -108 41.5s-59 38.667 -81 62l83 115
c16.667 -19.333 37.167 -36.5 61.5 -51.5s51 -26.833 80 -35.5s58.5 -13 88.5 -13c23.333 0 42.833 2.33301 58.5 7s27.167 11.667 34.5 21s11 20.333 11 33c0 14 -5 25.833 -15 35.5s-29 17.834 -57 24.501l-122 27c-37.333 8.66699 -70.5 20.167 -99.5 34.5
s-51.833 33.666 -68.5 57.999s-25 54.833 -25 91.5c0 41.333 11.333 78.166 34 110.499s55.334 57.833 98.001 76.5s93.667 28 153 28zM250.999 9.99902l41.001 27.001c52 -7.33301 90.333 -21.5 115 -42.5s37 -49.167 37 -84.5c0 -37.333 -12.5 -67.5 -37.5 -90.5
s-59.167 -34.5 -102.5 -34.5c-26 0 -46.667 2.83301 -62 8.5s-29 12.5 -41 20.5l28 81c8 -4.66699 16.667 -8.83398 26 -12.501s20.666 -5.5 33.999 -5.5c17.333 0 31.333 5 42 15s16 24 16 42c0 15.333 -7 29 -21 41s-39 23.667 -75 35z" />
    <glyph glyph-name="scedilla" unicode="&#x15f;" horiz-adv-x="534" 
d="M271 -10c-50 0 -96.5039 8.16699 -139.504 24.5s-78.5 39.833 -106.5 70.5l80 94c16.667 -21.333 38.834 -39.166 66.501 -53.499s58.5 -21.5 92.5 -21.5c20.667 0 37.667 3 51 9s20 15.333 20 28c0 9.33301 -3.33301 16.833 -10 22.5s-20 10.5 -40 14.5l-70 14
c-62.667 12.667 -107.167 31.5 -133.5 56.5s-39.5 57.833 -39.5 98.5c0 27.333 8.33301 53.5 25 78.5s42.334 45.333 77.001 61s79 23.5 133 23.5c50.667 0 95.334 -7.33301 134.001 -22s69.334 -36 92.001 -64l-81 -92c-16 20 -36.667 35.667 -62 47s-50.666 17 -75.999 17
c-16 0 -29.5 -1.5 -40.5 -4.5s-19.167 -7.16699 -24.5 -12.5s-8 -12 -8 -20c0 -8.66699 4.16699 -16.167 12.5 -22.5s23.833 -11.833 46.5 -16.5l91 -18c51.333 -9.33301 88.333 -26.333 111 -51s34 -54.334 34 -89.001c0 -32.667 -8.66699 -62 -26 -88
s-43.333 -46.5 -78 -61.5s-78.334 -22.5 -131.001 -22.5zM195.996 10l41.001 27.001c52 -7.33301 90.333 -21.5 115 -42.5s37 -49.167 37 -84.5c0 -37.333 -12.5 -67.5 -37.5 -90.5s-59.167 -34.5 -102.5 -34.5c-26 0 -46.667 2.83301 -62 8.5s-29 12.5 -41 20.5l28 81
c8 -4.66699 16.667 -8.83398 26 -12.501s20.666 -5.5 33.999 -5.5c17.333 0 31.333 5 42 15s16 24 16 42c0 15.333 -7 29 -21 41s-39 23.667 -75 35z" />
    <glyph glyph-name="Scaron" unicode="&#x160;" horiz-adv-x="645" 
d="M331 670c61.333 0 115.499 -9.50098 162.499 -28.501s87.833 -46.833 122.5 -83.5l-83 -111c-28.667 30 -59.5 52.5 -92.5 67.5s-70.5 22.5 -112.5 22.5c-24.667 0 -44.667 -2.66699 -60 -8s-26.333 -12.666 -33 -21.999s-10 -20 -10 -32c0 -14 6.5 -25.833 19.5 -35.5
s34.167 -17.834 63.5 -24.501l111 -25c66 -15.333 114.333 -37.666 145 -66.999s46 -68.333 46 -117c0 -46.667 -12 -86.167 -36 -118.5s-57 -56.666 -99 -72.999s-90 -24.5 -144 -24.5c-44 0 -86 4.83301 -126 14.5s-76 23.5 -108 41.5s-59 38.667 -81 62l83 115
c16.667 -19.333 37.167 -36.5 61.5 -51.5s51 -26.833 80 -35.5s58.5 -13 88.5 -13c23.333 0 42.833 2.33301 58.5 7s27.167 11.667 34.5 21s11 20.333 11 33c0 14 -5 25.833 -15 35.5s-29 17.834 -57 24.501l-122 27c-37.333 8.66699 -70.5 20.167 -99.5 34.5
s-51.833 33.666 -68.5 57.999s-25 54.833 -25 91.5c0 41.333 11.333 78.166 34 110.499s55.334 57.833 98.001 76.5s93.667 28 153 28zM511.999 885.999l-100 -163h-166l-100 163h118l65 -92l65 92h118z" />
    <glyph glyph-name="scaron" unicode="&#x161;" horiz-adv-x="534" 
d="M271 -10c-50 0 -96.5039 8.16699 -139.504 24.5s-78.5 39.833 -106.5 70.5l80 94c16.667 -21.333 38.834 -39.166 66.501 -53.499s58.5 -21.5 92.5 -21.5c20.667 0 37.667 3 51 9s20 15.333 20 28c0 9.33301 -3.33301 16.833 -10 22.5s-20 10.5 -40 14.5l-70 14
c-62.667 12.667 -107.167 31.5 -133.5 56.5s-39.5 57.833 -39.5 98.5c0 27.333 8.33301 53.5 25 78.5s42.334 45.333 77.001 61s79 23.5 133 23.5c50.667 0 95.334 -7.33301 134.001 -22s69.334 -36 92.001 -64l-81 -92c-16 20 -36.667 35.667 -62 47s-50.666 17 -75.999 17
c-16 0 -29.5 -1.5 -40.5 -4.5s-19.167 -7.16699 -24.5 -12.5s-8 -12 -8 -20c0 -8.66699 4.16699 -16.167 12.5 -22.5s23.833 -11.833 46.5 -16.5l91 -18c51.333 -9.33301 88.333 -26.333 111 -51s34 -54.334 34 -89.001c0 -32.667 -8.66699 -62 -26 -88
s-43.333 -46.5 -78 -61.5s-78.334 -22.5 -131.001 -22.5zM461.996 738l-109 -173h-165l-109 173h123l68 -89l69 89h123z" />
    <glyph glyph-name="uni0162" unicode="&#x162;" horiz-adv-x="653" 
d="M258 8l35 29c52 -7.33301 90.333 -21.5 115 -42.5s37 -49.167 37 -84.5c0 -37.333 -12.5 -67.5 -37.5 -90.5s-59.167 -34.5 -102.5 -34.5c-26 0 -46.667 2.83301 -62 8.5s-29 12.5 -41 20.5l28 81c8 -4.66699 16.667 -8.83398 26 -12.501s20.666 -5.5 33.999 -5.5
c17.333 0 31.333 5 42 15s16 24 16 42c0 15.333 -6.66699 28.833 -20 40.5s-36.666 22.834 -69.999 33.501zM628 660v-133h-215v-527h-172v527h-216v133h603z" />
    <glyph glyph-name="uni0163" unicode="&#x163;" horiz-adv-x="437" 
d="M270 659l-0.000976562 -481c0 -24 5.83301 -41.167 17.5 -51.5s27.834 -15.5 48.501 -15.5c16 0 29.833 1.83301 41.5 5.5s22.167 9.16699 31.5 16.5l18 -105c-16.667 -12 -37.667 -21.333 -63 -28s-51.333 -10 -78 -10c-38 0 -70.833 5.33301 -98.5 16
s-49 27.667 -64 51s-22.833 54.333 -23.5 93v462zM418.999 500v-121h-405v121h405zM179.999 10l41.001 27.001c52 -7.33301 90.333 -21.5 115 -42.5s37 -49.167 37 -84.5c0 -37.333 -12.5 -67.5 -37.5 -90.5s-59.167 -34.5 -102.5 -34.5c-26 0 -46.667 2.83301 -62 8.5
s-29 12.5 -41 20.5l28 81c8 -4.66699 16.667 -8.83398 26 -12.501s20.666 -5.5 33.999 -5.5c17.333 0 31.333 5 42 15s16 24 16 42c0 15.333 -7 29 -21 41s-39 23.667 -75 35z" />
    <glyph glyph-name="Tcaron" unicode="&#x164;" horiz-adv-x="653" 
d="M628 660v-133h-215v-527h-172v527h-216v133h603zM510 886l-100 -163h-166l-100 163h118l65 -92l65 92h118z" />
    <glyph glyph-name="tcaron" unicode="&#x165;" horiz-adv-x="437" 
d="M468 767l-53 -215h-98l21 215h130zM270 659l-0.000976562 -481c0 -24 5.83301 -41.167 17.5 -51.5s27.834 -15.5 48.501 -15.5c16 0 29.833 1.83301 41.5 5.5s22.167 9.16699 31.5 16.5l18 -105c-16.667 -12 -37.667 -21.333 -63 -28s-51.333 -10 -78 -10
c-38 0 -70.833 5.33301 -98.5 16s-49 27.667 -64 51s-22.833 54.333 -23.5 93v462zM418.999 500v-121h-405v121h405z" />
    <glyph glyph-name="Tbar" unicode="&#x166;" horiz-adv-x="653" 
d="M628 660v-133h-215v-527h-172v527h-216v133h603zM562 368v-133h-470v133h470z" />
    <glyph glyph-name="tbar" unicode="&#x167;" horiz-adv-x="438" 
d="M420 322v-97h-406v97h406zM272 659l0.00195312 -481c0 -24 5.66699 -41.167 17 -51.5s27.666 -15.5 48.999 -15.5c15.333 0 28.833 1.83301 40.5 5.5s22.5 9.16699 32.5 16.5l17 -105c-16 -12 -36.833 -21.333 -62.5 -28s-51.5 -10 -77.5 -10
c-38.667 0 -71.834 5.33301 -99.501 16s-49 27.667 -64 51s-22.5 54.333 -22.5 93v462zM420.002 500v-121h-405v121h405z" />
    <glyph glyph-name="Utilde" unicode="&#x168;" horiz-adv-x="710" 
d="M650 660l0.000976562 -391c0 -93.333 -24.833 -163.166 -74.5 -209.499s-123.167 -69.5 -220.5 -69.5c-96.667 0 -170 23.167 -220 69.5s-75 116.166 -75 209.499v391h173v-394c0 -47.333 10.167 -82.666 30.5 -105.999s50.833 -35 91.5 -35
c41.333 0 72.166 11.667 92.499 35s30.5 58.666 30.5 105.999v394h172zM553.001 868c-1.33301 -35.333 -7.49707 -64.8311 -18.4971 -88.498s-25.667 -41.334 -44 -53.001s-38.5 -17.5 -60.5 -17.5c-18.667 0 -34.834 2.83301 -48.501 8.5s-25.5 12.334 -35.5 20.001
s-19.333 14.334 -28 20.001s-18 8.5 -28 8.5c-11.333 0 -20 -4.66699 -26 -14s-10 -23.333 -12 -42h-96c2 53.333 15 93.166 39 119.499s54.667 39.5 92 39.5c18 0 33.333 -2.83301 46 -8.5s23.667 -12.334 33 -20.001s18.166 -14.334 26.499 -20.001
s17.166 -8.5 26.499 -8.5c12 0 20.833 4.66699 26.5 14s9.5 23.333 11.5 42h96z" />
    <glyph glyph-name="utilde" unicode="&#x169;" horiz-adv-x="619" 
d="M230 -10c-34 0 -63.8311 5.83398 -89.498 17.501s-45.834 30.5 -60.501 56.5s-22 60 -22 102v334h170v-294c0 -32 6.33301 -54.333 19 -67s30.667 -19 54 -19c12 0 23.333 2.16699 34 6.5s20 11 28 20s14.167 20.667 18.5 35s6.5 31.166 6.5 50.499v268h170v-500h-152
l-5 94c-16 -35.333 -38.333 -61.5 -67 -78.5s-63.334 -25.5 -104.001 -25.5zM503.002 714.001c-1.33301 -35.333 -7.49707 -64.8311 -18.4971 -88.498s-25.667 -41.334 -44 -53.001s-38.5 -17.5 -60.5 -17.5c-18.667 0 -34.834 2.83301 -48.501 8.5
s-25.5 12.334 -35.5 20.001s-19.333 14.334 -28 20.001s-18 8.5 -28 8.5c-11.333 0 -20 -4.66699 -26 -14s-10 -23.333 -12 -42h-96c2 53.333 15 93.166 39 119.499s54.667 39.5 92 39.5c18 0 33.333 -2.83301 46 -8.5s23.667 -12.334 33 -20.001
s18.166 -14.334 26.499 -20.001s17.166 -8.5 26.499 -8.5c12 0 20.833 4.66699 26.5 14s9.5 23.333 11.5 42h96z" />
    <glyph glyph-name="Umacron" unicode="&#x16a;" horiz-adv-x="710" 
d="M650 660l0.000976562 -391c0 -93.333 -24.833 -163.166 -74.5 -209.499s-123.167 -69.5 -220.5 -69.5c-96.667 0 -170 23.167 -220 69.5s-75 116.166 -75 209.499v391h173v-394c0 -47.333 10.167 -82.666 30.5 -105.999s50.833 -35 91.5 -35
c41.333 0 72.166 11.667 92.499 35s30.5 58.666 30.5 105.999v394h172zM537.001 824v-105h-364v105h364z" />
    <glyph glyph-name="umacron" unicode="&#x16b;" horiz-adv-x="619" 
d="M230 -10c-34 0 -63.8311 5.83398 -89.498 17.501s-45.834 30.5 -60.501 56.5s-22 60 -22 102v334h170v-294c0 -32 6.33301 -54.333 19 -67s30.667 -19 54 -19c12 0 23.333 2.16699 34 6.5s20 11 28 20s14.167 20.667 18.5 35s6.5 31.166 6.5 50.499v268h170v-500h-152
l-5 94c-16 -35.333 -38.333 -61.5 -67 -78.5s-63.334 -25.5 -104.001 -25.5zM487.002 670.001v-105h-364v105h364z" />
    <glyph glyph-name="Ubreve" unicode="&#x16c;" horiz-adv-x="710" 
d="M650 660l0.000976562 -391c0 -93.333 -24.833 -163.166 -74.5 -209.499s-123.167 -69.5 -220.5 -69.5c-96.667 0 -170 23.167 -220 69.5s-75 116.166 -75 209.499v391h173v-394c0 -47.333 10.167 -82.666 30.5 -105.999s50.833 -35 91.5 -35
c41.333 0 72.166 11.667 92.499 35s30.5 58.666 30.5 105.999v394h172zM524.001 868c0 -50.667 -15.168 -90.5 -45.501 -119.5s-71.5 -43.5 -123.5 -43.5c-51.333 0 -92.333 14.5 -123 43.5s-46 68.833 -46 119.5h109c0.666992 -20 6 -36.333 16 -49s24.667 -19 44 -19
c20 0 34.833 6.33301 44.5 19s14.834 29 15.501 49h109z" />
    <glyph glyph-name="ubreve" unicode="&#x16d;" horiz-adv-x="619" 
d="M230 -10c-34 0 -63.8311 5.83398 -89.498 17.501s-45.834 30.5 -60.501 56.5s-22 60 -22 102v334h170v-294c0 -32 6.33301 -54.333 19 -67s30.667 -19 54 -19c12 0 23.333 2.16699 34 6.5s20 11 28 20s14.167 20.667 18.5 35s6.5 31.166 6.5 50.499v268h170v-500h-152
l-5 94c-16 -35.333 -38.333 -61.5 -67 -78.5s-63.334 -25.5 -104.001 -25.5zM474.002 714.001c0 -50.667 -15.168 -90.5 -45.501 -119.5s-71.5 -43.5 -123.5 -43.5c-51.333 0 -92.333 14.5 -123 43.5s-46 68.833 -46 119.5h109c0.666992 -20 6 -36.333 16 -49
s24.667 -19 44 -19c20 0 34.833 6.33301 44.5 19s14.834 29 15.501 49h109z" />
    <glyph glyph-name="Uring" unicode="&#x16e;" horiz-adv-x="710" 
d="M650 660l0.000976562 -391c0 -93.333 -24.833 -163.166 -74.5 -209.499s-123.167 -69.5 -220.5 -69.5c-96.667 0 -170 23.167 -220 69.5s-75 116.166 -75 209.499v391h173v-394c0 -47.333 10.167 -82.666 30.5 -105.999s50.833 -35 91.5 -35
c41.333 0 72.166 11.667 92.499 35s30.5 58.666 30.5 105.999v394h172zM354.001 937c42 0 75.667 -11.333 101 -34s38 -53 38 -91c0 -38.667 -12.667 -69.334 -38 -92.001s-59 -34 -101 -34s-75.833 11.333 -101.5 34s-38.5 53.334 -38.5 92.001c0 38 12.833 68.333 38.5 91
s59.5 34 101.5 34zM354.001 864c-16 0 -29 -4.66699 -39 -14s-15 -22 -15 -38s5 -28.833 15 -38.5s23 -14.5 39 -14.5s28.833 4.83301 38.5 14.5s14.5 22.5 14.5 38.5s-4.83301 28.667 -14.5 38s-22.5 14 -38.5 14z" />
    <glyph glyph-name="uring" unicode="&#x16f;" horiz-adv-x="619" 
d="M230 -10c-34 0 -63.8311 5.83398 -89.498 17.501s-45.834 30.5 -60.501 56.5s-22 60 -22 102v334h170v-294c0 -32 6.33301 -54.333 19 -67s30.667 -19 54 -19c12 0 23.333 2.16699 34 6.5s20 11 28 20s14.167 20.667 18.5 35s6.5 31.166 6.5 50.499v268h170v-500h-152
l-5 94c-16 -35.333 -38.333 -61.5 -67 -78.5s-63.334 -25.5 -104.001 -25.5zM304.002 798.001c42 0 75.667 -11.333 101 -34s38 -53 38 -91c0 -38.667 -12.667 -69.334 -38 -92.001s-59 -34 -101 -34s-75.833 11.333 -101.5 34s-38.5 53.334 -38.5 92.001
c0 38 12.833 68.333 38.5 91s59.5 34 101.5 34zM304.002 725.001c-16 0 -29 -4.66699 -39 -14s-15 -22 -15 -38s5 -28.833 15 -38.5s23 -14.5 39 -14.5s28.833 4.83301 38.5 14.5s14.5 22.5 14.5 38.5s-4.83301 28.667 -14.5 38s-22.5 14 -38.5 14z" />
    <glyph glyph-name="Uhungarumlaut" unicode="&#x170;" horiz-adv-x="710" 
d="M650 660l0.000976562 -391c0 -93.333 -24.833 -163.166 -74.5 -209.499s-123.167 -69.5 -220.5 -69.5c-96.667 0 -170 23.167 -220 69.5s-75 116.166 -75 209.499v391h173v-394c0 -47.333 10.167 -82.666 30.5 -105.999s50.833 -35 91.5 -35
c41.333 0 72.166 11.667 92.499 35s30.5 58.666 30.5 105.999v394h172zM461.001 876h152l-89 -163h-124zM237.001 876h152l-89 -163h-124z" />
    <glyph glyph-name="uhungarumlaut" unicode="&#x171;" horiz-adv-x="619" 
d="M230 -10c-34 0 -63.8311 5.83398 -89.498 17.501s-45.834 30.5 -60.501 56.5s-22 60 -22 102v334h170v-294c0 -32 6.33301 -54.333 19 -67s30.667 -19 54 -19c12 0 23.333 2.16699 34 6.5s20 11 28 20s14.167 20.667 18.5 35s6.5 31.166 6.5 50.499v268h170v-500h-152
l-5 94c-16 -35.333 -38.333 -61.5 -67 -78.5s-63.334 -25.5 -104.001 -25.5zM339.002 561.001l69 173h144l-95 -173h-118zM127.002 561.001l69 173h144l-95 -173h-118z" />
    <glyph glyph-name="Uogonek" unicode="&#x172;" horiz-adv-x="710" 
d="M650 660l0.000976562 -391c0 -93.333 -24.833 -163.166 -74.5 -209.499s-123.167 -69.5 -220.5 -69.5c-96.667 0 -170 23.167 -220 69.5s-75 116.166 -75 209.499v391h173v-394c0 -47.333 10.167 -82.666 30.5 -105.999s50.833 -35 91.5 -35
c41.333 0 72.166 11.667 92.499 35s30.5 58.666 30.5 105.999v394h172zM399.001 -218c-42 0 -74.8369 10.002 -98.5039 30.002s-35.5 47 -35.5 81c0 39.333 13.833 70 41.5 92s65.834 37.333 114.501 46l67 -22c-27.333 -8.66699 -49.166 -17.334 -65.499 -26.001
s-28.166 -17.834 -35.499 -27.501s-11 -20.834 -11 -33.501c0 -14 4.83301 -24.833 14.5 -32.5s22.834 -11.5 39.501 -11.5c8.66699 0 17 0.833008 25 2.5s15 3.83398 21 6.50098l17 -85c-12.667 -7.33301 -26.5 -12.5 -41.5 -15.5s-32.5 -4.5 -52.5 -4.5z" />
    <glyph glyph-name="uogonek" unicode="&#x173;" horiz-adv-x="619" 
d="M471 -227c-24.667 0 -48.001 3.99609 -70.001 11.9961s-39.667 20.5 -53 37.5s-20 39.5 -20 67.5c0 30.667 7.16699 55.834 21.5 75.501s34 35.334 59 47.001s52.833 20.834 83.5 27.501l66 -40c-35.333 -14 -61.5 -27.667 -78.5 -41s-25.5 -29 -25.5 -47
c0 -13.333 4.5 -24 13.5 -32s21.833 -12 38.5 -12c7.33301 0 15.166 0.833008 23.499 2.5s14.833 3.83398 19.5 6.50098l23 -82c-13.333 -8 -28.166 -13.667 -44.499 -17s-35.166 -5 -56.499 -5zM229.999 -10.0039c-34 0 -63.8311 5.83398 -89.498 17.501
s-45.834 30.5 -60.501 56.5s-22 60 -22 102v334h170v-294c0 -32 6.33301 -54.333 19 -67s30.667 -19 54 -19c12 0 23.333 2.16699 34 6.5s20 11 28 20s14.167 20.667 18.5 35s6.5 31.166 6.5 50.499v268h170v-500h-152l-5 94c-16 -35.333 -38.333 -61.5 -67 -78.5
s-63.334 -25.5 -104.001 -25.5z" />
    <glyph glyph-name="Wcircumflex" unicode="&#x174;" horiz-adv-x="997" 
d="M200 0l-190 660h183l112 -521l118 521h156l121 -520l110 520h177l-191 -660h-187l-78 320l-30 161h-2l-29 -161l-77 -320h-193zM681 723h-118l-65 92l-65 -92h-118l100 163h166z" />
    <glyph glyph-name="wcircumflex" unicode="&#x175;" horiz-adv-x="900" 
d="M716 500h178l-151 -500h-204l-91 307l-88 -307h-203l-152 500h179l84 -369l98 369h168l97 -369zM641 559h-122l-69 88l-69 -88h-122l109 173h164z" />
    <glyph glyph-name="Ycircumflex" unicode="&#x176;" horiz-adv-x="657" 
d="M647 660l-233 -419v-241h-172v241l-233 419h178l93 -181l49 -110l50 110l93 181h175zM511 715h-118l-65 92l-65 -92h-118l100 163h166z" />
    <glyph glyph-name="ycircumflex" unicode="&#x177;" horiz-adv-x="563" 
d="M564 500l-181.999 -500c-18.667 -52.667 -39 -94.667 -61 -126s-48 -54 -78 -68s-66 -21 -108 -21c-28 0 -53.667 3 -77 9s-43.666 14.333 -60.999 25l34 115c12 -8.66699 24.667 -14.834 38 -18.501s30.333 -5.5 51 -5.5c19.333 0 35.166 3.33301 47.499 10
s22.166 19.334 29.499 38.001l13 31l-58 136l-150 375h187l77 -285l24 -106l28 110l77 281h169zM488.001 555h-122l-69 88l-69 -88h-122l109 173h164z" />
    <glyph glyph-name="Ydieresis" unicode="&#x178;" horiz-adv-x="657" 
d="M647 660l-233 -419v-241h-172v241l-233 419h178l93 -181l49 -110l50 110l93 181h175zM217 862c27.333 0 48.5 -6.66699 63.5 -20s22.5 -32.333 22.5 -57c0 -24 -7.5 -42.833 -22.5 -56.5s-36.167 -20.5 -63.5 -20.5c-26 0 -46.5 6.83301 -61.5 20.5
s-22.5 32.5 -22.5 56.5c0 24.667 7.5 43.667 22.5 57s35.5 20 61.5 20zM437 862c26.667 0 47.667 -6.66699 63 -20s23 -32.333 23 -57c0 -24 -7.66699 -42.833 -23 -56.5s-36.333 -20.5 -63 -20.5c-26 0 -46.5 6.83301 -61.5 20.5s-22.5 32.5 -22.5 56.5
c0 24.667 7.5 43.667 22.5 57s35.5 20 61.5 20z" />
    <glyph glyph-name="Zacute" unicode="&#x179;" horiz-adv-x="634" 
d="M172 72l-30 58h461v-130h-566v124l421 464l30 -58h-444v130h547v-124zM309 886h152l-89 -163h-124z" />
    <glyph glyph-name="zacute" unicode="&#x17a;" horiz-adv-x="516" 
d="M35 0v104l199 226l53 53l-79 -2h-171v119h438v-104l-196 -224l-55 -55l88 2h172v-119h-449zM241 738h158l-101 -173h-124z" />
    <glyph glyph-name="Zdotaccent" unicode="&#x17b;" horiz-adv-x="634" 
d="M172 72l-30 58h461v-130h-566v124l421 464l30 -58h-444v130h547v-124zM320 882c30.667 0 53.834 -6.83301 69.501 -20.5s23.5 -33.5 23.5 -59.5s-7.83301 -46 -23.5 -60s-38.834 -21 -69.501 -21c-29.333 0 -51.833 7 -67.5 21s-23.5 34 -23.5 60
s7.83301 45.833 23.5 59.5s38.167 20.5 67.5 20.5z" />
    <glyph glyph-name="zdotaccent" unicode="&#x17c;" horiz-adv-x="516" 
d="M35 0v104l199 226l53 53l-79 -2h-171v119h438v-104l-196 -224l-55 -55l88 2h172v-119h-449zM251 722c30.667 0 53.834 -6.83301 69.501 -20.5s23.5 -33.5 23.5 -59.5s-7.83301 -46 -23.5 -60s-38.834 -21 -69.501 -21c-29.333 0 -51.833 7 -67.5 21s-23.5 34 -23.5 60
s7.83301 45.833 23.5 59.5s38.167 20.5 67.5 20.5z" />
    <glyph glyph-name="Zcaron" unicode="&#x17d;" horiz-adv-x="634" 
d="M172 72l-30 58h461v-130h-566v124l421 464l30 -58h-444v130h547v-124zM503 886l-100 -163h-166l-100 163h118l65 -92l65 92h118z" />
    <glyph glyph-name="zcaron" unicode="&#x17e;" horiz-adv-x="516" 
d="M35 0v104l199 226l53 53l-79 -2h-171v119h438v-104l-196 -224l-55 -55l88 2h172v-119h-449zM439 738l-109 -173h-165l-109 173h123l68 -89l69 89h123z" />
    <glyph glyph-name="longs" unicode="&#x17f;" horiz-adv-x="325" 
d="M59 0l-0.00292969 545.999c0 42 8.33301 76.333 25 103s39.5 46.167 68.5 58.5s61.5 18.5 97.5 18.5c22.667 0 41.834 -2 57.501 -6s28.834 -10.333 39.501 -19l-10 -106c-6.66699 4.66699 -13.167 7.83398 -19.5 9.50098s-14.166 2.5 -23.499 2.5
c-20.667 0 -37.5 -5.83301 -50.5 -17.5s-19.5 -30.5 -19.5 -56.5v-533h-165z" />
    <glyph glyph-name="uni018E" unicode="&#x18e;" horiz-adv-x="631" 
d="M558 0h-528v133h356v135h-272v125h272v134h-342v133h514v-660z" />
    <glyph glyph-name="uni018F" unicode="&#x18f;" horiz-adv-x="708" 
d="M340 -10c-64 0 -118.667 13.165 -164 39.498s-79.666 63 -102.999 110s-35 100.833 -35 161.5c0 9.33301 0.333008 18.833 1 28.5l2 29.5h524v-101h-442l88 55c-0.666992 -6 -1.16699 -11.833 -1.5 -17.5s-0.5 -11.5 -0.5 -17.5c0 -34 6 -62.333 18 -85
s28.333 -39.667 49 -51s44 -17 70 -17c32.667 0 59.5 7.83301 80.5 23.5s36.833 39.334 47.5 71.001s16 71.834 16 120.501c0 42 -5.83301 77.667 -17.5 107s-28.334 51.333 -50.001 66s-48.5 22 -80.5 22c-38 0 -67.833 -9 -89.5 -27s-37.167 -44 -46.5 -78l-161 35
c14 46.667 35.333 85 64 115s63 52.5 103 67.5s83.667 22.5 131 22.5c66.667 0 124 -13.5 172 -40.5s84.667 -65.833 110 -116.5s38 -111.667 38 -183s-13.167 -132.333 -39.5 -183s-63.5 -89.5 -111.5 -116.5s-105.333 -40.5 -172 -40.5z" />
    <glyph glyph-name="florin" unicode="&#x192;" horiz-adv-x="516" 
d="M413 727c25.333 0 45.5 -1.83203 60.5 -5.49902s30.833 -10.834 47.5 -21.501l-22 -107c-16 10.667 -34.333 16 -55 16c-22 0 -40.167 -6.5 -54.5 -19.5s-23.833 -32.167 -28.5 -57.5l-82 -485c-10 -56.667 -31.667 -100 -65 -130s-77.333 -45 -132 -45
c-24.667 0 -44.667 2 -60 6s-31.333 11 -48 21l22 107c15.333 -10.667 34 -16 56 -16s40.167 6.66699 54.5 20s23.5 32 27.5 56l83 486c10 56.667 31.667 100 65 130s77 45 131 45zM477 417.001v-118h-439v118h439z" />
    <glyph glyph-name="Ohorn" unicode="&#x1a0;" horiz-adv-x="737" 
d="M675 766c0 -64 -17.667 -113.667 -53 -149s-88 -53 -158 -53l-8 96c36.667 0 62.667 8.5 78 25.5s23 43.833 23 80.5h118zM369 670c66.667 0 124.167 -13.5 172.5 -40.5s85.5 -65.833 111.5 -116.5s39 -111.667 39 -183s-13 -132.333 -39 -183
s-63.167 -89.5 -111.5 -116.5s-105.833 -40.5 -172.5 -40.5s-124.334 13.5 -173.001 40.5s-86 65.833 -112 116.5s-39 111.667 -39 183s13 132.333 39 183s63.333 89.5 112 116.5s106.334 40.5 173.001 40.5zM369 535c-32 0 -59 -7.66699 -81 -23
s-38.667 -38.166 -50 -68.499s-17 -68.166 -17 -113.499c0 -44.667 5.66699 -82.334 17 -113.001s28 -53.667 50 -69s49 -23 81 -23s58.833 7.66699 80.5 23s38.167 38.333 49.5 69s17 68.334 17 113.001c0 45.333 -5.66699 83.166 -17 113.499s-27.833 53.166 -49.5 68.499
s-48.5 23 -80.5 23z" />
    <glyph glyph-name="ohorn" unicode="&#x1a1;" horiz-adv-x="599" 
d="M299 510c52.667 0 98.834 -10.167 138.501 -30.5s70.667 -50 93 -89s33.5 -85.833 33.5 -140.5s-11.167 -101.5 -33.5 -140.5s-53.333 -68.667 -93 -89s-85.834 -30.5 -138.501 -30.5c-51.333 0 -97 10.167 -137 30.5s-71.167 50 -93.5 89s-33.5 85.833 -33.5 140.5
s11.167 101.5 33.5 140.5s53.5 68.667 93.5 89s85.667 30.5 137 30.5zM299 389c-19.333 0 -36 -4.66699 -50 -14s-24.667 -24.333 -32 -45s-11 -47.334 -11 -80.001s3.66699 -59.167 11 -79.5s18 -35.333 32 -45s30.667 -14.5 50 -14.5c20 0 37 4.83301 51 14.5
s24.667 24.667 32 45s11 46.833 11 79.5s-3.66699 59.334 -11 80.001s-18 35.667 -32 45s-31 14 -51 14zM382 410l-0.000976562 90c20.667 0 37 8.5 49 25.5s18 45.167 18 84.5h116c0 -68.667 -16.167 -119.167 -48.5 -151.5s-77.166 -48.5 -134.499 -48.5z" />
    <glyph glyph-name="Uhorn" unicode="&#x1af;" horiz-adv-x="710" 
d="M650 660l0.000976562 -391c0 -93.333 -24.833 -163.166 -74.5 -209.499s-123.167 -69.5 -220.5 -69.5c-96.667 0 -170 23.167 -220 69.5s-75 116.166 -75 209.499v391h173v-394c0 -47.333 10.167 -82.666 30.5 -105.999s50.833 -35 91.5 -35
c41.333 0 72.166 11.667 92.499 35s30.5 58.666 30.5 105.999v394h172zM763.001 766c0 -64 -17 -113.667 -51 -149s-84 -53 -150 -53l-8 96c32.667 0 56 8.5 70 25.5s21 43.833 21 80.5h118z" />
    <glyph glyph-name="uhorn" unicode="&#x1b0;" horiz-adv-x="631" 
d="M230 -10c-34 0 -63.8311 5.83398 -89.498 17.501s-45.834 30.5 -60.501 56.5s-22 60 -22 102v334h170v-294c0 -32 6.33301 -54.333 19 -67s30.667 -19 54 -19c12 0 23.333 2.16699 34 6.5s20 11 28 20s14.167 20.667 18.5 35s6.5 31.166 6.5 50.499v268h170v-500h-152
l-5 94c-16 -35.333 -38.333 -61.5 -67 -78.5s-63.334 -25.5 -104.001 -25.5zM483.002 410.001l-0.000976562 90c20.667 0 37 8.5 49 25.5s18 45.167 18 84.5h116c0 -68.667 -16.167 -119.167 -48.5 -151.5s-77.166 -48.5 -134.499 -48.5z" />
    <glyph glyph-name="uni01C4" unicode="&#x1c4;" horiz-adv-x="1347" 
d="M353 660c103.333 0 182.5 -28.6689 237.5 -86.002s82.5 -138.666 82.5 -243.999s-27.5 -186.666 -82.5 -243.999s-134.167 -86 -237.5 -86h-280v660h280zM336 129.998c56 0 96.833 16.833 122.5 50.5s38.5 83.5 38.5 149.5s-12.833 115.833 -38.5 149.5
s-66.5 50.5 -122.5 50.5h-91v-400h91zM885 71.998l-30 58h461v-130h-566v124l421 464l30 -58h-444v130h547v-124zM1216 885.998l-100 -163h-166l-100 163h118l65 -92l65 92h118z" />
    <glyph glyph-name="uni01C5" unicode="&#x1c5;" horiz-adv-x="1232" 
d="M353 660c103.333 0 182.5 -28.6689 237.5 -86.002s82.5 -138.666 82.5 -243.999s-27.5 -186.666 -82.5 -243.999s-134.167 -86 -237.5 -86h-280v660h280zM336 129.998c56 0 96.833 16.833 122.5 50.5s38.5 83.5 38.5 149.5s-12.833 115.833 -38.5 149.5
s-66.5 50.5 -122.5 50.5h-91v-400h91zM751 -0.00195312v104l199 226l53 53l-79 -2h-171v119h438v-104l-196 -224l-55 -55l88 2h172v-119h-449zM1155 737.998l-109 -173h-165l-109 173h123l68 -89l69 89h123z" />
    <glyph glyph-name="uni01C6" unicode="&#x1c6;" horiz-adv-x="1143" 
d="M245 -10c-41.333 0 -77.501 10.168 -108.501 30.501s-55 49.833 -72 88.5s-25.5 85 -25.5 139c0 56 8.83301 103.333 26.5 142s42.334 68.334 74.001 89.001s68.167 31 109.5 31c45.333 0 81.833 -13.833 109.5 -41.5s45.5 -62.834 53.5 -105.501l-16 -21v370h170v-712
h-152l-11 170l20 -15c-4 -33.333 -14.167 -62.333 -30.5 -87s-37 -43.834 -62 -57.501s-53.5 -20.5 -85.5 -20.5zM303.999 115.001c19.333 0 35.833 5.16895 49.5 15.502s24.167 25.833 31.5 46.5s11 46 11 76c0 28 -3.5 51.833 -10.5 71.5s-17.333 34.667 -31 45
s-30.167 15.5 -49.5 15.5c-29.333 0 -52.5 -10.833 -69.5 -32.5s-25.5 -55.834 -25.5 -102.501s8.33301 -80.834 25 -102.501s39.667 -32.5 69 -32.5zM661.999 0.00292969v104l199 226l53 53l-79 -2h-171v119h438v-104l-196 -224l-55 -55l88 2h172v-119h-449zM1066 738.003
l-109 -173h-165l-109 173h123l68 -89l69 89h123z" />
    <glyph glyph-name="uni01C7" unicode="&#x1c7;" horiz-adv-x="1220" 
d="M245 133h331v-133h-503v660h172v-527zM1159 660l-0.000976562 -406.001c0 -83.333 -24 -148.166 -72 -194.499s-116 -69.5 -204 -69.5c-64.667 0 -116.667 11.5 -156 34.5s-66.333 55 -81 96s-17.667 87.833 -9 140.5l168 30c-8 -60.667 -5.16699 -103.5 8.5 -128.5
s38.834 -37.5 75.501 -37.5c36 0 61.333 12 76 36s22 61 22 111v388h172z" />
    <glyph glyph-name="uni01C8" unicode="&#x1c8;" horiz-adv-x="893" 
d="M245 133h331v-133h-503v660h172v-527zM748 558c-34.667 0 -59.834 6.5 -75.501 19.5s-23.5 33.5 -23.5 61.5c0 28.667 7.83301 49.5 23.5 62.5s40.834 19.5 75.501 19.5c34 0 59 -6.5 75 -19.5s24 -33.833 24 -62.5c0 -28 -8 -48.5 -24 -61.5s-41 -19.5 -75 -19.5z
M833 500l0.00195312 -528.002c0 -45.333 -7.83301 -81.666 -23.5 -108.999s-37.834 -47.166 -66.501 -59.499s-63.334 -18.5 -104.001 -18.5c-26.667 0 -51 2.83301 -73 8.5s-41.333 13.5 -58 23.5l24 110c7.33301 -5.33301 16.333 -9.83301 27 -13.5s23 -5.5 37 -5.5
c20 0 36.167 5.83301 48.5 17.5s18.5 32.167 18.5 61.5v513h170z" />
    <glyph glyph-name="uni01C9" unicode="&#x1c9;" horiz-adv-x="618" 
d="M229 712l0.000976562 -542c0 -22 3.66699 -37.667 11 -47s19.666 -14 36.999 -14c10 0 18.333 0.666992 25 2s14.667 3.33301 24 6l-11 -102c-12 -7.33301 -27.667 -13.333 -47 -18s-38.333 -7 -57 -7c-53.333 0 -92 12.333 -116 37s-36 65 -36 121v564h170zM473.001 558
c-34.667 0 -59.834 6.5 -75.501 19.5s-23.5 33.5 -23.5 61.5c0 28.667 7.83301 49.5 23.5 62.5s40.834 19.5 75.501 19.5c34 0 59 -6.5 75 -19.5s24 -33.833 24 -62.5c0 -28 -8 -48.5 -24 -61.5s-41 -19.5 -75 -19.5zM558.001 500l0.00195312 -528.002
c0 -45.333 -7.83301 -81.666 -23.5 -108.999s-37.834 -47.166 -66.501 -59.499s-63.334 -18.5 -104.001 -18.5c-26.667 0 -51 2.83301 -73 8.5s-41.333 13.5 -58 23.5l24 110c7.33301 -5.33301 16.333 -9.83301 27 -13.5s23 -5.5 37 -5.5c20 0 36.167 5.83301 48.5 17.5
s18.5 32.167 18.5 61.5v513h170z" />
    <glyph glyph-name="uni01CA" unicode="&#x1ca;" horiz-adv-x="1359" 
d="M668 660v-660h-191l-205 357l-50 98h-1l4 -122v-333h-152v660h191l205 -357l50 -98h1l-4 122v333h152zM1298 660l-0.000976562 -406.001c0 -83.333 -24 -148.166 -72 -194.499s-116 -69.5 -204 -69.5c-64.667 0 -116.667 11.5 -156 34.5s-66.333 55 -81 96
s-17.667 87.833 -9 140.5l168 30c-8 -60.667 -5.16699 -103.5 8.5 -128.5s38.834 -37.5 75.501 -37.5c36 0 61.333 12 76 36s22 61 22 111v388h172z" />
    <glyph glyph-name="uni01CB" unicode="&#x1cb;" horiz-adv-x="1032" 
d="M668 660v-660h-191l-205 357l-50 98h-1l4 -122v-333h-152v660h191l205 -357l50 -98h1l-4 122v333h152zM887 558c-34.667 0 -59.834 6.5 -75.501 19.5s-23.5 33.5 -23.5 61.5c0 28.667 7.83301 49.5 23.5 62.5s40.834 19.5 75.501 19.5c34 0 59 -6.5 75 -19.5
s24 -33.833 24 -62.5c0 -28 -8 -48.5 -24 -61.5s-41 -19.5 -75 -19.5zM972 500l0.00195312 -528.002c0 -45.333 -7.83301 -81.666 -23.5 -108.999s-37.834 -47.166 -66.501 -59.499s-63.334 -18.5 -104.001 -18.5c-26.667 0 -51 2.83301 -73 8.5s-41.333 13.5 -58 23.5
l24 110c7.33301 -5.33301 16.333 -9.83301 27 -13.5s23 -5.5 37 -5.5c20 0 36.167 5.83301 48.5 17.5s18.5 32.167 18.5 61.5v513h170z" />
    <glyph glyph-name="uni01CC" unicode="&#x1cc;" horiz-adv-x="911" 
d="M61 0l-0.00195312 500.001h152l9 -172l-19 19c6.66699 36 18.5 66 35.5 90s38.333 42.167 64 54.5s54.5 18.5 86.5 18.5c34.667 0 64.834 -6.66699 90.501 -20s45.834 -33 60.501 -59s22 -58.667 22 -98v-333h-170v288c0 34.667 -6.66699 58.667 -20 72
s-30.333 20 -51 20c-16 0 -31 -3.83301 -45 -11.5s-25 -19.834 -33 -36.501s-12 -39 -12 -67v-265h-170zM765.998 558.001c-34.667 0 -59.834 6.5 -75.501 19.5s-23.5 33.5 -23.5 61.5c0 28.667 7.83301 49.5 23.5 62.5s40.834 19.5 75.501 19.5c34 0 59 -6.5 75 -19.5
s24 -33.833 24 -62.5c0 -28 -8 -48.5 -24 -61.5s-41 -19.5 -75 -19.5zM850.998 500.001l0.00195312 -528.002c0 -45.333 -7.83301 -81.666 -23.5 -108.999s-37.834 -47.166 -66.501 -59.499s-63.334 -18.5 -104.001 -18.5c-26.667 0 -51 2.83301 -73 8.5
s-41.333 13.5 -58 23.5l24 110c7.33301 -5.33301 16.333 -9.83301 27 -13.5s23 -5.5 37 -5.5c20 0 36.167 5.83301 48.5 17.5s18.5 32.167 18.5 61.5v513h170z" />
    <glyph glyph-name="uni01DD" unicode="&#x1dd;" 
d="M277 510c56 0 103.668 -10.168 143.001 -30.501s69.833 -50 91.5 -89s32.5 -85.833 32.5 -140.5s-11 -101.5 -33 -140.5s-52.5 -68.667 -91.5 -89s-84.167 -30.5 -135.5 -30.5c-52.667 0 -97.667 10.833 -135 32.5s-65.833 50.334 -85.5 86.001s-29.5 75.167 -29.5 118.5
c0 11.333 0.5 22.333 1.5 33l2.5 26h396v-80h-322l82 29c0 -26 3.33301 -48.5 10 -67.5s16.667 -33.5 30 -43.5s29.666 -15 48.999 -15c22 0 40.333 5 55 15s25.667 25.667 33 47s11 48.333 11 81c0 34 -4 61 -12 81s-19.833 34.5 -35.5 43.5s-35.167 13.5 -58.5 13.5
c-25.333 0 -45.833 -5.5 -61.5 -16.5s-27.5 -25.5 -35.5 -43.5l-137 45c12 26.667 29.5 50 52.5 70s50.167 35.833 81.5 47.5s65 17.5 101 17.5z" />
    <glyph glyph-name="Gcaron" unicode="&#x1e6;" horiz-adv-x="723" 
d="M346 -10c-58.667 0 -110.834 12.9971 -156.501 38.9971s-81.167 64.333 -106.5 115s-38 112.334 -38 185.001c0 71.333 13.333 132.333 40 183s64.834 89.667 114.501 117s108.167 41 175.5 41c74.667 0 135 -13.5 181 -40.5s81.667 -69.833 107 -128.5l-159 -63
c-8.66699 34 -24 58.667 -46 74s-49.333 23 -82 23s-60.667 -7.83301 -84 -23.5s-41 -38.667 -53 -69s-18 -67.833 -18 -112.5c0 -46.667 6.16699 -85.667 18.5 -117s30.666 -54.5 54.999 -69.5s54.5 -22.5 90.5 -22.5c19.333 0 37 2.33301 53 7s30 11.5 42 20.5
s21.333 20.333 28 34s10 29.834 10 48.501v10h-151v115h297v-356h-117l-13 155l28 -24c-14 -45.333 -39.167 -80.166 -75.5 -104.499s-83.166 -36.5 -140.499 -36.5zM551 885.997l-100 -163h-166l-100 163h118l65 -92l65 92h118z" />
    <glyph glyph-name="gcaron" unicode="&#x1e7;" horiz-adv-x="560" 
d="M545 634l13.999 -113.999c-4 1.33301 -8 2.16602 -12 2.49902s-8 0.5 -12 0.5c-29.333 0 -51.166 -7.16699 -65.499 -21.5s-21.5 -32.166 -21.5 -53.499l-60 22c0 27.333 5 53.666 15 78.999s25.5 46 46.5 62s47.5 24 79.5 24h7.5c3 0 5.83301 -0.333008 8.5 -1z
M372.999 111.001c58 0 102.499 -12.1699 133.499 -36.5029s46.5 -59.166 46.5 -104.499c0 -41.333 -11.333 -75.666 -34 -102.999s-54.5 -47.833 -95.5 -61.5s-89.5 -20.5 -145.5 -20.5c-90.667 0 -156 11.333 -196 34s-60 53.334 -60 92.001c0 28 11.333 50.667 34 68
s60.334 26.666 113.001 27.999l-4 -16c-40.667 5.33301 -71 17.333 -91 36s-30 44 -30 76s12.667 58 38 78s59 31 101 33l62 -29h-16c-26 -1.33301 -44.333 -5.66602 -55 -12.999s-16 -16.333 -16 -27c0 -11.333 4.66699 -19.833 14 -25.5s23.333 -8.5 42 -8.5h159z
M278.998 -105.002c32 0 58.499 2.16602 79.499 6.49902s36.833 10.333 47.5 18s16 16.5 16 26.5s-3.66699 17.833 -11 23.5s-20.666 8.5 -39.999 8.5h-179c-12.667 0 -22.834 -3.33301 -30.501 -10s-11.5 -15 -11.5 -25c0 -15.333 11.333 -27.166 34 -35.499
s54.334 -12.5 95.001 -12.5zM284.997 509.997c50.667 0 94 -6.66699 130 -20s63.5 -32.5 82.5 -57.5s28.5 -55.833 28.5 -92.5c0 -36 -9.5 -66.667 -28.5 -92s-46.5 -44.5 -82.5 -57.5s-79.333 -19.5 -130 -19.5c-79.333 0 -139.5 14.667 -180.5 44s-61.5 71 -61.5 125
c0 36.667 9.5 67.5 28.5 92.5s46.5 44.167 82.5 57.5s79.667 20 131 20zM284.997 412.997c-22 0 -39.833 -6.33301 -53.5 -19s-20.5 -30.667 -20.5 -54c0 -22.667 6.83301 -40.334 20.5 -53.001s31.5 -19 53.5 -19c21.333 0 39 6.33301 53 19s21 30.334 21 53.001
c0 23.333 -7 41.333 -21 54s-31.667 19 -53 19zM447.997 737.997l-109 -173h-165l-109 173h123l68 -89l69 89h123z" />
    <glyph glyph-name="uni01EA" unicode="&#x1ea;" horiz-adv-x="737" 
d="M369 670c66.667 0 124.167 -13.5 172.5 -40.5s85.5 -65.833 111.5 -116.5s39 -111.667 39 -183s-13 -132.333 -39 -183s-63.167 -89.5 -111.5 -116.5s-105.833 -40.5 -172.5 -40.5s-124.334 13.5 -173.001 40.5s-86 65.833 -112 116.5s-39 111.667 -39 183
s13 132.333 39 183s63.333 89.5 112 116.5s106.334 40.5 173.001 40.5zM369 535c-32 0 -59 -7.66699 -81 -23s-38.667 -38.166 -50 -68.499s-17 -68.166 -17 -113.499c0 -44.667 5.66699 -82.334 17 -113.001s28 -53.667 50 -69s49 -23 81 -23s58.833 7.66699 80.5 23
s38.167 38.333 49.5 69s17 68.334 17 113.001c0 45.333 -5.66699 83.166 -17 113.499s-27.833 53.166 -49.5 68.499s-48.5 23 -80.5 23zM399 -220c-42 0 -74.8369 10.002 -98.5039 30.002s-35.5 47 -35.5 81c0 39.333 13.833 70 41.5 92s65.834 37.333 114.501 46l67 -22
c-27.333 -8.66699 -49.166 -17.334 -65.499 -26.001s-28.166 -17.834 -35.499 -27.501s-11 -20.834 -11 -33.501c0 -14 4.83301 -24.833 14.5 -32.5s22.834 -11.5 39.501 -11.5c8.66699 0 17 0.833008 25 2.5s15 3.83398 21 6.50098l17 -85
c-12.667 -7.33301 -26.5 -12.5 -41.5 -15.5s-32.5 -4.5 -52.5 -4.5z" />
    <glyph glyph-name="uni01EB" unicode="&#x1eb;" horiz-adv-x="599" 
d="M299 510c52.667 0 98.834 -10.167 138.501 -30.5s70.667 -50 93 -89s33.5 -85.833 33.5 -140.5s-11.167 -101.5 -33.5 -140.5s-53.333 -68.667 -93 -89s-85.834 -30.5 -138.501 -30.5c-51.333 0 -97 10.167 -137 30.5s-71.167 50 -93.5 89s-33.5 85.833 -33.5 140.5
s11.167 101.5 33.5 140.5s53.5 68.667 93.5 89s85.667 30.5 137 30.5zM299 389c-19.333 0 -36 -4.66699 -50 -14s-24.667 -24.333 -32 -45s-11 -47.334 -11 -80.001s3.66699 -59.167 11 -79.5s18 -35.333 32 -45s30.667 -14.5 50 -14.5c20 0 37 4.83301 51 14.5
s24.667 24.667 32 45s11 46.833 11 79.5s-3.66699 59.334 -11 80.001s-18 35.667 -32 45s-31 14 -51 14zM331 -215c-42 0 -74.8369 10.002 -98.5039 30.002s-35.5 47 -35.5 81c0 39.333 13.833 70 41.5 92s65.834 37.333 114.501 46l67 -22
c-27.333 -8.66699 -49.166 -17.334 -65.499 -26.001s-28.166 -17.834 -35.499 -27.501s-11 -20.834 -11 -33.501c0 -14 4.83301 -24.833 14.5 -32.5s22.834 -11.5 39.501 -11.5c8.66699 0 17 0.833008 25 2.5s15 3.83398 21 6.50098l17 -85
c-12.667 -7.33301 -26.5 -12.5 -41.5 -15.5s-32.5 -4.5 -52.5 -4.5z" />
    <glyph glyph-name="uni01F1" unicode="&#x1f1;" horiz-adv-x="1347" 
d="M353 660c103.333 0 182.5 -28.6689 237.5 -86.002s82.5 -138.666 82.5 -243.999s-27.5 -186.666 -82.5 -243.999s-134.167 -86 -237.5 -86h-280v660h280zM336 129.998c56 0 96.833 16.833 122.5 50.5s38.5 83.5 38.5 149.5s-12.833 115.833 -38.5 149.5
s-66.5 50.5 -122.5 50.5h-91v-400h91zM885 71.998l-30 58h461v-130h-566v124l421 464l30 -58h-444v130h547v-124z" />
    <glyph glyph-name="uni01F2" unicode="&#x1f2;" horiz-adv-x="1232" 
d="M353 660c103.333 0 182.5 -28.6689 237.5 -86.002s82.5 -138.666 82.5 -243.999s-27.5 -186.666 -82.5 -243.999s-134.167 -86 -237.5 -86h-280v660h280zM336 129.998c56 0 96.833 16.833 122.5 50.5s38.5 83.5 38.5 149.5s-12.833 115.833 -38.5 149.5
s-66.5 50.5 -122.5 50.5h-91v-400h91zM751 -0.00195312v104l199 226l53 53l-79 -2h-171v119h438v-104l-196 -224l-55 -55l88 2h172v-119h-449z" />
    <glyph glyph-name="uni01F3" unicode="&#x1f3;" horiz-adv-x="1143" 
d="M245 -10c-41.333 0 -77.501 10.168 -108.501 30.501s-55 49.833 -72 88.5s-25.5 85 -25.5 139c0 56 8.83301 103.333 26.5 142s42.334 68.334 74.001 89.001s68.167 31 109.5 31c45.333 0 81.833 -13.833 109.5 -41.5s45.5 -62.834 53.5 -105.501l-16 -21v370h170v-712
h-152l-11 170l20 -15c-4 -33.333 -14.167 -62.333 -30.5 -87s-37 -43.834 -62 -57.501s-53.5 -20.5 -85.5 -20.5zM303.999 115.001c19.333 0 35.833 5.16895 49.5 15.502s24.167 25.833 31.5 46.5s11 46 11 76c0 28 -3.5 51.833 -10.5 71.5s-17.333 34.667 -31 45
s-30.167 15.5 -49.5 15.5c-29.333 0 -52.5 -10.833 -69.5 -32.5s-25.5 -55.834 -25.5 -102.501s8.33301 -80.834 25 -102.501s39.667 -32.5 69 -32.5zM661.999 0.00292969v104l199 226l53 53l-79 -2h-171v119h438v-104l-196 -224l-55 -55l88 2h172v-119h-449z" />
    <glyph glyph-name="Aringacute" unicode="&#x1fa;" horiz-adv-x="677" 
d="M673 0h-177l-46 149h-226l-47 -149h-173l232 660h206zM256 266h162l-81 267zM338 842c42 0 75.667 -11.333 101 -34s38 -53 38 -91c0 -38.667 -12.667 -69.334 -38 -92.001s-59 -34 -101 -34s-75.833 11.333 -101.5 34s-38.5 53.334 -38.5 92.001
c0 38 12.833 68.333 38.5 91s59.5 34 101.5 34zM338 769c-16 0 -29 -4.66699 -39 -14s-15 -22 -15 -38s5 -28.833 15 -38.5s23 -14.5 39 -14.5s28.833 4.83301 38.5 14.5s14.5 22.5 14.5 38.5s-4.83301 28.667 -14.5 38s-22.5 14 -38.5 14zM338 1044h152l-89 -163h-124z" />
    </font>
</defs>
</svg>
