<?xml version="1.0" standalone="no"?>
<!DOCTYPE svg PUBLIC "-//W3C//DTD SVG 1.1//EN" "http://www.w3.org/Graphics/SVG/1.1/DTD/svg11.dtd" >
<svg>
<metadata>
Created by FontForge 20090914 at Fri Nov 25 14:24:09 2022
 By www-data
Copyright 2019 The Work Sans Project Authors (https://github.com/weiweihuanghuang/Work-Sans)
</metadata>
<defs>
<font id="WorkSans-Regular" horiz-adv-x="604" >
  <font-face 
    font-family="Work Sans"
    font-weight="400"
    font-stretch="normal"
    units-per-em="1000"
    panose-1="0 0 0 0 0 0 0 0 0 0"
    ascent="800"
    descent="-200"
    x-height="500"
    cap-height="660"
    bbox="-216 -336.998 1283 1100"
    underline-thickness="50"
    underline-position="-75"
    unicode-range="U+000D-U+FB02"
  />
<missing-glyph horiz-adv-x="500" 
d="M130 80h240v500h-240v-500zM50 0v660h400v-660h-400z" />
    <glyph glyph-name="fi" unicode="fi" horiz-adv-x="659" 
d="M296 735c17.333 0 33.6641 -1.99805 48.9971 -5.99805s27.333 -9.66699 36 -17l-21 -65c-8 5.33301 -16.667 9.16602 -26 11.499s-19.666 3.5 -30.999 3.5c-28.667 0 -51 -6.83301 -67 -20.5s-24 -35.5 -24 -65.5v-76v-26v-474h-80v584c0 22 3.33301 42.333 10 61
s16.834 34.667 30.501 48s30.834 23.666 51.501 30.999s44.667 11 72 11zM378.998 500.002v-69h-347v69h347zM525.998 596.002c-18 0 -32.5 5.5 -43.5 16.5s-16.5 25.5 -16.5 43.5s5.5 32.5 16.5 43.5s25.5 16.5 43.5 16.5s32.5 -5.5 43.5 -16.5s16.5 -25.5 16.5 -43.5
s-5.5 -32.5 -16.5 -43.5s-25.5 -16.5 -43.5 -16.5zM565.998 500.002v-500h-80v500h80z" />
    <glyph glyph-name="fl" unicode="fl" horiz-adv-x="699" 
d="M296 735c17.333 0 33.6641 -1.99805 48.9971 -5.99805s27.333 -9.66699 36 -17l-21 -65c-8 5.33301 -16.667 9.16602 -26 11.499s-19.666 3.5 -30.999 3.5c-28.667 0 -51 -6.83301 -67 -20.5s-24 -35.5 -24 -65.5v-76v-26v-474h-80v584c0 22 3.33301 42.333 10 61
s16.834 34.667 30.501 48s30.834 23.666 51.501 30.999s44.667 11 72 11zM378.998 500.002v-69h-347v69h347zM561.998 730.002l0.000976562 -603c0 -25.333 4.66699 -42.833 14 -52.5s24.333 -14.5 45 -14.5c13.333 0 24.333 1 33 3s20.334 5.66699 35.001 11l-13 -70
c-10.667 -4.66699 -22.334 -8.16699 -35.001 -10.5s-25.667 -3.5 -39 -3.5c-40.667 0 -70.834 11 -90.501 33s-29.5 55.667 -29.5 101v606h80z" />
    <glyph glyph-name="f_f" unicode="ff" horiz-adv-x="786" 
d="M296 735c17.333 0 33.6641 -1.99805 48.9971 -5.99805s27.333 -9.66699 36 -17l-21 -65c-8 5.33301 -16.667 9.16602 -26 11.499s-19.666 3.5 -30.999 3.5c-28.667 0 -51 -6.83301 -67 -20.5s-24 -35.5 -24 -65.5v-76v-26v-474h-80v584c0 22 3.33301 42.333 10 61
s16.834 34.667 30.501 48s30.834 23.666 51.501 30.999s44.667 11 72 11zM378.998 500.002v-69h-347v69h347zM688.998 735.002c17.333 0 33.6641 -1.99805 48.9971 -5.99805s27.333 -9.66699 36 -17l-21 -65c-8 5.33301 -16.667 9.16602 -26 11.499s-19.666 3.5 -30.999 3.5
c-28.667 0 -51 -6.83301 -67 -20.5s-24 -35.5 -24 -65.5v-76v-26v-474h-80v584c0 22 3.33301 42.333 10 61s16.834 34.667 30.501 48s30.834 23.666 51.501 30.999s44.667 11 72 11zM771.996 500.004v-69h-347v69h347z" />
    <glyph glyph-name="f_f_i" unicode="ffi" horiz-adv-x="1052" 
d="M296 735c17.333 0 33.6641 -1.99805 48.9971 -5.99805s27.333 -9.66699 36 -17l-21 -65c-8 5.33301 -16.667 9.16602 -26 11.499s-19.666 3.5 -30.999 3.5c-28.667 0 -51 -6.83301 -67 -20.5s-24 -35.5 -24 -65.5v-76v-26v-474h-80v584c0 22 3.33301 42.333 10 61
s16.834 34.667 30.501 48s30.834 23.666 51.501 30.999s44.667 11 72 11zM378.998 500.002v-69h-347v69h347zM688.998 735.002c17.333 0 33.6641 -1.99805 48.9971 -5.99805s27.333 -9.66699 36 -17l-21 -65c-8 5.33301 -16.667 9.16602 -26 11.499s-19.666 3.5 -30.999 3.5
c-28.667 0 -51 -6.83301 -67 -20.5s-24 -35.5 -24 -65.5v-76v-26v-474h-80v584c0 22 3.33301 42.333 10 61s16.834 34.667 30.501 48s30.834 23.666 51.501 30.999s44.667 11 72 11zM771.996 500.004v-69h-347v69h347zM918.996 596.004c-18 0 -32.5 5.5 -43.5 16.5
s-16.5 25.5 -16.5 43.5s5.5 32.5 16.5 43.5s25.5 16.5 43.5 16.5s32.5 -5.5 43.5 -16.5s16.5 -25.5 16.5 -43.5s-5.5 -32.5 -16.5 -43.5s-25.5 -16.5 -43.5 -16.5zM958.996 500.004v-500h-80v500h80z" />
    <glyph glyph-name="f_f_l" unicode="ffl" horiz-adv-x="1092" 
d="M296 735c17.333 0 33.6641 -1.99805 48.9971 -5.99805s27.333 -9.66699 36 -17l-21 -65c-8 5.33301 -16.667 9.16602 -26 11.499s-19.666 3.5 -30.999 3.5c-28.667 0 -51 -6.83301 -67 -20.5s-24 -35.5 -24 -65.5v-76v-26v-474h-80v584c0 22 3.33301 42.333 10 61
s16.834 34.667 30.501 48s30.834 23.666 51.501 30.999s44.667 11 72 11zM378.998 500.002v-69h-347v69h347zM688.998 735.002c17.333 0 33.6641 -1.99805 48.9971 -5.99805s27.333 -9.66699 36 -17l-21 -65c-8 5.33301 -16.667 9.16602 -26 11.499s-19.666 3.5 -30.999 3.5
c-28.667 0 -51 -6.83301 -67 -20.5s-24 -35.5 -24 -65.5v-76v-26v-474h-80v584c0 22 3.33301 42.333 10 61s16.834 34.667 30.501 48s30.834 23.666 51.501 30.999s44.667 11 72 11zM771.996 500.004v-69h-347v69h347zM954.996 730.004l0.000976562 -603
c0 -25.333 4.66699 -42.833 14 -52.5s24.333 -14.5 45 -14.5c13.333 0 24.333 1 33 3s20.334 5.66699 35.001 11l-13 -70c-10.667 -4.66699 -22.334 -8.16699 -35.001 -10.5s-25.667 -3.5 -39 -3.5c-40.667 0 -70.834 11 -90.501 33s-29.5 55.667 -29.5 101v606h80z" />
    <glyph glyph-name=".notdef" horiz-adv-x="500" 
d="M130 80h240v500h-240v-500zM50 0v660h400v-660h-400z" />
    <glyph glyph-name="NULL" horiz-adv-x="0" 
 />
    <glyph glyph-name="NULL" horiz-adv-x="0" 
 />
    <glyph glyph-name="CR" unicode="&#xd;" horiz-adv-x="341" 
 />
    <glyph glyph-name="space" unicode=" " horiz-adv-x="341" 
 />
    <glyph glyph-name="exclam" unicode="!" horiz-adv-x="272" 
d="M178 660v-286l-12 -166h-60l-12 166v286h84zM136 120c19.333 0 35 -6 47 -18s18 -27.667 18 -47s-6 -35 -18 -47s-27.667 -18 -47 -18s-35 6 -47 18s-18 27.667 -18 47s6 35 18 47s27.667 18 47 18z" />
    <glyph glyph-name="quotedbl" unicode="&#x22;" horiz-adv-x="403" 
d="M339 690l-26 -247h-62v247h88zM170 690l-26 -247h-62v247h88z" />
    <glyph glyph-name="numbersign" unicode="#" horiz-adv-x="639" 
d="M525 660l-110 -660h-68l110 660h68zM575 246v-61h-555v61h555zM291 660l-110 -660h-68l110 660h68zM619 476v-61h-555v61h555z" />
    <glyph glyph-name="dollar" unicode="$" horiz-adv-x="622" 
d="M317 1c-46 0 -86.666 6.33594 -121.999 19.0029s-65.666 29.667 -90.999 51s-46 45.333 -62 72l68 55c12.667 -24 28.667 -45.333 48 -64s42.666 -33.334 69.999 -44.001s58.666 -16 93.999 -16c49.333 0 88.5 9 117.5 27s43.5 44.333 43.5 79
c0 20.667 -6.83301 39.167 -20.5 55.5s-39.167 28.833 -76.5 37.5l-150 34c-40 9.33301 -72 21.833 -96 37.5s-41.333 34.334 -52 56.001s-16 45.167 -16 70.5c0 34.667 9.5 66.334 28.5 95.001s46.333 51.667 82 69s78.5 26 128.5 26c56 0 104.5 -11.333 145.5 -34
s74.833 -56.667 101.5 -102l-65 -50c-23.333 41.333 -50.166 70.666 -80.499 87.999s-66.833 26 -109.5 26c-34.667 0 -63 -4.83301 -85 -14.5s-38.333 -22.5 -49 -38.5s-16 -34 -16 -54c0 -15.333 3 -29.333 9 -42s16.833 -23.834 32.5 -33.501s37.5 -17.834 65.5 -24.501
l139 -31c61.333 -13.333 104.166 -33.833 128.499 -61.5s36.5 -61.834 36.5 -102.501c0 -36.667 -10.167 -69 -30.5 -97s-49 -49.833 -86 -65.5s-80.5 -23.5 -130.5 -23.5zM279.001 -99.9971v860h69v-860h-69z" />
    <glyph glyph-name="percent" unicode="%" horiz-adv-x="856" 
d="M180 0l420 660h76l-420 -660h-76zM199 670c32.667 0 60.834 -7.5 84.501 -22.5s42 -36.167 55 -63.5s19.5 -59.333 19.5 -96s-6.5 -68.667 -19.5 -96s-31.333 -48.5 -55 -63.5s-51.834 -22.5 -84.501 -22.5c-32 0 -60 7.5 -84 22.5s-42.5 36.167 -55.5 63.5
s-19.5 59.333 -19.5 96s6.5 68.667 19.5 96s31.5 48.5 55.5 63.5s52 22.5 84 22.5zM199 607c-18.667 0 -34.667 -4.66699 -48 -14s-23.333 -22.833 -30 -40.5s-10 -39.167 -10 -64.5c0 -24.667 3.33301 -46 10 -64s16.667 -31.667 30 -41s29.333 -14 48 -14
c19.333 0 35.5 4.66699 48.5 14s22.833 23 29.5 41s10 39.333 10 64c0 25.333 -3.33301 46.833 -10 64.5s-16.5 31.167 -29.5 40.5s-29.167 14 -48.5 14zM657 354c32.667 0 60.834 -7.5 84.501 -22.5s42 -36.167 55 -63.5s19.5 -59.333 19.5 -96s-6.5 -68.667 -19.5 -96
s-31.333 -48.5 -55 -63.5s-51.834 -22.5 -84.501 -22.5c-32 0 -60 7.5 -84 22.5s-42.5 36.167 -55.5 63.5s-19.5 59.333 -19.5 96s6.5 68.667 19.5 96s31.5 48.5 55.5 63.5s52 22.5 84 22.5zM657 291c-18.667 0 -34.667 -4.66699 -48 -14s-23.333 -22.833 -30 -40.5
s-10 -39.167 -10 -64.5c0 -24.667 3.33301 -46 10 -64s16.667 -31.667 30 -41s29.333 -14 48 -14c19.333 0 35.5 4.66699 48.5 14s22.833 23 29.5 41s10 39.333 10 64c0 25.333 -3.33301 46.833 -10 64.5s-16.5 31.167 -29.5 40.5s-29.167 14 -48.5 14z" />
    <glyph glyph-name="ampersand" unicode="&#x26;" horiz-adv-x="623" 
d="M258 -10c-44 0 -81.668 7.66602 -113.001 22.999s-55.333 36.333 -72 63s-25 57.334 -25 92.001c0 21.333 2.83301 41.5 8.5 60.5s14.834 37.167 27.501 54.5s29.834 33.666 51.501 48.999s48.5 29.666 80.5 42.999l42 21c25.333 14 46.333 27.167 63 39.5
s29.167 25.833 37.5 40.5s12.5 32 12.5 52c0 23.333 -7.16699 41.5 -21.5 54.5s-33.833 19.5 -58.5 19.5c-28.667 0 -49.834 -7.83301 -63.501 -23.5s-20.5 -33.834 -20.5 -54.501c0 -12.667 1.66699 -24.834 5 -36.501s10.5 -26.167 21.5 -43.5s27.5 -40.333 49.5 -69
l89 -113l94 -112.5c24.667 -28.333 45.667 -49.666 63 -63.999s33.5 -23.833 48.5 -28.5s31.5 -7 49.5 -7l-20 -60c-19.333 0 -37.5 2.33301 -54.5 7s-35.667 14.667 -56 30s-44.666 38.333 -72.999 69s-63.5 71.667 -105.5 123l-90 113c-24 30.667 -43 56.667 -57 78
s-24 40.833 -30 58.5s-9 35.834 -9 54.501c0 24 5.83301 47.333 17.5 70s29.5 41.167 53.5 55.5s55 21.5 93 21.5c28.667 0 53.667 -5.33301 75 -16s38.166 -26 50.499 -46s18.5 -43.667 18.5 -71c0 -23.333 -3.83301 -45.5 -11.5 -66.5s-22 -41.667 -43 -62
s-52.167 -41.5 -93.5 -63.5l-34 -13c-34.667 -16 -61.667 -31.5 -81 -46.5s-33 -31.167 -41 -48.5s-12 -38 -12 -62c0 -24.667 6.33301 -46 19 -64s29.667 -31.833 51 -41.5s45.333 -14.5 72 -14.5c36.667 0 67.667 6.66699 93 20s48.666 32.333 69.999 57l13 12
c17.333 27.333 30.833 58.333 40.5 93s12.834 73.334 9.50098 116.001l68 -6c2.66699 -42.667 -1.83301 -84.667 -13.5 -126s-30.167 -78.666 -55.5 -111.999l-15 -21c-25.333 -30 -56 -53.833 -92 -71.5s-78 -26.5 -126 -26.5z" />
    <glyph glyph-name="quotesingle" unicode="'" horiz-adv-x="234" 
d="M170 690l-26 -247h-62v247h88z" />
    <glyph glyph-name="parenleft" unicode="(" horiz-adv-x="350" 
d="M275 751l46 -46.001c-44 -40 -79 -82.167 -105 -126.5s-44.667 -91 -56 -140s-17 -101.5 -17 -157.5c0 -55.333 5.66699 -107.666 17 -156.999s30 -96 56 -140s61 -86.333 105 -127l-46 -46c-70.667 61.333 -124 131.5 -160 210.5s-54 165.5 -54 259.5s18 180.667 54 260
s89.333 149.333 160 210z" />
    <glyph glyph-name="parenright" unicode=")" horiz-adv-x="350" 
d="M75 -189l-46 46.001c44 40.667 79 83 105 127s44.667 90.667 56 140s17 101.666 17 156.999c0 56 -5.66699 108.5 -17 157.5s-30 95.667 -56 140s-61 86.5 -105 126.5l46 46c70.667 -60.667 124 -130.667 160 -210s54 -166 54 -260s-18 -180.5 -54 -259.5
s-89.333 -149.167 -160 -210.5z" />
    <glyph glyph-name="asterisk" unicode="*" horiz-adv-x="572" 
d="M301 506l79 -84l70 -98l-52 -38l-72 97l-55 101l15 11zM271 506l15 -11l15 -11l-55 -101l-72 -97l-52 38l70 98zM72 598l116 -36l104 -49l-6 -18l-6 -18l-113 22l-114 38zM319 730v-121l-14 -114h-19h-19l-14 114v121h66zM500 598l19 -61l-114 -38l-113 -22l-6 18l-6 18
l104 49z" />
    <glyph glyph-name="plus" unicode="+" 
d="M340 564v-496h-75v496h75zM545 354v-75h-486v75h486z" />
    <glyph glyph-name="comma" unicode="," horiz-adv-x="266" 
d="M133 120c16 0 29.498 -4.16895 40.498 -12.502s19.5 -19.666 25.5 -33.999s9 -31.166 9 -50.499c0 -22 -3.83301 -43.667 -11.5 -65s-19.5 -41 -35.5 -59s-36.667 -33 -62 -45l-42 39c18 6 33.833 14.333 47.5 25s24.834 22.667 33.501 36s14.334 27 17.001 41l-4 2
c-2.66699 -2 -6 -3.66699 -10 -5s-10 -2 -18 -2s-16.167 2.33301 -24.5 7s-15.5 11.5 -21.5 20.5s-9 20.833 -9 35.5c0 12 3 23.167 9 33.5s13.833 18.5 23.5 24.5s20.5 9 32.5 9z" />
    <glyph glyph-name="hyphen" unicode="-" horiz-adv-x="510" 
d="M420 303v-83h-330v83h330z" />
    <glyph glyph-name="period" unicode="." horiz-adv-x="266" 
d="M133 120c19.333 0 35 -6 47 -18s18 -27.667 18 -47s-6 -35 -18 -47s-27.667 -18 -47 -18s-35 6 -47 18s-18 27.667 -18 47s6 35 18 47s27.667 18 47 18z" />
    <glyph glyph-name="slash" unicode="/" horiz-adv-x="437" 
d="M409 730l-306 -800h-75l306 800h75z" />
    <glyph glyph-name="zero" unicode="0" horiz-adv-x="622" 
d="M311 -10c-74.667 0 -134.334 29 -179.001 87s-67 142.333 -67 253s22.333 195 67 253s104.334 87 179.001 87c75.333 0 135.166 -29 179.499 -87s66.5 -142.333 66.5 -253s-22.167 -195 -66.5 -253s-104.166 -87 -179.499 -87zM311 62
c35.333 0 65.166 10.167 89.499 30.5s42.666 50.5 54.999 90.5s18.5 89 18.5 147s-6.16699 107 -18.5 147s-30.666 70.167 -54.999 90.5s-54.166 30.5 -89.499 30.5s-65.166 -10.167 -89.499 -30.5s-42.666 -50.5 -54.999 -90.5s-18.5 -89 -18.5 -147
s6.16699 -107 18.5 -147s30.666 -70.167 54.999 -90.5s54.166 -30.5 89.499 -30.5z" />
    <glyph glyph-name="one" unicode="1" horiz-adv-x="390" 
d="M208 0l0.00292969 483.998c0 11.333 0.166992 23.5 0.5 36.5s0.833008 26.5 1.5 40.5c-22.667 -22 -49 -41.167 -79 -57.5s-60.667 -28.166 -92 -35.499l-21 73c12 1.33301 27.167 5.83301 45.5 13.5s37.666 17.334 57.999 29.001s39.166 24.167 56.499 37.5
s30.666 26.333 39.999 39h70v-660h-80z" />
    <glyph glyph-name="two" unicode="2" horiz-adv-x="583" 
d="M74 0v64.999c66 48.667 121.167 91.334 165.5 128.001s79.833 70 106.5 100s45.667 58.5 57 85.5s17 55.167 17 84.5c0 39.333 -12.5 71.166 -37.5 95.499s-59.167 36.5 -102.5 36.5c-45.333 0 -81.666 -14.833 -108.999 -44.5s-43.333 -69.167 -48 -118.5l-70 42
c6 38.667 18.5 72.667 37.5 102s44.667 52.333 77 69s70.833 25 115.5 25c34 0 64.5 -5 91.5 -15s50.167 -24.167 69.5 -42.5s34.166 -40.166 44.499 -65.499s15.5 -53.333 15.5 -84c0 -41.333 -10 -81.833 -30 -121.5s-53 -81.167 -99 -124.5s-108.333 -91.333 -187 -144
v-1c7.33301 0.666992 17.5 1.16699 30.5 1.5l39 1c13 0.333008 22.833 0.5 29.5 0.5h231v-75h-444z" />
    <glyph glyph-name="three" unicode="3" horiz-adv-x="583" 
d="M290 -10c-58.667 0 -110.499 13.8301 -155.499 41.4971s-75.5 65.834 -91.5 114.501l80 41c8 -24.667 19 -46.167 33 -64.5s32.5 -32.5 55.5 -42.5s51.833 -15 86.5 -15c29.333 0 54 5.33301 74 16s35.333 25.167 46 43.5s16 39.5 16 63.5s-4.5 44 -13.5 60
s-23.167 27.833 -42.5 35.5s-44.666 11.5 -75.999 11.5c-7.33301 0 -15.333 -0.166992 -24 -0.5s-17.667 -1.16602 -27 -2.49902v80c6 -0.666992 11.833 -1 17.5 -1h15.5c48.667 0 83.334 9.5 104.001 28.5s31 48.833 31 89.5c0 34.667 -10.667 61 -32 79
s-51.666 27 -90.999 27c-42 0 -74 -9.16699 -96 -27.5s-39.333 -43.166 -52 -74.499l-76 36c10.667 28 26.667 52.667 48 74s47.166 38 77.499 50s63.833 18 100.5 18c46 0 84 -7.83301 114 -23.5s52.5 -36.5 67.5 -62.5s22.5 -54.667 22.5 -86
c0 -24 -3.33301 -45.5 -10 -64.5s-15.834 -35.5 -27.501 -49.5s-24.834 -25.167 -39.501 -33.5s-30.334 -13.833 -47.001 -16.5v-2c22 -0.666992 41.5 -5 58.5 -13s31.5 -18.667 43.5 -32s21.167 -28.5 27.5 -45.5s9.5 -34.833 9.5 -53.5c0 -38.667 -9.5 -73 -28.5 -103
s-45.5 -53.5 -79.5 -70.5s-73.667 -25.5 -119 -25.5z" />
    <glyph glyph-name="four" unicode="4" horiz-adv-x="611" 
d="M366 0v173h-322v59v0v0l301 428h101v-418h117v-69h-117v-173h-80zM129 242l237.001 0.000976562v247c0 17.333 0.5 35 1.5 53s1.83301 35.667 2.5 53h-2c-8 -16.667 -18.333 -35.334 -31 -56.001s-24.334 -38.667 -35.001 -54l-173 -243v0v0z" />
    <glyph glyph-name="five" unicode="5" horiz-adv-x="582" 
d="M287 -10c-58.667 0 -105.833 13.332 -141.5 39.999s-63.167 63.667 -82.5 111l78 41c10.667 -34.667 27.167 -62.834 49.5 -84.501s55.166 -32.5 98.499 -32.5c30.667 0 56.834 5.66699 78.501 17s38.5 27.5 50.5 48.5s18 46.167 18 75.5c0 31.333 -5.5 57.5 -16.5 78.5
s-26.833 36.833 -47.5 47.5s-46 16 -76 16c-21.333 0 -41.166 -2.16699 -59.499 -6.5s-34.833 -11.166 -49.5 -20.499s-27.334 -21.666 -38.001 -36.999l-70 13l39 363h371v-75h-303l-26 -208l-2 -9h2c16 16.667 36.5 30 61.5 40s54.833 15 89.5 15
c42 0 78.5 -8.83301 109.5 -26.5s55.167 -42.5 72.5 -74.5s26 -69.333 26 -112c0 -34 -5.66699 -64.667 -17 -92s-27.333 -50.5 -48 -69.5s-45.167 -33.5 -73.5 -43.5s-59.5 -15 -93.5 -15z" />
    <glyph glyph-name="six" unicode="6" horiz-adv-x="608" 
d="M323 670c35.333 0 66.1709 -4.83789 92.5039 -14.5049s49.166 -24.667 68.499 -45s35.666 -46.833 48.999 -79.5l-74 -35c-10 30.667 -26.167 54.834 -48.5 72.501s-53.166 26.5 -92.499 26.5c-28.667 0 -54 -7.16699 -76 -21.5s-40.667 -34.166 -56 -59.499
s-26.833 -55 -34.5 -89s-11.5 -70.667 -11.5 -110v-6v-12h4c7.33301 28.667 20.833 51.834 40.5 69.501s42 30.667 67 39s49.5 12.5 73.5 12.5c44.667 0 83.667 -8.66699 117 -26s59.166 -42 77.499 -74s27.5 -70 27.5 -114c0 -43.333 -9.33301 -81.166 -28 -113.499
s-44.834 -57.166 -78.501 -74.499s-73.834 -26 -120.501 -26c-55.333 0 -102 14.667 -140 44s-66.667 69.5 -86 120.5s-29 109.5 -29 175.5c0 74 11.333 136.167 34 186.5s53.5 88.5 92.5 114.5s82.833 39 131.5 39zM319.005 340.995
c-28.667 0 -53.834 -5.83203 -75.501 -17.499s-38.5 -27.667 -50.5 -48s-18 -43.833 -18 -70.5c0 -25.333 6.33301 -48.5 19 -69.5s29.834 -37.667 51.501 -50s46.167 -18.5 73.5 -18.5c45.333 0 80.666 12.167 105.999 36.5s38 58.166 38 101.499
c0 28 -5.66699 52.167 -17 72.5s-27.666 36 -48.999 47s-47.333 16.5 -78 16.5z" />
    <glyph glyph-name="seven" unicode="7" horiz-adv-x="561" 
d="M40 660l486.002 0.00292969v-75c-55.333 -58.667 -100.5 -118.834 -135.5 -180.501s-60.5 -125.834 -76.5 -192.501s-24 -137.334 -24 -212.001h-82c0 74 9.16699 146.5 27.5 217.5s46.166 139.167 83.499 204.5s83.666 126.333 138.999 183l13 -20h-431v75z" />
    <glyph glyph-name="eight" unicode="8" horiz-adv-x="616" 
d="M308 669c42.667 0 79.6689 -7.00195 111.002 -21.002s55.666 -33.833 72.999 -59.5s26 -56.5 26 -92.5c0 -34 -8.16699 -63.833 -24.5 -89.5s-39.166 -45.167 -68.499 -58.5v-1c37.333 -14 67.166 -35.333 89.499 -64s33.5 -63.667 33.5 -105c0 -38.667 -10 -72 -30 -100
s-47.833 -49.667 -83.5 -65s-77.834 -23 -126.501 -23c-48 0 -90 7.66699 -126 23s-64 37 -84 65s-30 61.333 -30 100c0 40.667 11 75.5 33 104.5s52.333 50.5 91 64.5v1c-28.667 12.667 -51.5 31.834 -68.5 57.501s-25.5 55.834 -25.5 90.501c0 36 8.66699 66.833 26 92.5
s41.833 45.5 73.5 59.5s68.5 21 110.5 21zM308.002 593.998c-38.667 0 -69.5 -9.33301 -92.5 -28s-34.5 -44.667 -34.5 -78c0 -32.667 11.667 -58.334 35 -77.001s54 -28 92 -28s68.667 9.33301 92 28s35 44.334 35 77.001c0 33.333 -11.333 59.333 -34 78
s-53.667 28 -93 28zM308.002 64.998c32.667 0 60.666 4.83301 83.999 14.5s41.333 23.667 54 42s19 39.833 19 64.5c0 25.333 -6.5 47.166 -19.5 65.499s-31.167 32.333 -54.5 42s-51 14.5 -83 14.5c-31.333 0 -58.833 -4.83301 -82.5 -14.5s-42 -23.667 -55 -42
s-19.5 -40.166 -19.5 -65.499c0 -24.667 6.33301 -46.167 19 -64.5s30.834 -32.333 54.501 -42s51.5 -14.5 83.5 -14.5z" />
    <glyph glyph-name="nine" unicode="9" horiz-adv-x="617" 
d="M297 670c55.333 0 101.998 -14.501 139.998 -43.501s66.667 -69 86 -120s29 -109.833 29 -176.5c0 -74 -9.66699 -136.167 -29 -186.5s-47.833 -88.5 -85.5 -114.5s-84.167 -39 -139.5 -39c-54.667 0 -101.667 12.667 -141 38s-68.666 62.333 -87.999 111l79 42
c10.667 -34.667 28.167 -62.667 52.5 -84s57.833 -32 100.5 -32c34.667 0 63.5 6.83301 86.5 20.5s41.167 33.334 54.5 59.001s22.833 56.5 28.5 92.5s8.5 76 8.5 120v4.5v4.5h-4c-8 -30 -22 -54.167 -42 -72.5s-42.5 -31.5 -67.5 -39.5s-49.833 -12 -74.5 -12
c-43.333 0 -81.666 8.5 -114.999 25.5s-59.333 40.833 -78 71.5s-28 67 -28 109c0 45.333 9 84.5 27 117.5s44 58.667 78 77s74.667 27.5 122 27.5zM297.998 592.999c-46.667 0 -82.333 -12.833 -107 -38.5s-37 -61.5 -37 -107.5c0 -39.333 13 -70.5 39 -93.5
s61 -34.5 105 -34.5c28.667 0 53.834 5.83301 75.501 17.5s38.5 27.667 50.5 48s18 43.833 18 70.5c0 28 -6 52.333 -18 73s-28.833 36.667 -50.5 48s-46.834 17 -75.501 17z" />
    <glyph glyph-name="colon" unicode=":" horiz-adv-x="296" 
d="M148 510c19.333 0 35 -6 47 -18s18 -27.667 18 -47s-6 -35 -18 -47s-27.667 -18 -47 -18s-35 6 -47 18s-18 27.667 -18 47s6 35 18 47s27.667 18 47 18zM148 120c19.333 0 35 -6 47 -18s18 -27.667 18 -47s-6 -35 -18 -47s-27.667 -18 -47 -18s-35 6 -47 18
s-18 27.667 -18 47s6 35 18 47s27.667 18 47 18z" />
    <glyph glyph-name="semicolon" unicode=";" horiz-adv-x="296" 
d="M147 120c16 0 29.498 -4.16895 40.498 -12.502s19.5 -19.666 25.5 -33.999s9 -31.166 9 -50.499c0 -22 -3.83301 -43.667 -11.5 -65s-19.5 -41 -35.5 -59s-36.667 -33 -62 -45l-42 39c18 6 33.833 14.333 47.5 25s24.834 22.667 33.501 36s14.334 27 17.001 41l-4 2
c-2.66699 -2 -6 -3.66699 -10 -5s-10 -2 -18 -2s-16.167 2.33301 -24.5 7s-15.5 11.5 -21.5 20.5s-9 20.833 -9 35.5c0 12 3 23.167 9 33.5s13.833 18.5 23.5 24.5s20.5 9 32.5 9zM147.998 509.998c19.333 0 35 -6 47 -18s18 -27.667 18 -47s-6 -35 -18 -47
s-27.667 -18 -47 -18s-35 6 -47 18s-18 27.667 -18 47s6 35 18 47s27.667 18 47 18z" />
    <glyph glyph-name="less" unicode="&#x3c;" 
d="M547 28l-476 225v93l476 225v-82l-412 -188l412 -189v-84z" />
    <glyph glyph-name="equal" unicode="=" 
d="M540 441v-75h-476v75h476zM540 241v-75h-476v75h476z" />
    <glyph glyph-name="greater" unicode="&#x3e;" 
d="M57 571l476 -225v-93l-476 -225v82l412 188l-412 189v84z" />
    <glyph glyph-name="question" unicode="?" horiz-adv-x="542" 
d="M273 670c44 0 82.333 -7 115 -21s58.167 -34 76.5 -60s27.5 -57 27.5 -93c0 -38.667 -8.5 -70.834 -25.5 -96.501s-39.667 -45.167 -68 -58.5s-59.833 -22 -94.5 -26v-107h-83v150c48.667 7.33301 86.5 16.333 113.5 27s46 24 57 40s16.5 35.667 16.5 59
s-5.16699 43.333 -15.5 60s-25.833 29.334 -46.5 38.001s-47 13 -79 13c-44 0 -79.833 -12.167 -107.5 -36.5s-44.167 -57.5 -49.5 -99.5l-71 41c7.33301 34 21.5 63.833 42.5 89.5s47.667 45.5 80 59.5s69.5 21 111.5 21zM261 120c19.333 0 35 -6 47 -18s18 -27.667 18 -47
s-6 -35 -18 -47s-27.667 -18 -47 -18s-35 6 -47 18s-18 27.667 -18 47s6 35 18 47s27.667 18 47 18z" />
    <glyph glyph-name="at" unicode="@" horiz-adv-x="958" 
d="M484 -195c-62.667 0 -119.67 9.99902 -171.003 29.999s-95.333 48.333 -132 85s-65 80.667 -85 132s-30 108.333 -30 171c0 64.667 10.833 123.667 32.5 177s52.167 99.5 91.5 138.5s85.666 69 138.999 90s112 31.5 176 31.5c62.667 0 118.334 -10.167 167.001 -30.5
s89.834 -48.5 123.501 -84.5s59.167 -77.333 76.5 -124s26 -96 26 -148c0 -43.333 -5.5 -82.333 -16.5 -117s-26.167 -64.167 -45.5 -88.5s-41.166 -43 -65.499 -56s-49.5 -19.5 -75.5 -19.5c-36 0 -62.5 9.33301 -79.5 28s-24.167 42.334 -21.5 71.001
c-14.667 -28 -36.667 -50.333 -66 -67s-59.666 -25 -90.999 -25c-34.667 0 -65.167 8.33301 -91.5 25s-46.833 39.834 -61.5 69.501s-22 63.834 -22 102.501c0 37.333 5.66699 72.166 17 104.499s27.166 60.666 47.499 84.999s44.5 43.333 72.5 57s58.333 20.5 91 20.5
c26 0 49.333 -4.5 70 -13.5s38 -21.667 52 -38s23.667 -35.833 29 -58.5l24 101h71l-76 -326c-1.33301 -6.66699 -2.5 -12.834 -3.5 -18.501s-1.5 -11.167 -1.5 -16.5c0 -18.667 4.83301 -30.834 14.5 -36.501s20.5 -8.5 32.5 -8.5c24 0 46.333 8.33301 67 25
s37.5 41.834 50.5 75.501s19.5 75.167 19.5 124.5c0 46.667 -7.66699 90 -23 130s-37.5 74.833 -66.5 104.5s-63.833 52.667 -104.5 69s-86.334 24.5 -137.001 24.5c-55.333 0 -105.833 -8.83301 -151.5 -26.5s-85.167 -43 -118.5 -76s-59.166 -72.833 -77.499 -119.5
s-27.5 -98.667 -27.5 -156c0 -56 8.83301 -106 26.5 -150s42.5 -81.667 74.5 -113s69.333 -55.166 112 -71.499s88.667 -24.5 138 -24.5c56.667 0 101.334 7.16699 134.001 21.5s60 29.833 82 46.5l35 -49c-18 -14 -38.167 -26.833 -60.5 -38.5s-48.833 -21.167 -79.5 -28.5
s-67.667 -11 -111 -11zM459.997 59.999c28 0 53.668 9.16699 77.001 27.5s41.833 43.333 55.5 75s20.5 67.167 20.5 106.5c0 26.667 -4.83301 49.834 -14.5 69.501s-23.334 35 -41.001 46s-38.5 16.5 -62.5 16.5s-45.833 -5.16699 -65.5 -15.5s-36.667 -24.833 -51 -43.5
s-25.5 -40.334 -33.5 -65.001s-12 -51.334 -12 -80.001c0 -29.333 5 -54.166 15 -74.499s24.5 -35.833 43.5 -46.5s41.833 -16 68.5 -16z" />
    <glyph glyph-name="A" unicode="A" horiz-adv-x="660" 
d="M634 0h-85l-70 183h-299l-70 -183h-84l257 660h95zM209 258h241l-121 325z" />
    <glyph glyph-name="B" unicode="B" horiz-adv-x="653" 
d="M108 0l-0.000976562 659.999h235c78 0 135 -16.333 171 -49s54 -77 54 -133c0 -33.333 -9.66699 -63.5 -29 -90.5s-46.666 -44.167 -81.999 -51.5v-1c39.333 -7.33301 70.5 -25.166 93.5 -53.499s34.5 -60.5 34.5 -96.5c0 -56 -21 -100.833 -63 -134.5
s-102 -50.5 -180 -50.5h-234zM187.999 74.999h173c47.333 0 82.5 9.66699 105.5 29s34.5 46.333 34.5 81c0 35.333 -11.5 62.5 -34.5 81.5s-58.167 28.5 -105.5 28.5h-173v-220zM187.999 369.999h156c93.333 0 140 36 140 108c0 71.333 -46.667 107 -140 107h-156v-215z" />
    <glyph glyph-name="C" unicode="C" horiz-adv-x="686" 
d="M640 169c-14 -37.333 -33.998 -69.502 -59.998 -96.502s-56.5 -47.5 -91.5 -61.5s-73.167 -21 -114.5 -21c-62.667 0 -116.834 13.833 -162.501 41.5s-81 66.834 -106 117.501s-37.5 111 -37.5 181s12.5 130.333 37.5 181s60.333 89.834 106 117.501
s99.167 41.5 160.5 41.5c42.667 0 80.667 -5.83301 114 -17.5s61.833 -29 85.5 -52s42.5 -51.167 56.5 -84.5l-79 -37c-14.667 38 -35.834 66.833 -63.501 86.5s-63.5 29.5 -107.5 29.5c-44.667 0 -84 -10.5 -118 -31.5s-60.5 -51.167 -79.5 -90.5s-28.5 -87 -28.5 -143
c0 -55.333 9 -102.833 27 -142.5s43.667 -70 77 -91s72.666 -31.5 117.999 -31.5c44 0 82.333 11.167 115 33.5s56.334 55.833 71.001 100.5z" />
    <glyph glyph-name="D" unicode="D" horiz-adv-x="721" 
d="M321 660c103.333 0 184.5 -28.5 243.5 -85.5s88.5 -138.5 88.5 -244.5s-29.5 -187.5 -88.5 -244.5s-140.167 -85.5 -243.5 -85.5h-213v660h213zM329 75c75.333 0 134.166 22.5 176.499 67.5s63.5 107.5 63.5 187.5s-21.167 142.5 -63.5 187.5
s-101.166 67.5 -176.499 67.5h-141v-510h141z" />
    <glyph glyph-name="E" unicode="E" horiz-adv-x="638" 
d="M108 0v660h463v-75h-383v-213h298v-75h-298v-222h398v-75h-478z" />
    <glyph glyph-name="F" unicode="F" horiz-adv-x="610" 
d="M570 585h-382v-213h298v-75h-298v-297h-80v660h462v-75z" />
    <glyph glyph-name="G" unicode="G" horiz-adv-x="724" 
d="M374 -10c-62.667 0 -116.834 13.8311 -162.501 41.498s-81 66.834 -106 117.501s-37.5 111 -37.5 181s13.167 130.333 39.5 181s63.166 89.834 110.499 117.501s101.666 41.5 162.999 41.5c65.333 0 118.5 -12.333 159.5 -37s74.167 -62.667 99.5 -114l-73 -40
c-14.667 38 -37.834 66.833 -69.501 86.5s-70.5 29.5 -116.5 29.5c-44.667 0 -84.167 -10.5 -118.5 -31.5s-61.333 -51.333 -81 -91s-29.5 -87.167 -29.5 -142.5s8.5 -102.833 25.5 -142.5s42.333 -70 76 -91s74.834 -31.5 123.501 -31.5c27.333 0 52.833 3.5 76.5 10.5
s44.334 17.5 62.001 31.5s31.5 31.667 41.5 53s15 46.333 15 75v23h-210v75h283v-333h-63l-4 123l17 -3c-17.333 -41.333 -44.666 -73.333 -81.999 -96s-83.666 -34 -138.999 -34z" />
    <glyph glyph-name="H" unicode="H" horiz-adv-x="734" 
d="M626 660v-660h-80v660h80zM188 660v-660h-80v660h80zM583 372v-75h-433v75h433z" />
    <glyph glyph-name="I" unicode="I" horiz-adv-x="296" 
d="M188 660v-660h-80v660h80z" />
    <glyph glyph-name="J" unicode="J" horiz-adv-x="566" 
d="M465 660l-0.00292969 -433.999c0 -74 -19.833 -131.833 -59.5 -173.5s-94.5 -62.5 -164.5 -62.5c-49.333 0 -90 9.33301 -122 28s-54.167 45.167 -66.5 79.5s-14.166 74.5 -5.49902 120.5l74 15c-7.33301 -56.667 -2.16602 -98.834 15.501 -126.501
s51.5 -41.5 101.5 -41.5c56.667 0 95.334 15.5 116.001 46.5s31 75.833 31 134.5v414h80z" />
    <glyph glyph-name="K" unicode="K" horiz-adv-x="656" 
d="M625 660l-288 -295l-12 -13l-177 -181v108l372 381h105zM188 660v-660h-80v660h80zM345 416l283 -416h-96l-253 371z" />
    <glyph glyph-name="L" unicode="L" horiz-adv-x="598" 
d="M188 75h378v-75h-458v660h80v-585z" />
    <glyph glyph-name="M" unicode="M" horiz-adv-x="854" 
d="M746 660v-660h-76v415l9 174h-1l-217 -589h-68l-217 589h-1l9 -174v-415h-76v660h123l145 -401l50 -165h2l51 164l144 402h123z" />
    <glyph glyph-name="N" unicode="N" horiz-adv-x="734" 
d="M626 660v-660h-99l-276 442l-70 124h-1l4 -100v-466h-76v660h99l275 -440l71 -127h1l-4 101v466h76z" />
    <glyph glyph-name="O" unicode="O" horiz-adv-x="748" 
d="M374 670c62.667 0 116.834 -13.833 162.501 -41.5s81 -66.834 106 -117.501s37.5 -111 37.5 -181s-12.5 -130.333 -37.5 -181s-60.333 -89.834 -106 -117.501s-99.834 -41.5 -162.501 -41.5s-116.834 13.833 -162.501 41.5s-81 66.834 -106 117.501s-37.5 111 -37.5 181
s12.5 130.333 37.5 181s60.333 89.834 106 117.501s99.834 41.5 162.501 41.5zM374 595c-45.333 0 -84.666 -10.5 -117.999 -31.5s-59 -51.333 -77 -91s-27 -87.167 -27 -142.5s9 -102.833 27 -142.5s43.667 -70 77 -91s72.666 -31.5 117.999 -31.5
c46 0 85.5 10.5 118.5 31.5s58.5 51.333 76.5 91s27 87.167 27 142.5s-9 102.833 -27 142.5s-43.5 70 -76.5 91s-72.5 31.5 -118.5 31.5z" />
    <glyph glyph-name="P" unicode="P" horiz-adv-x="610" 
d="M341 660c44.667 0 83.5 -8.16699 116.5 -24.5s58.833 -39.5 77.5 -69.5s28 -65.667 28 -107s-9.33301 -77 -28 -107s-44.5 -53.167 -77.5 -69.5s-71.833 -24.5 -116.5 -24.5h-153v-258h-80v660h233zM329 333c52 0 90 10.833 114 32.5s36 52.834 36 93.501
c0 41.333 -12 72.666 -36 93.999s-62 32 -114 32h-141v-252h141z" />
    <glyph glyph-name="Q" unicode="Q" horiz-adv-x="748" 
d="M534 -195c-34 0 -66.0029 6.33301 -96.0029 19s-54.5 34.334 -73.5 65.001s-28.5 72.667 -28.5 126c0 6 0.166992 12.5 0.5 19.5s0.833008 13.833 1.5 20.5l71 -2c-0.666992 -6.66699 -1.16699 -12.834 -1.5 -18.501s-0.5 -11.167 -0.5 -16.5c0 -38 6 -66.333 18 -85
s27.833 -31.167 47.5 -37.5s40.834 -9.5 63.501 -9.5c24.667 0 47.334 3.33301 68.001 10s37.334 15.667 50.001 27l26 -74c-16 -14 -38.167 -24.833 -66.5 -32.5s-54.833 -11.5 -79.5 -11.5zM373.997 670c62.667 0 116.834 -13.833 162.501 -41.5s81 -66.834 106 -117.501
s37.5 -111 37.5 -181s-12.5 -130.333 -37.5 -181s-60.333 -89.834 -106 -117.501s-99.834 -41.5 -162.501 -41.5s-116.834 13.833 -162.501 41.5s-81 66.834 -106 117.501s-37.5 111 -37.5 181s12.5 130.333 37.5 181s60.333 89.834 106 117.501s99.834 41.5 162.501 41.5z
M373.997 595c-45.333 0 -84.666 -10.5 -117.999 -31.5s-59 -51.333 -77 -91s-27 -87.167 -27 -142.5s9 -102.833 27 -142.5s43.667 -70 77 -91s72.666 -31.5 117.999 -31.5c46 0 85.5 10.5 118.5 31.5s58.5 51.333 76.5 91s27 87.167 27 142.5s-9 102.833 -27 142.5
s-43.5 70 -76.5 91s-72.5 31.5 -118.5 31.5z" />
    <glyph glyph-name="R" unicode="R" horiz-adv-x="665" 
d="M358 660c67.333 0 121.333 -17.333 162 -52s61 -81.667 61 -141s-20.5 -105.5 -61.5 -138.5s-95.167 -49.5 -162.5 -49.5l-7 -5h-162v-274h-80v660h250zM357 349c47.333 0 82.5 9.83301 105.5 29.5s34.5 49.167 34.5 88.5s-11.5 68.833 -34.5 88.5
s-58.167 29.5 -105.5 29.5h-169v-236h169zM403 333l218 -333h-95l-190 289z" />
    <glyph glyph-name="S" unicode="S" horiz-adv-x="641" 
d="M320 670c58 0 108 -11.8311 150 -35.498s77 -58.5 105 -104.5l-67 -52c-24.667 42.667 -52.5 72.834 -83.5 90.501s-68.5 26.5 -112.5 26.5c-35.333 0 -64.5 -5 -87.5 -15s-39.833 -23.167 -50.5 -39.5s-16 -34.833 -16 -55.5c0 -23.333 7.33301 -43.833 22 -61.5
s44 -31.5 88 -41.5l143 -32c63.333 -14 107.5 -35.167 132.5 -63.5s37.5 -63.5 37.5 -105.5c0 -37.333 -10.5 -70.5 -31.5 -99.5s-50.5 -51.5 -88.5 -67.5s-82.667 -24 -134 -24c-48 0 -90.167 6.5 -126.5 19.5s-67.5 30.5 -93.5 52.5s-47.333 46.667 -64 74l70 57
c12.667 -25.333 29 -47.666 49 -66.999s44.167 -34.333 72.5 -45s60.833 -16 97.5 -16c34 0 63.5 4.16699 88.5 12.5s44.167 20.666 57.5 36.999s20 36.166 20 59.499c0 21.333 -7 40.5 -21 57.5s-40.333 29.833 -79 38.5l-155 35
c-40.667 9.33301 -73.5 22.166 -98.5 38.499s-43 35.666 -54 57.999s-16.5 46.5 -16.5 72.5c0 35.333 9.83301 67.833 29.5 97.5s48 53.5 85 71.5s80.833 27 131.5 27z" />
    <glyph glyph-name="T" unicode="T" 
d="M572 660v-75h-230v-585h-80v585h-230v75h540z" />
    <glyph glyph-name="U" unicode="U" horiz-adv-x="708" 
d="M613 660v-414c0 -84.667 -22.333 -148.5 -67 -191.5s-108.667 -64.5 -192 -64.5c-82.667 0 -146.5 21.5 -191.5 64.5s-67.5 106.833 -67.5 191.5v414h80v-394c0 -68.667 14.5 -119.334 43.5 -152.001s74.167 -49 135.5 -49s106.5 16.333 135.5 49
s43.5 83.334 43.5 152.001v394h80z" />
    <glyph glyph-name="V" unicode="V" horiz-adv-x="648" 
d="M620 660l-250 -660h-91l-251 660h86l168 -456l42 -131l42 130l168 457h86z" />
    <glyph glyph-name="W" unicode="W" horiz-adv-x="961" 
d="M231 0l-195 660h83l163 -587l155 587h91l155 -589l163 589h79l-194 -660h-99l-117 428l-34 149h-1l-34 -149l-116 -428h-99z" />
    <glyph glyph-name="X" unicode="X" horiz-adv-x="601" 
d="M569 0h-92l-179 272l-180 -272h-93l231 336l-211 324h94l167 -257l169 257h87l-214 -320z" />
    <glyph glyph-name="Y" unicode="Y" horiz-adv-x="572" 
d="M562 660l-236 -402v-258h-80v258l-236 402h95l128 -226l53 -94l53 94l128 226h95z" />
    <glyph glyph-name="Z" unicode="Z" horiz-adv-x="630" 
d="M128 46l-14 29h461v-75h-519v71l434 543l14 -29h-438v75h496v-71z" />
    <glyph glyph-name="bracketleft" unicode="[" horiz-adv-x="348" 
d="M315 660h-153v-758h153v-70h-228v898h228v-70z" />
    <glyph glyph-name="backslash" unicode="\" horiz-adv-x="437" 
d="M28 730h75l306 -800h-75z" />
    <glyph glyph-name="bracketright" unicode="]" horiz-adv-x="348" 
d="M33 -98h153v758h-153v70h228v-898h-228v70z" />
    <glyph glyph-name="asciicircum" unicode="^" horiz-adv-x="560" 
d="M27 355l215 375h76l215 -375h-81l-172 307l-172 -307h-81z" />
    <glyph glyph-name="underscore" unicode="_" horiz-adv-x="539" 
d="M539 -97v-75h-539v75h539z" />
    <glyph glyph-name="grave" unicode="`" horiz-adv-x="500" 
d="M256 750l76 -167h-65l-98 167h87z" />
    <glyph glyph-name="a" unicode="a" horiz-adv-x="566" 
d="M385 323c0 37.333 -10.0029 66.168 -30.0029 86.501s-48.333 30.5 -85 30.5c-34.667 0 -64 -7.5 -88 -22.5s-41.667 -39.167 -53 -72.5l-65 40c13.333 37.333 38 67.5 74 90.5s80.667 34.5 134 34.5c36 0 68.667 -6.16699 98 -18.5s52.5 -31 69.5 -56
s25.5 -57.167 25.5 -96.5v-242c0 -24 12.667 -36 38 -36c12.667 0 25 1.66699 37 5l-4 -63c-13.333 -6.66699 -30.666 -10 -51.999 -10c-19.333 0 -36.666 3.66699 -51.999 11s-27.333 18.5 -36 33.5s-13 33.833 -13 56.5v10l20 -3c-8 -26 -21.667 -47.167 -41 -63.5
s-41 -28.333 -65 -36s-47.667 -11.5 -71 -11.5c-29.333 0 -56.666 5 -81.999 15s-45.5 25.167 -60.5 45.5s-22.5 45.5 -22.5 75.5c0 37.333 12.5 68.166 37.5 92.499s59.833 40.833 104.5 49.5l198 39v-66l-161 -33c-32.667 -6.66699 -57 -16 -73 -28s-24 -28.667 -24 -50
c0 -20.667 8.16699 -37.5 24.5 -50.5s39.5 -19.5 69.5 -19.5c19.333 0 37.833 2.5 55.5 7.5s33.5 12.667 47.5 23s25 23.333 33 39s12 34.167 12 55.5v138z" />
    <glyph glyph-name="b" unicode="b" horiz-adv-x="627" 
d="M338 -10c-28 0 -54.002 5.00293 -78.002 15.0029s-44.667 24 -62 42s-30.333 38.333 -39 61l11 14l-7 -122h-70v730h80v-343l-10 15c13.333 31.333 35.833 57.166 67.5 77.499s67.834 30.5 108.501 30.5c41.333 0 79.333 -10.333 114 -31s62.334 -50.334 83.001 -89.001
s31 -85.334 31 -140.001c0 -54 -10.5 -100.5 -31.5 -139.5s-48.833 -68.833 -83.5 -89.5s-72.667 -31 -114 -31zM329.998 60.0029c49.333 0 87.832 17.333 115.499 52s41.5 80.667 41.5 138s-13.667 103.333 -41 138s-65.666 52 -114.999 52c-31.333 0 -58.833 -8 -82.5 -24
s-42.167 -38.333 -55.5 -67s-20 -62.334 -20 -101.001c0 -38 6.5 -71.167 19.5 -99.5s31.333 -50.166 55 -65.499s51.167 -23 82.5 -23z" />
    <glyph glyph-name="c" unicode="c" horiz-adv-x="560" 
d="M300 510c34.667 0 65.1709 -5.33301 91.5039 -16s49.166 -26 68.499 -46s35 -43.667 47 -71l-76 -36c-10.667 32 -26.834 56.5 -48.501 73.5s-49.834 25.5 -84.501 25.5c-33.333 0 -62 -7.5 -86 -22.5s-42.333 -36.667 -55 -65s-19 -62.5 -19 -102.5
c0 -39.333 6.33301 -73.333 19 -102s31 -50.5 55 -65.5s52.667 -22.5 86 -22.5c26 0 48.5 4 67.5 12s34.667 19.667 47 35s20.833 34 25.5 56l74 -26c-11.333 -30.667 -26.833 -57 -46.5 -79s-43.334 -38.833 -71.001 -50.5s-59.167 -17.5 -94.5 -17.5
c-46.667 0 -88.334 10.333 -125.001 31s-65.334 50.5 -86.001 89.5s-31 85.5 -31 139.5s10.333 100.5 31 139.5s49.334 68.833 86.001 89.5s78.334 31 125.001 31z" />
    <glyph glyph-name="d" unicode="d" horiz-adv-x="627" 
d="M288 -10c-41.333 0 -79.3281 10.3311 -113.995 30.998s-62.334 50.5 -83.001 89.5s-31 85.5 -31 139.5c0 55.333 11 102.333 33 141s51 68.167 87 88.5s74.667 30.5 116 30.5s77.166 -10.667 107.499 -32s50.5 -49.666 60.5 -84.999l-10 -7v344h80v-730h-70l-7 121l11 6
c-4.66699 -29.333 -15.834 -54.166 -33.501 -74.499s-39.334 -35.833 -65.001 -46.5s-52.834 -16 -81.501 -16zM296.005 59.998c32 0 59.834 8 83.501 24s42 38.833 55 68.5s19.5 64.5 19.5 104.5c0 38 -6.5 70.667 -19.5 98s-31 48.333 -54 63s-49.833 22 -80.5 22
c-50.667 0 -90 -17.333 -118 -52s-42 -80.667 -42 -138s13.667 -103.333 41 -138s65.666 -52 114.999 -52z" />
    <glyph glyph-name="e" unicode="e" horiz-adv-x="577" 
d="M302 -10c-47.333 0 -89.4971 10.332 -126.497 30.999s-65.833 50.5 -86.5 89.5s-31 85.5 -31 139.5s10.333 100.5 31 139.5s49 68.833 85 89.5s77 31 123 31c46.667 0 86.5 -10 119.5 -30s58.167 -47.167 75.5 -81.5s26 -72.833 26 -115.5
c0 -11.333 -0.333008 -21.666 -1 -30.999s-1.66699 -17.666 -3 -24.999h-404v71h369l-41 -8c0 48 -13.167 85 -39.5 111s-60.833 39 -103.5 39c-32.667 0 -60.834 -7.5 -84.501 -22.5s-42 -36.667 -55 -65s-19.5 -62.5 -19.5 -102.5c0 -39.333 6.66699 -73.333 20 -102
s32.166 -50.5 56.499 -65.5s53.5 -22.5 87.5 -22.5c36.667 0 66.5 7 89.5 21s41.5 33 55.5 57l63 -37c-12.667 -22.667 -28.834 -42.334 -48.501 -59.001s-42.667 -29.5 -69 -38.5s-55.833 -13.5 -88.5 -13.5z" />
    <glyph glyph-name="f" unicode="f" horiz-adv-x="393" 
d="M296 735c17.333 0 33.6641 -1.99805 48.9971 -5.99805s27.333 -9.66699 36 -17l-21 -65c-8 5.33301 -16.667 9.16602 -26 11.499s-19.666 3.5 -30.999 3.5c-28.667 0 -51 -6.83301 -67 -20.5s-24 -35.5 -24 -65.5v-76v-26v-474h-80v584c0 22 3.33301 42.333 10 61
s16.834 34.667 30.501 48s30.834 23.666 51.501 30.999s44.667 11 72 11zM378.998 500.002v-69h-347v69h347z" />
    <glyph glyph-name="g" unicode="g" horiz-adv-x="532" 
d="M514 592l18 -70.999h-3h-4c-32.667 0 -57.834 -6.5 -75.501 -19.5s-26.5 -33.833 -26.5 -62.5l-49 25c0 26 6 48.667 18 68s28.333 34.166 49 44.499s43.334 15.5 68.001 15.5h2.5h2.5zM362 64.001c47.333 0 84.333 -10.833 111 -32.5s40 -50.5 40 -86.5
c0 -32.667 -10.833 -61 -32.5 -85s-50.667 -42.5 -87 -55.5s-77.166 -19.5 -122.499 -19.5c-78.667 0 -137.5 13.333 -176.5 40s-58.5 58.667 -58.5 96c0 26.667 8.83301 50.5 26.5 71.5s47.5 32.833 89.5 35.5l-7 -15c-22.667 6 -41.834 16.167 -57.501 30.5
s-23.5 35.166 -23.5 62.499s10.167 50.833 30.5 70.5s50.5 31.834 90.5 36.501l53 -27h-10c-32.667 -3.33301 -55.834 -11.5 -69.501 -24.5s-20.5 -27.167 -20.5 -42.5c0 -18.667 6.83301 -32.5 20.5 -41.5s32.834 -13.5 57.501 -13.5h146zM270 -147.999
c38.667 0 70.499 4 95.499 12s43.5 18.333 55.5 31s18 26.334 18 41.001c0 18 -7.16699 32.333 -21.5 43s-40.166 16 -77.499 16h-154c-21.333 0 -39.333 -5.5 -54 -16.5s-22 -26.167 -22 -45.5c0 -24.667 14.167 -44.334 42.5 -59.001s67.5 -22 117.5 -22zM262.999 510.001
c40 0 75.499 -7.16602 106.499 -21.499s55.167 -34.166 72.5 -59.499s26 -54.666 26 -87.999c0 -32.667 -8.66699 -61.834 -26 -87.501s-41.5 -45.667 -72.5 -60s-66.5 -21.5 -106.5 -21.5c-66 0 -116.667 15.833 -152 47.5s-53 72.167 -53 121.5
c0 33.333 8.83301 62.666 26.5 87.999s41.834 45.166 72.501 59.499s66 21.5 106 21.5zM262.998 445.002c-34.667 0 -63.667 -9.5 -87 -28.5s-35 -44.167 -35 -75.5c0 -30.667 11.667 -55.667 35 -75s52.333 -29 87 -29s63.667 9.66699 87 29s35 44.333 35 75
c0 31.333 -11.667 56.5 -35 75.5s-52.333 28.5 -87 28.5z" />
    <glyph glyph-name="h" unicode="h" horiz-adv-x="619" 
d="M93 0l0.000976562 730.001h80v-305c17.333 30 40.333 51.667 69 65s60 20 94 20c36 0 68.667 -6.83301 98 -20.5s52.833 -34.5 70.5 -62.5s26.5 -63.667 26.5 -107v-320h-80v292c0 55.333 -11.833 93.833 -35.5 115.5s-52.834 32.5 -87.501 32.5
c-24 0 -48 -5.66699 -72 -17s-43.833 -29.833 -59.5 -55.5s-23.5 -59.834 -23.5 -102.501v-265h-80z" />
    <glyph glyph-name="i" unicode="i" horiz-adv-x="266" 
d="M133 596c-18 0 -32.5 5.5 -43.5 16.5s-16.5 25.5 -16.5 43.5s5.5 32.5 16.5 43.5s25.5 16.5 43.5 16.5s32.5 -5.5 43.5 -16.5s16.5 -25.5 16.5 -43.5s-5.5 -32.5 -16.5 -43.5s-25.5 -16.5 -43.5 -16.5zM173 500v-500h-80v500h80z" />
    <glyph glyph-name="j" unicode="j" horiz-adv-x="266" 
d="M133 596c-18 0 -32.5 5.5 -43.5 16.5s-16.5 25.5 -16.5 43.5s5.5 32.5 16.5 43.5s25.5 16.5 43.5 16.5s32.5 -5.5 43.5 -16.5s16.5 -25.5 16.5 -43.5s-5.5 -32.5 -16.5 -43.5s-25.5 -16.5 -43.5 -16.5zM173 500l-0.000976562 -550.999c0 -41.333 -8 -74 -24 -98
s-35.667 -41 -59 -51s-46.333 -15 -69 -15c-20.667 0 -39.667 3.16699 -57 9.5s-31.666 14.166 -42.999 23.499l17 76c9.33301 -8.66699 21 -16 35 -22s29.667 -9 47 -9c21.333 0 38.833 7 52.5 21s20.5 38.333 20.5 73v543h80z" />
    <glyph glyph-name="k" unicode="k" horiz-adv-x="567" 
d="M532 500l-216 -216l-19 -19l-164 -164v100l298 299h101zM173 730v-730h-80v730h80zM323 325l221 -325h-97l-191 280z" />
    <glyph glyph-name="l" unicode="l" horiz-adv-x="306" 
d="M169 730l0.000976562 -603c0 -25.333 4.66699 -42.833 14 -52.5s24.333 -14.5 45 -14.5c13.333 0 24.333 1 33 3s20.334 5.66699 35.001 11l-13 -70c-10.667 -4.66699 -22.334 -8.16699 -35.001 -10.5s-25.667 -3.5 -39 -3.5c-40.667 0 -70.834 11 -90.501 33
s-29.5 55.667 -29.5 101v606h80z" />
    <glyph glyph-name="m" unicode="m" horiz-adv-x="953" 
d="M93 0l0.00195312 500h70l5 -78c18 30.667 41.5 53 70.5 67s58.833 21 89.5 21c35.333 0 68.666 -8 99.999 -24s55.333 -40.667 72 -74c10.667 22.667 25.667 41.167 45 55.5s40.5 25 63.5 32s44.833 10.5 65.5 10.5c32 0 62.5 -6.66699 91.5 -20s52.833 -34 71.5 -62
s28 -64 28 -108v-320h-80v312c0 45.333 -11.333 78 -34 98s-50.667 30 -84 30c-26 0 -50.333 -6.33301 -73 -19s-40.834 -31.334 -54.501 -56.001s-20.5 -55 -20.5 -91v-274h-80v312c0 45.333 -11.333 78 -34 98s-50.667 30 -84 30c-22 0 -44.5 -5.83301 -67.5 -17.5
s-42.167 -30.167 -57.5 -55.5s-23 -58.666 -23 -99.999v-267h-80z" />
    <glyph glyph-name="n" unicode="n" horiz-adv-x="619" 
d="M93 0l0.000976562 500h70l7 -112l-13 11c10.667 26.667 25 48.167 43 64.5s38.833 28.166 62.5 35.499s48.167 11 73.5 11c36 0 68.667 -6.83301 98 -20.5s52.833 -34.5 70.5 -62.5s26.5 -63.667 26.5 -107v-320h-80v292c0 55.333 -11.833 93.833 -35.5 115.5
s-52.834 32.5 -87.501 32.5c-24 0 -48 -5.66699 -72 -17s-43.833 -29.666 -59.5 -54.999s-23.5 -59.333 -23.5 -102v-266h-80z" />
    <glyph glyph-name="o" unicode="o" horiz-adv-x="600" 
d="M300 510c47.333 0 89.166 -10.333 125.499 -31s64.833 -50.5 85.5 -89.5s31 -85.5 31 -139.5s-10.333 -100.5 -31 -139.5s-49.167 -68.833 -85.5 -89.5s-78.166 -31 -125.499 -31c-46.667 0 -88.334 10.333 -125.001 31s-65.334 50.5 -86.001 89.5s-31 85.5 -31 139.5
s10.333 100.5 31 139.5s49.334 68.833 86.001 89.5s78.334 31 125.001 31zM300 441c-34 0 -63 -7.66699 -87 -23s-42.5 -37.166 -55.5 -65.499s-19.5 -62.5 -19.5 -102.5c0 -39.333 6.5 -73.333 19.5 -102s31.5 -50.667 55.5 -66s53 -23 87 -23s63 7.66699 87 23
s42.5 37.333 55.5 66s19.5 62.667 19.5 102c0 40 -6.5 74.167 -19.5 102.5s-31.5 50.166 -55.5 65.499s-53 23 -87 23z" />
    <glyph glyph-name="p" unicode="p" horiz-adv-x="627" 
d="M93 -210l-0.000976562 710.003h70l7 -122l-11 14c8.66699 23.333 21.667 43.833 39 61.5s38.333 31.5 63 41.5s51.334 15 80.001 15c40.667 0 78.167 -10.333 112.5 -31s61.833 -50.334 82.5 -89.001s31 -85.334 31 -140.001c0 -54 -10.5 -100.5 -31.5 -139.5
s-48.833 -68.833 -83.5 -89.5s-72.667 -31 -114 -31s-77.5 10.167 -108.5 30.5s-53.167 46.166 -66.5 77.499l10 15v-323h-80zM329.999 60.0029c49.333 0 87.833 17.334 115.5 52.001s41.5 80.667 41.5 138s-13.5 103.333 -40.5 138s-64.833 52 -113.5 52
c-32 0 -60 -7.83301 -84 -23.5s-42.667 -37.667 -56 -66s-20 -61.833 -20 -100.5c0 -38 6.5 -71.333 19.5 -100s31.333 -50.834 55 -66.501s51.167 -23.5 82.5 -23.5z" />
    <glyph glyph-name="q" unicode="q" horiz-adv-x="627" 
d="M454 -210l0.00390625 346.999l14 -10c-4.66699 -29.333 -15.834 -54.166 -33.501 -74.499s-39.334 -35.833 -65.001 -46.5s-52.834 -16 -81.501 -16c-41.333 0 -79.333 10.333 -114 31s-62.334 50.5 -83.001 89.5s-31 85.5 -31 139.5c0 55.333 11 102.333 33 141
s51 68.167 87 88.5s74.667 30.5 116 30.5c28 0 54 -5.16699 78 -15.5s44.5 -25 61.5 -44s28.167 -41.5 33.5 -67.5h-12l7 117h70v-710h-80zM296.004 59.999c31.333 0 58.833 7.83203 82.5 23.499s42.167 38 55.5 67s20 63.167 20 102.5c0 40 -6.5 73.833 -19.5 101.5
s-31.167 48.834 -54.5 63.501s-50.666 22 -81.999 22c-49.333 0 -88 -17.333 -116 -52s-42 -80.667 -42 -138s13.667 -103.333 41 -138s65.666 -52 114.999 -52z" />
    <glyph glyph-name="r" unicode="r" horiz-adv-x="408" 
d="M93 0l0.000976562 499.999h65l11 -82c14 30.667 34.5 53.667 61.5 69s59.833 23 98.5 23c8.66699 0 18.167 -0.666992 28.5 -2s19.166 -4 26.499 -8l-14 -73c-7.33301 2.66699 -15.333 4.66699 -24 6s-21 2 -37 2c-20.667 0 -41.5 -6 -62.5 -18
s-38.5 -30.167 -52.5 -54.5s-21 -55.166 -21 -92.499v-270h-80z" />
    <glyph glyph-name="s" unicode="s" horiz-adv-x="527" 
d="M273 -10c-48.667 0 -93.5029 10.332 -134.503 30.999s-72.5 50 -94.5 88l68 49c14.667 -30.667 36.167 -54.667 64.5 -72s62.5 -26 102.5 -26c35.333 0 63 6.83301 83 20.5s30 31.5 30 53.5c0 14 -4.5 26.833 -13.5 38.5s-26.167 20.167 -51.5 25.5l-120 25
c-48.667 10 -83.5 26.667 -104.5 50s-31.5 52.333 -31.5 87c0 27.333 7.83301 52.333 23.5 75s38 40.834 67 54.501s63.167 20.5 102.5 20.5c49.333 0 91 -9.66699 125 -29s59.333 -46.666 76 -81.999l-67 -44c-11.333 29.333 -29.666 50.833 -54.999 64.5
s-51.666 20.5 -78.999 20.5c-24 0 -44.5 -3.33301 -61.5 -10s-30 -15.834 -39 -27.501s-13.5 -24.834 -13.5 -39.501s5 -28.167 15 -40.5s28.667 -21.166 56 -26.499l125 -26c46.667 -9.33301 79.334 -24.666 98.001 -45.999s28 -47.333 28 -78
c0 -31.333 -8.33301 -58.833 -25 -82.5s-40 -41.834 -70 -54.501s-64.667 -19 -104 -19z" />
    <glyph glyph-name="t" unicode="t" horiz-adv-x="419" 
d="M211 642v-504c0 -24.667 7 -43 21 -55s32 -18 54 -18c19.333 0 36 3.33301 50 10s26.667 15.667 38 27l28 -67c-15.333 -14 -33.5 -25 -54.5 -33s-45.167 -12 -72.5 -12c-25.333 0 -49 4.5 -71 13.5s-39.5 23.333 -52.5 43s-19.833 45.5 -20.5 77.5v496zM393 500v-69
h-362v69h362z" />
    <glyph glyph-name="u" unicode="u" horiz-adv-x="617" 
d="M274 -10c-32 0 -62.166 6.00098 -90.499 18.001s-51.333 31.5 -69 58.5s-26.5 62.167 -26.5 105.5v328h80v-307c0 -50.667 11 -85.5 33 -104.5s53 -28.5 93 -28.5c18.667 0 37 3.16699 55 9.5s34.167 16.333 48.5 30s25.666 31.167 33.999 52.5s12.5 46.666 12.5 75.999
v272h80v-500h-70l-5 76c-17.333 -30 -40.833 -51.833 -70.5 -65.5s-64.5 -20.5 -104.5 -20.5z" />
    <glyph glyph-name="v" unicode="v" horiz-adv-x="520" 
d="M424 500h84l-208 -500h-80l-208 500h91l158 -419z" />
    <glyph glyph-name="w" unicode="w" horiz-adv-x="836" 
d="M720 500h89l-174 -500h-80l-141 398l-133 -398h-80l-174 500h89l126 -407l136 407h80l136 -407z" />
    <glyph glyph-name="x" unicode="x" horiz-adv-x="533" 
d="M141 500l149 -209l5 -7l205 -284h-98l-155 217l-9 11l-197 272h100zM497 500l-198 -267h-5l-172 -233h-93l218 287h6l150 213h94z" />
    <glyph glyph-name="y" unicode="y" horiz-adv-x="516" 
d="M504 500l-234.999 -584.001c-12.667 -32.667 -26.5 -58.5 -41.5 -77.5s-31.667 -32.667 -50 -41s-39.5 -12.5 -63.5 -12.5c-22.667 0 -43.5 3.16699 -62.5 9.5s-35.833 14.833 -50.5 25.5l22 70c13.333 -12 27.5 -20.833 42.5 -26.5s29.833 -8.5 44.5 -8.5
c17.333 0 33.666 5.33301 48.999 16s29.333 32.334 42 65.001l26 65l-50 119l-159 380h91l125 -326l31 -89l36 99l117 316h86z" />
    <glyph glyph-name="z" unicode="z" horiz-adv-x="534" 
d="M57 0v61l262 307l63 65l-89 -2h-233v69h411v-61l-262 -307l-62 -65l97 2h235v-69h-422z" />
    <glyph glyph-name="braceleft" unicode="{" horiz-adv-x="351" 
d="M304 -189c-39.333 0 -71 4.83203 -95 14.499s-41.5 23.834 -52.5 42.501s-16.5 41 -16.5 67v207c0 37.333 -8.5 64 -25.5 80s-45.833 24 -86.5 24v70c40.667 0 69.5 8 86.5 24s25.5 42.667 25.5 80v207c0 26.667 5.5 49.167 16.5 67.5s28.5 32.333 52.5 42
s55.667 14.5 95 14.5v-65c-32.667 0 -55.667 -4.33301 -69 -13s-20 -22 -20 -40v-220c0 -36 -9.66699 -65 -29 -87s-47.666 -37 -84.999 -45c37.333 -8 65.666 -23 84.999 -45s29 -51 29 -87v-220c0 -18 6.66699 -31.333 20 -40s36.333 -13 69 -13v-65z" />
    <glyph glyph-name="bar" unicode="|" horiz-adv-x="243" 
d="M156 730v-898h-69v898h69z" />
    <glyph glyph-name="braceright" unicode="}" horiz-adv-x="351" 
d="M47 751c39.333 0 71 -4.83203 95 -14.499s41.5 -23.667 52.5 -42s16.5 -40.833 16.5 -67.5v-207c0 -37.333 8.5 -64 25.5 -80s45.833 -24 86.5 -24v-70c-40.667 0 -69.5 -8 -86.5 -24s-25.5 -42.667 -25.5 -80v-207c0 -26 -5.5 -48.333 -16.5 -67
s-28.5 -32.834 -52.5 -42.501s-55.667 -14.5 -95 -14.5v65c32.667 0 55.667 4.33301 69 13s20 22 20 40v220c0 36 9.83301 65 29.5 87s47.834 37 84.501 45c-36.667 8 -64.834 23 -84.501 45s-29.5 51 -29.5 87v220c0 18 -6.66699 31.333 -20 40s-36.333 13 -69 13v65z" />
    <glyph glyph-name="asciitilde" unicode="~" horiz-adv-x="540" 
d="M497 384c-4 -48.667 -16.832 -85.667 -38.499 -111s-52.167 -38 -91.5 -38c-22.667 0 -42.334 3.66699 -59.001 11s-31.5 16 -44.5 26s-26 18.667 -39 26s-27.5 11 -43.5 11c-17.333 0 -31 -6.66699 -41 -20s-17 -31.333 -21 -54h-76c4 49.333 16.667 86.5 38 111.5
s52.333 37.5 93 37.5c22 0 41.333 -3.66699 58 -11s31.667 -16 45 -26s26.5 -18.667 39.5 -26s27.167 -11 42.5 -11c17.333 0 31 6.66699 41 20s17 31.333 21 54h76z" />
    <glyph glyph-name="uni00A0" unicode="&#xa0;" horiz-adv-x="341" 
 />
    <glyph glyph-name="exclamdown" unicode="&#xa1;" horiz-adv-x="264" 
d="M90 -160v286l12 166h60l12 -166v-286h-84zM132 380c-19.333 0 -35 6 -47 18s-18 27.667 -18 47s6 35 18 47s27.667 18 47 18s35 -6 47 -18s18 -27.667 18 -47s-6 -35 -18 -47s-27.667 -18 -47 -18z" />
    <glyph glyph-name="cent" unicode="&#xa2;" horiz-adv-x="567" 
d="M310 -10c-47.333 0 -89.334 10.334 -126.001 31.001s-65.5 50.5 -86.5 89.5s-31.5 85.5 -31.5 139.5s10.5 100.5 31.5 139.5s49.833 68.833 86.5 89.5s78.667 31 126 31c34.667 0 65.167 -5.33301 91.5 -16s49 -26 68 -46s34.167 -43.667 45.5 -71l-76 -36
c-10.667 34 -27 59.833 -49 77.5s-49.333 26.5 -82 26.5c-48 0 -87.833 -17 -119.5 -51s-47.5 -82 -47.5 -144c0 -41.333 7.33301 -76.5 22 -105.5s34.5 -51.167 59.5 -66.5s53.5 -23 85.5 -23c24.667 0 46.167 4 64.5 12s33.833 20.167 46.5 36.5
s22.334 36.166 29.001 59.499l72 -25c-10.667 -30.667 -25.667 -57 -45 -79s-42.833 -39 -70.5 -51s-59.167 -18 -94.5 -18zM269.999 -99.999v700h67v-700h-67z" />
    <glyph glyph-name="sterling" unicode="&#xa3;" horiz-adv-x="620" 
d="M80 278v65h387v-65h-387zM154 -10c-34 0 -60.8438 8.16797 -80.5107 24.501s-29.5 36.833 -29.5 61.5c0 16 4.66699 30.667 14 44s23 24.166 41 32.499s40.333 12.5 67 12.5s49.834 -3.66699 69.501 -11s37.5 -16.5 53.5 -27.5s31.333 -22.167 46 -33.5
s30 -20.666 46 -27.999s34.333 -11 55 -11c28.667 0 49.334 7.83301 62.001 23.5s19.334 40.834 20.001 75.501h65c0 -35.333 -5.33301 -65.166 -16 -89.499s-26.167 -42.666 -46.5 -54.999s-44.833 -18.5 -73.5 -18.5c-24.667 0 -47.167 3.83301 -67.5 11.5
s-39.666 17.167 -57.999 28.5s-36 22.833 -53 34.5s-34.167 21.334 -51.5 29.001s-35.333 11.5 -54 11.5c-16 0 -27.667 -2.5 -35 -7.5s-11 -12.167 -11 -21.5c0 -10.667 4.5 -18.667 13.5 -24s20.167 -8 33.5 -8c27.333 0 47.333 5.83301 60 17.5s20.834 26.667 24.501 45
s5.5 37.166 5.5 56.499c0 27.333 -4.66699 52.166 -14 74.499s-23.666 49.5 -42.999 81.5c-12.667 22 -23 41.667 -31 59s-13.667 33.833 -17 49.5s-5 31.5 -5 47.5c0 40 9.33301 74.667 28 104s43.834 51.833 75.501 67.5s66.834 23.5 105.501 23.5
c52.667 0 95.334 -12.833 128.001 -38.5s56.334 -64.834 71.001 -117.501l-69 -38c-9.33301 38 -23.833 67.667 -43.5 89s-49.167 32 -88.5 32c-40.667 0 -73 -10.5 -97 -31.5s-36 -51.167 -36 -90.5c0 -14 1 -26.833 3 -38.5s5.83301 -24.167 11.5 -37.5s13.5 -30 23.5 -50
c18.667 -34.667 33.334 -67 44.001 -97s16 -58.333 16 -85c0 -20 -2.5 -40.333 -7.5 -61s-13.667 -39.834 -26 -57.501s-29 -31.834 -50 -42.501s-47.167 -16 -78.5 -16z" />
    <glyph glyph-name="currency" unicode="&#xa4;" horiz-adv-x="665" 
d="M333 539c40.667 0 76.834 -9 108.501 -27s56.5 -42.833 74.5 -74.5s27 -67.834 27 -108.501s-9 -76.834 -27 -108.501s-42.833 -56.667 -74.5 -75s-67.834 -27.5 -108.501 -27.5s-76.834 9.16699 -108.501 27.5s-56.667 43.333 -75 75s-27.5 67.834 -27.5 108.501
s9.16699 76.834 27.5 108.501s43.333 56.5 75 74.5s67.834 27 108.501 27zM333 467c-38 0 -69.333 -13 -94 -39s-37 -59 -37 -99c0 -40.667 12.333 -74 37 -100s56 -39 94 -39c37.333 0 68.333 13 93 39s37 59.333 37 100c0 40 -12.333 73 -37 99s-55.667 39 -93 39z
M121 591l119 -117l-51 -50l-119 116zM187 236l50 -51l-116 -119l-51 51zM476 233l119 -116l-51 -51l-119 116zM544 591l51 -51l-116 -119l-51 51z" />
    <glyph glyph-name="yen" unicode="&#xa5;" horiz-adv-x="620" 
d="M275 0v107h-192v55h192v75h-192v60h129l44 -4l-222 367h93l134 -243l48 -99h2l48 100l134 242h93l-222 -367l44 4h130v-60h-193v-75h193v-55h-193v-107h-70z" />
    <glyph glyph-name="brokenbar" unicode="&#xa6;" horiz-adv-x="243" 
d="M156 730v-363h-69v363h69zM156 195v-363h-69v363h69z" />
    <glyph glyph-name="section" unicode="&#xa7;" horiz-adv-x="598" 
d="M417 138l-49 30.002c26.667 0.666992 49.167 4.5 67.5 11.5s32.333 16.833 42 29.5s14.5 27.334 14.5 44.001c0 19.333 -6.66699 36.833 -20 52.5s-41.333 27.167 -84 34.5l-144 25c-35.333 6.66699 -64 16.667 -86 30s-37.833 29.833 -47.5 49.5
s-14.5 41.167 -14.5 64.5c0 31.333 8.83301 59.166 26.5 83.499s42.5 43.333 74.5 57s69.333 20.5 112 20.5c46.667 0 88 -8.33301 124 -25s65.333 -41.334 88 -74.001l-62 -48c-18.667 28 -40.5 48 -65.5 60s-54.167 18 -87.5 18c-42.667 0 -75.834 -8 -99.501 -24
s-35.5 -36.667 -35.5 -62c0 -12.667 2.33301 -24.334 7 -35.001s13.334 -19.834 26.001 -27.501s31 -13.5 55 -17.5l141 -24c44 -7.33301 78.167 -17.666 102.5 -30.999s41.333 -29 51 -47s14.5 -38.333 14.5 -61c0 -21.333 -5 -41.833 -15 -61.5s-26.167 -36 -48.5 -49
s-51.5 -20.833 -87.5 -23.5zM284 -109.998c-58.667 0 -106.336 9.83203 -143.003 29.499s-64.334 43.834 -83.001 72.501l62 51c14 -25.333 34.5 -46 61.5 -62s62.833 -24 107.5 -24s79.334 8.33301 104.001 25s37 39.334 37 68.001c0 16.667 -5.66699 31 -17 43
s-29.666 20.333 -54.999 25l-169 33c-36.667 7.33301 -66.667 17.5 -90 30.5s-40.5 29 -51.5 48s-16.5 40.833 -16.5 65.5c0 21.333 5.33301 40.666 16 57.999s25.5 31.666 44.5 42.999s41.833 18.333 68.5 21l35 -25c-18 -4.66699 -33.667 -10.667 -47 -18
s-23.666 -16.333 -30.999 -27s-11 -23.334 -11 -38.001c0 -19.333 7.83301 -37.166 23.5 -53.499s43.167 -28.166 82.5 -35.499l157 -28c48.667 -8.66699 83.334 -25.334 104.001 -50.001s31 -53.334 31 -86.001c0 -31.333 -8.83301 -59.666 -26.5 -84.999
s-43 -45.166 -76 -59.499s-72.167 -21.5 -117.5 -21.5z" />
    <glyph glyph-name="dieresis" unicode="&#xa8;" horiz-adv-x="500" 
d="M153 696c17.333 0 31.166 -5.16699 41.499 -15.5s15.5 -24.166 15.5 -41.499c0 -16.667 -5.16699 -30.334 -15.5 -41.001s-24.166 -16 -41.499 -16c-16.667 0 -30.334 5.33301 -41.001 16s-16 24.334 -16 41.001c0 17.333 5.33301 31.166 16 41.499
s24.334 15.5 41.001 15.5zM347 696c17.333 0 31.166 -5.16699 41.499 -15.5s15.5 -24.166 15.5 -41.499c0 -16.667 -5.16699 -30.334 -15.5 -41.001s-24.166 -16 -41.499 -16c-16.667 0 -30.334 5.33301 -41.001 16s-16 24.334 -16 41.001
c0 17.333 5.33301 31.166 16 41.499s24.334 15.5 41.001 15.5z" />
    <glyph glyph-name="copyright" unicode="&#xa9;" horiz-adv-x="820" 
d="M410 -10c-68 0 -127.667 15 -179 45s-91.333 70.667 -120 122s-43 109 -43 173c0 64.667 14.333 122.5 43 173.5s68.667 91.5 120 121.5s111 45 179 45s127.667 -15 179 -45s91.333 -70.5 120 -121.5s43 -108.833 43 -173.5c0 -64 -14.333 -121.667 -43 -173
s-68.667 -92 -120 -122s-111 -45 -179 -45zM410 55c54 0 101.333 12.167 142 36.5s72.334 57.333 95.001 99s34 88.167 34 139.5s-11.333 97.833 -34 139.5s-54.334 74.667 -95.001 99s-88 36.5 -142 36.5c-53.333 0 -100.5 -12.167 -141.5 -36.5s-72.833 -57.333 -95.5 -99
s-34 -88.167 -34 -139.5s11.333 -97.833 34 -139.5s54.5 -74.667 95.5 -99s88.167 -36.5 141.5 -36.5zM417 143c-56.667 0 -101.167 16.501 -133.5 49.501s-48.5 78.167 -48.5 135.5s16.167 102.5 48.5 135.5s76.833 49.5 133.5 49.5c39.333 0 72 -8.5 98 -25.5
s45.333 -40.167 58 -69.5l-58 -29c-8.66699 21.333 -21 37.333 -37 48s-36.667 16 -62 16c-35.333 0 -63.166 -11 -83.499 -33s-30.5 -52.667 -30.5 -92s10.167 -70 30.5 -92s48.166 -33 83.499 -33c26.667 0 48.834 5.5 66.501 16.5s30.834 27.833 39.501 50.5l55 -22
c-12.667 -32.667 -32.334 -58.334 -59.001 -77.001s-60.334 -28 -101.001 -28z" />
    <glyph glyph-name="ordfeminine" unicode="&#xaa;" horiz-adv-x="382" 
d="M139 327c-34.667 0 -61.999 8.16895 -81.999 24.502s-30 37.833 -30 64.5c0 26 8.16699 46.667 24.5 62s44.833 26.666 85.5 33.999l116 21v-45l-94 -19c-24 -4.66699 -40.333 -10.5 -49 -17.5s-13 -17.167 -13 -30.5c0 -12.667 4.66699 -22.5 14 -29.5
s22.333 -10.5 39 -10.5c13.333 0 27.166 2.16699 41.499 6.5s26.333 12.333 36 24s14.5 27.834 14.5 48.501v85c0 20.667 -6.16699 36.834 -18.5 48.501s-28.5 17.5 -48.5 17.5c-20.667 0 -39.667 -4.83301 -57 -14.5s-31.333 -26.167 -42 -49.5l-49 29
c9.33301 25.333 26.333 46.5 51 63.5s56 25.5 94 25.5c43.333 0 77.166 -9.83301 101.499 -29.5s36.5 -49.167 36.5 -88.5v-140c0 -12 3 -20.167 9 -24.5s13.333 -6.5 22 -6.5c10.667 0 18.667 1.33301 24 4l-5 -44c-5.33301 -2.66699 -11.333 -4.83398 -18 -6.50098
s-13.667 -2.5 -21 -2.5c-21.333 0 -38.166 6.16699 -50.499 18.5s-18.5 30.166 -18.5 53.499v15l10 -11c-6 -14 -14.833 -26.833 -26.5 -38.5s-25.667 -20.834 -42 -27.501s-34.5 -10 -54.5 -10zM26.001 201.002v53h320v-53h-320z" />
    <glyph glyph-name="guillemotleft" unicode="&#xab;" horiz-adv-x="493" 
d="M264 461l-128 -196l128 -196h-87l-126 196l126 196h87zM441 461l-128 -196l128 -196h-87l-126 196l126 196h87z" />
    <glyph glyph-name="logicalnot" unicode="&#xac;" 
d="M545 319v-188h-80v188h80zM545 354v-75h-486v75h486z" />
    <glyph glyph-name="uni00AD" unicode="&#xad;" horiz-adv-x="510" 
d="M420 303v-83h-330v83h330z" />
    <glyph glyph-name="registered" unicode="&#xae;" horiz-adv-x="820" 
d="M410 -10c-68 0 -127.667 15 -179 45s-91.333 70.667 -120 122s-43 109 -43 173c0 64.667 14.333 122.5 43 173.5s68.667 91.5 120 121.5s111 45 179 45s127.667 -14.833 179 -44.5s91.333 -70.167 120 -121.5s43 -109.333 43 -174c0 -64 -14.333 -121.667 -43 -173
s-68.667 -92 -120 -122s-111 -45 -179 -45zM493 143l-100 150l55 23l121 -173h-76zM410 55c54 0 101.333 12.167 142 36.5s72.334 57.333 95.001 99s34 88.167 34 139.5s-11.333 97.833 -34 139.5s-54.334 74.667 -95.001 99s-88 36.5 -142 36.5
c-53.333 0 -100.5 -12.167 -141.5 -36.5s-72.833 -57.333 -95.5 -99s-34 -88.167 -34 -139.5s11.333 -97.833 34 -139.5s54.5 -74.667 95.5 -99s88.167 -36.5 141.5 -36.5zM269 143v370h152c28 0 52.5 -4.83301 73.5 -14.5s37.333 -23.167 49 -40.5s17.5 -38.333 17.5 -63
c0 -36.667 -13 -65.5 -39 -86.5s-59.667 -31.5 -101 -31.5h-85v-134h-67zM336 328h84c24 0 42.333 5.5 55 16.5s19 27.833 19 50.5s-6.33301 39.5 -19 50.5s-31 16.5 -55 16.5h-84v-134z" />
    <glyph glyph-name="macron" unicode="&#xaf;" horiz-adv-x="500" 
d="M414 663v-67h-328v67h328z" />
    <glyph glyph-name="degree" unicode="&#xb0;" horiz-adv-x="460" 
d="M230 340c-32.667 0 -61.834 7.16699 -87.501 21.5s-45.834 33.833 -60.501 58.5s-22 53 -22 85s7.33301 60.5 22 85.5s34.834 44.5 60.501 58.5s54.834 21 87.501 21c33.333 0 62.666 -7 87.999 -21s45.333 -33.5 60 -58.5s22 -53.5 22 -85.5s-7.33301 -60.333 -22 -85
s-34.667 -44.167 -60 -58.5s-54.666 -21.5 -87.999 -21.5zM230 405c29.333 0 53.333 9.5 72 28.5s28 42.833 28 71.5c0 29.333 -9.33301 53.333 -28 72s-42.667 28 -72 28c-28.667 0 -52.5 -9.33301 -71.5 -28s-28.5 -42.667 -28.5 -72c0 -28.667 9.5 -52.5 28.5 -71.5
s42.833 -28.5 71.5 -28.5z" />
    <glyph glyph-name="plusminus" unicode="&#xb1;" 
d="M340 640v-486h-75v486h75zM545 434v-75h-486v75h486zM545 75v-75h-486v75h486z" />
    <glyph glyph-name="uni00B2" unicode="&#xb2;" horiz-adv-x="365" 
d="M39 333l-0.00195312 47.998l46 33c15.333 10.667 30.666 22 45.999 34c32 25.333 57 46.833 75 64.5s30.5 33.5 37.5 47.5s10.5 28.667 10.5 44c0 21.333 -6.5 38.833 -19.5 52.5s-32.167 20.5 -57.5 20.5c-26 0 -46.5 -8.16699 -61.5 -24.5
s-23.167 -39.166 -24.5 -68.499l-63 22c2.66699 40.667 17.667 72.334 45 95.001s63 34 107 34c32.667 0 59.834 -6 81.501 -18s38 -27.667 49 -47s16.5 -40 16.5 -62c0 -19.333 -5.16699 -38.833 -15.5 -58.5s-26.166 -39.834 -47.499 -60.501s-48.666 -42.667 -81.999 -66
l-25.5 -17.5l-26.5 -17.5v-1c6 0.666992 16.5 1.33398 31.5 2.00098s25.833 1 32.5 1h142v-57h-297z" />
    <glyph glyph-name="uni00B3" unicode="&#xb3;" horiz-adv-x="362" 
d="M181 735c44 0 78.002 -10.001 102.002 -30.001s36 -46 36 -78c0 -20 -4.16699 -37 -12.5 -51s-18.666 -24.5 -30.999 -31.5s-24.166 -10.833 -35.499 -11.5v-1c13.333 0 26.833 -3.5 40.5 -10.5s25 -17.167 34 -30.5s13.5 -30.333 13.5 -51
c0 -22.667 -6.5 -42.5 -19.5 -59.5s-30.667 -30.167 -53 -39.5s-48.166 -14 -77.499 -14c-40.667 0 -73.834 7.83301 -99.501 23.5s-43.834 39.834 -54.501 72.501l67 30c4 -22.667 13 -39.667 27 -51s33.667 -17 59 -17c23.333 0 42.166 5.83301 56.499 17.5
s21.5 27.5 21.5 47.5c0 21.333 -7.5 36 -22.5 44s-35.833 12 -62.5 12h-8c-2.66699 0 -5.66699 -0.333008 -9 -1v52c2.66699 -0.666992 5.16699 -1 7.5 -1h6.5c25.333 0 44.666 5 57.999 15s20 25 20 45s-6 35.167 -18 45.5s-28.667 15.5 -50 15.5
c-20.667 0 -37.5 -5 -50.5 -15s-21.5 -25 -25.5 -45l-65 23c8.66699 32.667 26.167 56.667 52.5 72s57.166 23 92.499 23z" />
    <glyph glyph-name="acute" unicode="&#xb4;" horiz-adv-x="600" 
d="M295 750h87l-98 -167h-65z" />
    <glyph glyph-name="uni00B5" unicode="&#xb5;" horiz-adv-x="622" 
d="M93 -210l-0.00195312 710h80v-306c0 -46.667 11 -80.667 33 -102s53 -32 93 -32c26.667 0 51.334 5.83301 74.001 17.5s41 30.5 55 56.5s21 60.333 21 103v263h80v-500h-65l-7 81c-16.667 -30 -39.334 -52.667 -68.001 -68s-60 -23 -94 -23
c-25.333 0 -48.666 4 -69.999 12s-38.666 21 -51.999 39v0v-251h-80z" />
    <glyph glyph-name="paragraph" unicode="&#xb6;" horiz-adv-x="657" 
d="M294 -100v291.002c-50.667 0 -95 9.83301 -133 29.5s-67.5 47.167 -88.5 82.5s-31.5 76 -31.5 122c0 47.333 11.333 88.666 34 123.999s54.667 62.666 96 81.999s89.333 29 144 29h251v-760h-70v693h-129v-693h-73zM294 258.002v335c-38 0 -70.167 -6.83301 -96.5 -20.5
s-46.333 -33.167 -60 -58.5s-20.5 -55 -20.5 -89c0 -34.667 6.83301 -64.5 20.5 -89.5s33.667 -44.167 60 -57.5s58.5 -20 96.5 -20z" />
    <glyph glyph-name="periodcentered" unicode="&#xb7;" horiz-adv-x="226" 
d="M113 420c19.333 0 35 -6 47 -18s18 -27.667 18 -47s-6 -35 -18 -47s-27.667 -18 -47 -18s-35 6 -47 18s-18 27.667 -18 47s6 35 18 47s27.667 18 47 18z" />
    <glyph glyph-name="cedilla" unicode="&#xb8;" horiz-adv-x="500" 
d="M207 4l42.002 25.001c39.333 -12.667 67.333 -29.834 84 -51.501s25 -47.167 25 -76.5c0 -32 -11.333 -59.333 -34 -82s-51.667 -34 -87 -34c-20.667 0 -38.834 2.66699 -54.501 8s-29.167 12.333 -40.5 21l19 58c9.33301 -6 19.166 -11.333 29.499 -16
s22.833 -7 37.5 -7c18.667 0 34 6 46 18s18 29.333 18 52c0 17.333 -6.33301 32.333 -19 45s-34.667 26 -66 40z" />
    <glyph glyph-name="uni00B9" unicode="&#xb9;" horiz-adv-x="242" 
d="M127 730h62v-397h-70v251c0 9.33301 0.166992 20.5 0.5 33.5s0.833008 25.833 1.5 38.5c-14.667 -14 -31.667 -26.333 -51 -37s-39.333 -17.667 -60 -21v60c12 2.66699 25.833 7.66699 41.5 15s30.5 16 44.5 26s24.333 20.333 31 31z" />
    <glyph glyph-name="ordmasculine" unicode="&#xba;" horiz-adv-x="360" 
d="M180 327c-46.667 0 -84.5 15 -113.5 45s-43.5 71.333 -43.5 124c0 53.333 14.5 94.833 43.5 124.5s66.833 44.5 113.5 44.5s84.5 -14.833 113.5 -44.5s43.5 -71.167 43.5 -124.5c0 -52.667 -14.5 -94 -43.5 -124s-66.833 -45 -113.5 -45zM36 201v53h288v-53h-288z
M180 382c29.333 0 51.166 10 65.499 30s21.5 48 21.5 84s-7.16699 64.167 -21.5 84.5s-36.166 30.5 -65.499 30.5s-51.166 -10.167 -65.499 -30.5s-21.5 -48.5 -21.5 -84.5s7.16699 -64 21.5 -84s36.166 -30 65.499 -30z" />
    <glyph glyph-name="guillemotright" unicode="&#xbb;" horiz-adv-x="493" 
d="M229 69l128 196l-128 196h87l126 -196l-126 -196h-87zM52 69l128 196l-128 196h87l126 -196l-126 -196h-87z" />
    <glyph glyph-name="onequarter" unicode="&#xbc;" horiz-adv-x="788" 
d="M127 665h62v-397h-70v251c0 9.33301 0.166992 20.5 0.5 33.5s0.833008 25.833 1.5 38.5c-14.667 -14 -31.667 -26.333 -51 -37s-39.333 -17.667 -60 -21v60c12 2.66699 25.833 7.66699 41.5 15s30.5 16 44.5 26s24.333 20.333 31 31zM88 0l477 660h79l-477 -660h-79z
M768 145v-50h-71v-99h-59v99h-199v37l182 261h76v-248h71zM507 145l131 -0.000976562v114c0 12.667 0.333008 25.334 1 38.001l2 38h-3l-15 -26.5c-6 -10.333 -11.667 -19.5 -17 -27.5z" />
    <glyph glyph-name="onehalf" unicode="&#xbd;" horiz-adv-x="855" 
d="M127 665h62v-397h-70v251c0 9.33301 0.166992 20.5 0.5 33.5s0.833008 25.833 1.5 38.5c-14.667 -14 -31.667 -26.333 -51 -37s-39.333 -17.667 -60 -21v60c12 2.66699 25.833 7.66699 41.5 15s30.5 16 44.5 26s24.333 20.333 31 31zM88 0l477 660h79l-477 -660h-79z
M529 -4l-0.00195312 47.998l46 33c15.333 10.667 30.666 22 45.999 34c32 25.333 57 46.833 75 64.5s30.5 33.5 37.5 47.5s10.5 28.667 10.5 44c0 21.333 -6.5 38.833 -19.5 52.5s-32.167 20.5 -57.5 20.5c-26 0 -46.5 -8.16699 -61.5 -24.5s-23.167 -39.166 -24.5 -68.499
l-63 22c2.66699 40.667 17.667 72.334 45 95.001s63 34 107 34c32.667 0 59.834 -6 81.501 -18s38 -27.667 49 -47s16.5 -40 16.5 -62c0 -19.333 -5.16699 -38.833 -15.5 -58.5s-26.166 -39.834 -47.499 -60.501s-48.666 -42.667 -81.999 -66l-25.5 -17.5l-26.5 -17.5v-1
c6 0.666992 16.5 1.33398 31.5 2.00098s25.833 1 32.5 1h142v-57h-297z" />
    <glyph glyph-name="threequarters" unicode="&#xbe;" horiz-adv-x="908" 
d="M181 670c44 0 78.002 -10.001 102.002 -30.001s36 -46 36 -78c0 -20 -4.16699 -37 -12.5 -51s-18.666 -24.5 -30.999 -31.5s-24.166 -10.833 -35.499 -11.5v-1c13.333 0 26.833 -3.5 40.5 -10.5s25 -17.167 34 -30.5s13.5 -30.333 13.5 -51
c0 -22.667 -6.5 -42.5 -19.5 -59.5s-30.667 -30.167 -53 -39.5s-48.166 -14 -77.499 -14c-40.667 0 -73.834 7.83301 -99.501 23.5s-43.834 39.834 -54.501 72.501l67 30c4 -22.667 13 -39.667 27 -51s33.667 -17 59 -17c23.333 0 42.166 5.83301 56.499 17.5
s21.5 27.5 21.5 47.5c0 21.333 -7.5 36 -22.5 44s-35.833 12 -62.5 12h-8c-2.66699 0 -5.66699 -0.333008 -9 -1v52c2.66699 -0.666992 5.16699 -1 7.5 -1h6.5c25.333 0 44.666 5 57.999 15s20 25 20 45s-6 35.167 -18 45.5s-28.667 15.5 -50 15.5
c-20.667 0 -37.5 -5 -50.5 -15s-21.5 -25 -25.5 -45l-65 23c8.66699 32.667 26.167 56.667 52.5 72s57.166 23 92.499 23zM208.002 -0.000976562l477 660h79l-477 -660h-79zM888.002 144.999v-50h-71v-99h-59v99h-199v37l182 261h76v-248h71zM627.002 144.999
l131 -0.000976562v114c0 12.667 0.333008 25.334 1 38.001l2 38h-3l-15 -26.5c-6 -10.333 -11.667 -19.5 -17 -27.5z" />
    <glyph glyph-name="questiondown" unicode="&#xbf;" horiz-adv-x="537" 
d="M266 -170c-43.333 0 -81.5 7.00195 -114.5 21.002s-58.667 34 -77 60s-27.5 57 -27.5 93c0 39.333 8.5 71.666 25.5 96.999s39.667 44.833 68 58.5s59.833 22.167 94.5 25.5v107h83v-150c-48.667 -7.33301 -86.5 -16.333 -113.5 -27s-46 -23.834 -57 -39.501
s-16.5 -35.5 -16.5 -59.5c0 -23.333 5.16699 -43.333 15.5 -60s26 -29.334 47 -38.001s47.167 -13 78.5 -13c44 0 80 12.167 108 36.5s44.333 57.5 49 99.5l71 -41c-7.33301 -34 -21.5 -63.667 -42.5 -89s-47.667 -45.166 -80 -59.499s-69.5 -21.5 -111.5 -21.5z
M278 380.002c-19.333 0 -35 6 -47 18s-18 27.667 -18 47s6 35 18 47s27.667 18 47 18s35 -6 47 -18s18 -27.667 18 -47s-6 -35 -18 -47s-27.667 -18 -47 -18z" />
    <glyph glyph-name="Agrave" unicode="&#xc0;" horiz-adv-x="660" 
d="M634 0h-85l-70 183h-299l-70 -183h-84l257 660h95zM209 258h241l-121 325zM302 902l66 -159h-64l-86 159h84z" />
    <glyph glyph-name="Aacute" unicode="&#xc1;" horiz-adv-x="660" 
d="M634 0h-85l-70 183h-299l-70 -183h-84l257 660h95zM209 258h241l-121 325zM353 902h84l-86 -159h-64z" />
    <glyph glyph-name="Acircumflex" unicode="&#xc2;" horiz-adv-x="660" 
d="M634 0h-85l-70 183h-299l-70 -183h-84l257 660h95zM209 258h241l-121 325zM484 743h-74l-80 107l-80 -107h-74l110 159h88z" />
    <glyph glyph-name="Atilde" unicode="&#xc3;" horiz-adv-x="660" 
d="M634 0h-85l-70 183h-299l-70 -183h-84l257 660h95zM209 258h241l-121 325zM510 877c-2 -29.333 -7.49805 -54 -16.498 -74s-21.333 -35 -37 -45s-35.167 -15 -58.5 -15c-18.667 0 -34.5 3.5 -47.5 10.5s-24.167 14.833 -33.5 23.5s-18.5 16.5 -27.5 23.5
s-18.833 10.5 -29.5 10.5c-14.667 0 -25.667 -6.16699 -33 -18.5s-12.666 -29.166 -15.999 -50.499h-63c3.33301 44 14.166 77.333 32.499 100s45.166 34 80.499 34c18 0 33.5 -3.5 46.5 -10.5s24.333 -14.833 34 -23.5s18.834 -16.5 27.501 -23.5s18 -10.5 28 -10.5
c15.333 0 26.666 6.16699 33.999 18.5s12.666 29.166 15.999 50.499h63z" />
    <glyph glyph-name="Adieresis" unicode="&#xc4;" horiz-adv-x="660" 
d="M634 0h-85l-70 183h-299l-70 -183h-84l257 660h95zM209 258h241l-121 325zM233 856c17.333 0 31.166 -5.16699 41.499 -15.5s15.5 -24.166 15.5 -41.499c0 -16.667 -5.16699 -30.334 -15.5 -41.001s-24.166 -16 -41.499 -16c-16.667 0 -30.334 5.33301 -41.001 16
s-16 24.334 -16 41.001c0 17.333 5.33301 31.166 16 41.499s24.334 15.5 41.001 15.5zM427 856c17.333 0 31.166 -5.16699 41.499 -15.5s15.5 -24.166 15.5 -41.499c0 -16.667 -5.16699 -30.334 -15.5 -41.001s-24.166 -16 -41.499 -16
c-16.667 0 -30.334 5.33301 -41.001 16s-16 24.334 -16 41.001c0 17.333 5.33301 31.166 16 41.499s24.334 15.5 41.001 15.5z" />
    <glyph glyph-name="Aring" unicode="&#xc5;" horiz-adv-x="660" 
d="M634 0h-85l-70 183h-299l-70 -183h-84l257 660h95zM209 258h241l-121 325zM328 847c37.333 0 67.5 -10.833 90.5 -32.5s34.5 -50.167 34.5 -85.5s-11.5 -64 -34.5 -86s-53.167 -33 -90.5 -33s-67.666 11 -90.999 33s-35 50.667 -35 86s11.667 63.833 35 85.5
s53.666 32.5 90.999 32.5zM328 798c-20.667 0 -37.667 -6.5 -51 -19.5s-20 -29.5 -20 -49.5s6.66699 -36.5 20 -49.5s30.333 -19.5 51 -19.5s37.667 6.5 51 19.5s20 29.5 20 49.5s-6.66699 36.5 -20 49.5s-30.333 19.5 -51 19.5z" />
    <glyph glyph-name="AE" unicode="&#xc6;" horiz-adv-x="954" 
d="M531 75h371v-75h-451v213h-236l-123 -213h-86l386 660h495v-75h-356v-213h271v-75h-271v-222zM259 288h192v297h-20z" />
    <glyph glyph-name="Ccedilla" unicode="&#xc7;" horiz-adv-x="686" 
d="M640 169c-14 -37.333 -33.998 -69.502 -59.998 -96.502s-56.5 -47.5 -91.5 -61.5s-73.167 -21 -114.5 -21c-62.667 0 -116.834 13.833 -162.501 41.5s-81 66.834 -106 117.501s-37.5 111 -37.5 181s12.5 130.333 37.5 181s60.333 89.834 106 117.501
s99.167 41.5 160.5 41.5c42.667 0 80.667 -5.83301 114 -17.5s61.833 -29 85.5 -52s42.5 -51.167 56.5 -84.5l-79 -37c-14.667 38 -35.834 66.833 -63.501 86.5s-63.5 29.5 -107.5 29.5c-44.667 0 -84 -10.5 -118 -31.5s-60.5 -51.167 -79.5 -90.5s-28.5 -87 -28.5 -143
c0 -55.333 9 -102.833 27 -142.5s43.667 -70 77 -91s72.666 -31.5 117.999 -31.5c44 0 82.333 11.167 115 33.5s56.334 55.833 71.001 100.5zM317.002 3.99805l42.002 25.001c39.333 -12.667 67.333 -29.834 84 -51.501s25 -47.167 25 -76.5c0 -32 -11.333 -59.333 -34 -82
s-51.667 -34 -87 -34c-20.667 0 -38.834 2.66699 -54.501 8s-29.167 12.333 -40.5 21l19 58c9.33301 -6 19.166 -11.333 29.499 -16s22.833 -7 37.5 -7c18.667 0 34 6 46 18s18 29.333 18 52c0 17.333 -6.33301 32.333 -19 45s-34.667 26 -66 40z" />
    <glyph glyph-name="Egrave" unicode="&#xc8;" horiz-adv-x="638" 
d="M108 0v660h463v-75h-383v-213h298v-75h-298v-222h398v-75h-478zM317 902l66 -159h-64l-86 159h84z" />
    <glyph glyph-name="Eacute" unicode="&#xc9;" horiz-adv-x="638" 
d="M108 0v660h463v-75h-383v-213h298v-75h-298v-222h398v-75h-478zM363 902h84l-86 -159h-64z" />
    <glyph glyph-name="Ecircumflex" unicode="&#xca;" horiz-adv-x="638" 
d="M108 0v660h463v-75h-383v-213h298v-75h-298v-222h398v-75h-478zM494 743h-74l-80 107l-80 -107h-74l110 159h88z" />
    <glyph glyph-name="Edieresis" unicode="&#xcb;" horiz-adv-x="638" 
d="M108 0v660h463v-75h-383v-213h298v-75h-298v-222h398v-75h-478zM243 856c17.333 0 31.166 -5.16699 41.499 -15.5s15.5 -24.166 15.5 -41.499c0 -16.667 -5.16699 -30.334 -15.5 -41.001s-24.166 -16 -41.499 -16c-16.667 0 -30.334 5.33301 -41.001 16
s-16 24.334 -16 41.001c0 17.333 5.33301 31.166 16 41.499s24.334 15.5 41.001 15.5zM437 856c17.333 0 31.166 -5.16699 41.499 -15.5s15.5 -24.166 15.5 -41.499c0 -16.667 -5.16699 -30.334 -15.5 -41.001s-24.166 -16 -41.499 -16
c-16.667 0 -30.334 5.33301 -41.001 16s-16 24.334 -16 41.001c0 17.333 5.33301 31.166 16 41.499s24.334 15.5 41.001 15.5z" />
    <glyph glyph-name="Igrave" unicode="&#xcc;" horiz-adv-x="296" 
d="M188 660v-660h-80v660h80zM115 902l66 -159h-64l-86 159h84z" />
    <glyph glyph-name="Iacute" unicode="&#xcd;" horiz-adv-x="296" 
d="M188 660v-660h-80v660h80zM181 902h84l-86 -159h-64z" />
    <glyph glyph-name="Icircumflex" unicode="&#xce;" horiz-adv-x="296" 
d="M188 660v-660h-80v660h80zM302 743h-74l-80 107l-80 -107h-74l110 159h88z" />
    <glyph glyph-name="Idieresis" unicode="&#xcf;" horiz-adv-x="296" 
d="M62 856c17.333 0 31.166 -5.16699 41.499 -15.5s15.5 -24.166 15.5 -41.499c0 -16.667 -5.16699 -30.334 -15.5 -41.001s-24.166 -16 -41.499 -16c-16.667 0 -30.334 5.33301 -41.001 16s-16 24.334 -16 41.001c0 17.333 5.33301 31.166 16 41.499
s24.334 15.5 41.001 15.5zM234 856c17.333 0 31.166 -5.16699 41.499 -15.5s15.5 -24.166 15.5 -41.499c0 -16.667 -5.16699 -30.334 -15.5 -41.001s-24.166 -16 -41.499 -16c-16.667 0 -30.334 5.33301 -41.001 16s-16 24.334 -16 41.001
c0 17.333 5.33301 31.166 16 41.499s24.334 15.5 41.001 15.5zM188 660v-660h-80v660h80z" />
    <glyph glyph-name="Eth" unicode="&#xd0;" horiz-adv-x="737" 
d="M26 296v75h375v-75h-375zM337 660c103.333 0 184.5 -28.5 243.5 -85.5s88.5 -138.5 88.5 -244.5s-29.5 -187.5 -88.5 -244.5s-140.167 -85.5 -243.5 -85.5h-213v660h213zM345 75c75.333 0 134.166 22.5 176.499 67.5s63.5 107.5 63.5 187.5s-21.167 142.5 -63.5 187.5
s-101.166 67.5 -176.499 67.5h-141v-510h141z" />
    <glyph glyph-name="Ntilde" unicode="&#xd1;" horiz-adv-x="734" 
d="M626 660v-660h-99l-276 442l-70 124h-1l4 -100v-466h-76v660h99l275 -440l71 -127h1l-4 101v466h76zM551 877c-2 -29.333 -7.49805 -54 -16.498 -74s-21.333 -35 -37 -45s-35.167 -15 -58.5 -15c-18.667 0 -34.5 3.5 -47.5 10.5s-24.167 14.833 -33.5 23.5
s-18.5 16.5 -27.5 23.5s-18.833 10.5 -29.5 10.5c-14.667 0 -25.667 -6.16699 -33 -18.5s-12.666 -29.166 -15.999 -50.499h-63c3.33301 44 14.166 77.333 32.499 100s45.166 34 80.499 34c18 0 33.5 -3.5 46.5 -10.5s24.333 -14.833 34 -23.5s18.834 -16.5 27.501 -23.5
s18 -10.5 28 -10.5c15.333 0 26.666 6.16699 33.999 18.5s12.666 29.166 15.999 50.499h63z" />
    <glyph glyph-name="Ograve" unicode="&#xd2;" horiz-adv-x="748" 
d="M374 670c62.667 0 116.834 -13.833 162.501 -41.5s81 -66.834 106 -117.501s37.5 -111 37.5 -181s-12.5 -130.333 -37.5 -181s-60.333 -89.834 -106 -117.501s-99.834 -41.5 -162.501 -41.5s-116.834 13.833 -162.501 41.5s-81 66.834 -106 117.501s-37.5 111 -37.5 181
s12.5 130.333 37.5 181s60.333 89.834 106 117.501s99.834 41.5 162.501 41.5zM374 595c-45.333 0 -84.666 -10.5 -117.999 -31.5s-59 -51.333 -77 -91s-27 -87.167 -27 -142.5s9 -102.833 27 -142.5s43.667 -70 77 -91s72.666 -31.5 117.999 -31.5
c46 0 85.5 10.5 118.5 31.5s58.5 51.333 76.5 91s27 87.167 27 142.5s-9 102.833 -27 142.5s-43.5 70 -76.5 91s-72.5 31.5 -118.5 31.5zM341 902l66 -159h-64l-86 159h84z" />
    <glyph glyph-name="Oacute" unicode="&#xd3;" horiz-adv-x="748" 
d="M374 670c62.667 0 116.834 -13.833 162.501 -41.5s81 -66.834 106 -117.501s37.5 -111 37.5 -181s-12.5 -130.333 -37.5 -181s-60.333 -89.834 -106 -117.501s-99.834 -41.5 -162.501 -41.5s-116.834 13.833 -162.501 41.5s-81 66.834 -106 117.501s-37.5 111 -37.5 181
s12.5 130.333 37.5 181s60.333 89.834 106 117.501s99.834 41.5 162.501 41.5zM374 595c-45.333 0 -84.666 -10.5 -117.999 -31.5s-59 -51.333 -77 -91s-27 -87.167 -27 -142.5s9 -102.833 27 -142.5s43.667 -70 77 -91s72.666 -31.5 117.999 -31.5
c46 0 85.5 10.5 118.5 31.5s58.5 51.333 76.5 91s27 87.167 27 142.5s-9 102.833 -27 142.5s-43.5 70 -76.5 91s-72.5 31.5 -118.5 31.5zM397 902h84l-86 -159h-64z" />
    <glyph glyph-name="Ocircumflex" unicode="&#xd4;" horiz-adv-x="748" 
d="M374 670c62.667 0 116.834 -13.833 162.501 -41.5s81 -66.834 106 -117.501s37.5 -111 37.5 -181s-12.5 -130.333 -37.5 -181s-60.333 -89.834 -106 -117.501s-99.834 -41.5 -162.501 -41.5s-116.834 13.833 -162.501 41.5s-81 66.834 -106 117.501s-37.5 111 -37.5 181
s12.5 130.333 37.5 181s60.333 89.834 106 117.501s99.834 41.5 162.501 41.5zM374 595c-45.333 0 -84.666 -10.5 -117.999 -31.5s-59 -51.333 -77 -91s-27 -87.167 -27 -142.5s9 -102.833 27 -142.5s43.667 -70 77 -91s72.666 -31.5 117.999 -31.5
c46 0 85.5 10.5 118.5 31.5s58.5 51.333 76.5 91s27 87.167 27 142.5s-9 102.833 -27 142.5s-43.5 70 -76.5 91s-72.5 31.5 -118.5 31.5zM528 743h-74l-80 107l-80 -107h-74l110 159h88z" />
    <glyph glyph-name="Otilde" unicode="&#xd5;" horiz-adv-x="748" 
d="M374 670c62.667 0 116.834 -13.833 162.501 -41.5s81 -66.834 106 -117.501s37.5 -111 37.5 -181s-12.5 -130.333 -37.5 -181s-60.333 -89.834 -106 -117.501s-99.834 -41.5 -162.501 -41.5s-116.834 13.833 -162.501 41.5s-81 66.834 -106 117.501s-37.5 111 -37.5 181
s12.5 130.333 37.5 181s60.333 89.834 106 117.501s99.834 41.5 162.501 41.5zM374 595c-45.333 0 -84.666 -10.5 -117.999 -31.5s-59 -51.333 -77 -91s-27 -87.167 -27 -142.5s9 -102.833 27 -142.5s43.667 -70 77 -91s72.666 -31.5 117.999 -31.5
c46 0 85.5 10.5 118.5 31.5s58.5 51.333 76.5 91s27 87.167 27 142.5s-9 102.833 -27 142.5s-43.5 70 -76.5 91s-72.5 31.5 -118.5 31.5zM554 877c-2 -29.333 -7.49805 -54 -16.498 -74s-21.333 -35 -37 -45s-35.167 -15 -58.5 -15c-18.667 0 -34.5 3.5 -47.5 10.5
s-24.167 14.833 -33.5 23.5s-18.5 16.5 -27.5 23.5s-18.833 10.5 -29.5 10.5c-14.667 0 -25.667 -6.16699 -33 -18.5s-12.666 -29.166 -15.999 -50.499h-63c3.33301 44 14.166 77.333 32.499 100s45.166 34 80.499 34c18 0 33.5 -3.5 46.5 -10.5s24.333 -14.833 34 -23.5
s18.834 -16.5 27.501 -23.5s18 -10.5 28 -10.5c15.333 0 26.666 6.16699 33.999 18.5s12.666 29.166 15.999 50.499h63z" />
    <glyph glyph-name="Odieresis" unicode="&#xd6;" horiz-adv-x="748" 
d="M374 670c62.667 0 116.834 -13.833 162.501 -41.5s81 -66.834 106 -117.501s37.5 -111 37.5 -181s-12.5 -130.333 -37.5 -181s-60.333 -89.834 -106 -117.501s-99.834 -41.5 -162.501 -41.5s-116.834 13.833 -162.501 41.5s-81 66.834 -106 117.501s-37.5 111 -37.5 181
s12.5 130.333 37.5 181s60.333 89.834 106 117.501s99.834 41.5 162.501 41.5zM374 595c-45.333 0 -84.666 -10.5 -117.999 -31.5s-59 -51.333 -77 -91s-27 -87.167 -27 -142.5s9 -102.833 27 -142.5s43.667 -70 77 -91s72.666 -31.5 117.999 -31.5
c46 0 85.5 10.5 118.5 31.5s58.5 51.333 76.5 91s27 87.167 27 142.5s-9 102.833 -27 142.5s-43.5 70 -76.5 91s-72.5 31.5 -118.5 31.5zM277 856c17.333 0 31.166 -5.16699 41.499 -15.5s15.5 -24.166 15.5 -41.499c0 -16.667 -5.16699 -30.334 -15.5 -41.001
s-24.166 -16 -41.499 -16c-16.667 0 -30.334 5.33301 -41.001 16s-16 24.334 -16 41.001c0 17.333 5.33301 31.166 16 41.499s24.334 15.5 41.001 15.5zM471 856c17.333 0 31.166 -5.16699 41.499 -15.5s15.5 -24.166 15.5 -41.499
c0 -16.667 -5.16699 -30.334 -15.5 -41.001s-24.166 -16 -41.499 -16c-16.667 0 -30.334 5.33301 -41.001 16s-16 24.334 -16 41.001c0 17.333 5.33301 31.166 16 41.499s24.334 15.5 41.001 15.5z" />
    <glyph glyph-name="multiply" unicode="&#xd7;" 
d="M469 97l53 53l-388 388l-53 -53zM134 97l388 388l-53 53l-388 -388z" />
    <glyph glyph-name="Oslash" unicode="&#xd8;" horiz-adv-x="748" 
d="M229 63l-46 37l335 480l46 -36zM88 -37l95 137l46 -37l-70 -100h-71zM564 544l-46 36l72 103h71zM374 670c62.667 0 116.834 -13.833 162.501 -41.5s81 -66.834 106 -117.501s37.5 -111 37.5 -181s-12.5 -130.333 -37.5 -181s-60.333 -89.834 -106 -117.501
s-99.834 -41.5 -162.501 -41.5s-116.834 13.833 -162.501 41.5s-81 66.834 -106 117.501s-37.5 111 -37.5 181s12.5 130.333 37.5 181s60.333 89.834 106 117.501s99.834 41.5 162.501 41.5zM374 595c-45.333 0 -84.666 -10.5 -117.999 -31.5s-59 -51.333 -77 -91
s-27 -87.167 -27 -142.5s9 -102.833 27 -142.5s43.667 -70 77 -91s72.666 -31.5 117.999 -31.5c46 0 85.5 10.5 118.5 31.5s58.5 51.333 76.5 91s27 87.167 27 142.5s-9 102.833 -27 142.5s-43.5 70 -76.5 91s-72.5 31.5 -118.5 31.5z" />
    <glyph glyph-name="Ugrave" unicode="&#xd9;" horiz-adv-x="708" 
d="M613 660v-414c0 -84.667 -22.333 -148.5 -67 -191.5s-108.667 -64.5 -192 -64.5c-82.667 0 -146.5 21.5 -191.5 64.5s-67.5 106.833 -67.5 191.5v414h80v-394c0 -68.667 14.5 -119.334 43.5 -152.001s74.167 -49 135.5 -49s106.5 16.333 135.5 49
s43.5 83.334 43.5 152.001v394h80zM331 877l66 -159h-64l-86 159h84z" />
    <glyph glyph-name="Uacute" unicode="&#xda;" horiz-adv-x="708" 
d="M613 660v-414c0 -84.667 -22.333 -148.5 -67 -191.5s-108.667 -64.5 -192 -64.5c-82.667 0 -146.5 21.5 -191.5 64.5s-67.5 106.833 -67.5 191.5v414h80v-394c0 -68.667 14.5 -119.334 43.5 -152.001s74.167 -49 135.5 -49s106.5 16.333 135.5 49
s43.5 83.334 43.5 152.001v394h80zM377 877h84l-86 -159h-64z" />
    <glyph glyph-name="Ucircumflex" unicode="&#xdb;" horiz-adv-x="708" 
d="M613 660v-414c0 -84.667 -22.333 -148.5 -67 -191.5s-108.667 -64.5 -192 -64.5c-82.667 0 -146.5 21.5 -191.5 64.5s-67.5 106.833 -67.5 191.5v414h80v-394c0 -68.667 14.5 -119.334 43.5 -152.001s74.167 -49 135.5 -49s106.5 16.333 135.5 49
s43.5 83.334 43.5 152.001v394h80zM508 718h-74l-80 107l-80 -107h-74l110 159h88z" />
    <glyph glyph-name="Udieresis" unicode="&#xdc;" horiz-adv-x="708" 
d="M613 660v-414c0 -84.667 -22.333 -148.5 -67 -191.5s-108.667 -64.5 -192 -64.5c-82.667 0 -146.5 21.5 -191.5 64.5s-67.5 106.833 -67.5 191.5v414h80v-394c0 -68.667 14.5 -119.334 43.5 -152.001s74.167 -49 135.5 -49s106.5 16.333 135.5 49
s43.5 83.334 43.5 152.001v394h80zM257 831c17.333 0 31.166 -5.16699 41.499 -15.5s15.5 -24.166 15.5 -41.499c0 -16.667 -5.16699 -30.334 -15.5 -41.001s-24.166 -16 -41.499 -16c-16.667 0 -30.334 5.33301 -41.001 16s-16 24.334 -16 41.001
c0 17.333 5.33301 31.166 16 41.499s24.334 15.5 41.001 15.5zM451 831c17.333 0 31.166 -5.16699 41.499 -15.5s15.5 -24.166 15.5 -41.499c0 -16.667 -5.16699 -30.334 -15.5 -41.001s-24.166 -16 -41.499 -16c-16.667 0 -30.334 5.33301 -41.001 16
s-16 24.334 -16 41.001c0 17.333 5.33301 31.166 16 41.499s24.334 15.5 41.001 15.5z" />
    <glyph glyph-name="Yacute" unicode="&#xdd;" horiz-adv-x="572" 
d="M562 660l-236 -402v-258h-80v258l-236 402h95l128 -226l53 -94l53 94l128 226h95zM309 882h84l-86 -159h-64z" />
    <glyph glyph-name="Thorn" unicode="&#xde;" horiz-adv-x="627" 
d="M327 542c82 0 143.5 -17.667 184.5 -53s61.5 -86 61.5 -152c0 -65.333 -20.5 -115.833 -61.5 -151.5s-102.5 -53.5 -184.5 -53.5h-179v75h187c102.667 0 154 43.333 154 130c0 44 -12.667 76.667 -38 98s-64 32 -116 32h-187v75h179zM188 660v-660h-80v660h80z" />
    <glyph glyph-name="germandbls" unicode="&#xdf;" horiz-adv-x="617" 
d="M383 387c43.333 0 77.833 -8.99902 103.5 -26.999s44.334 -41 56.001 -69s17.5 -57 17.5 -87c0 -38.667 -7.16699 -74.167 -21.5 -106.5s-36 -58.333 -65 -78s-65.833 -29.5 -110.5 -29.5c-32 0 -59.167 3.66699 -81.5 11s-38.166 14.666 -47.499 21.999l23 68
c12 -7.33301 25.667 -13.833 41 -19.5s36.333 -8.5 63 -8.5c38 0 67.833 13.5 89.5 40.5s32.5 61.167 32.5 102.5c0 46.667 -12.833 82.167 -38.5 106.5s-64.167 36.5 -115.5 36.5h-59v71h49c43.333 0 76.333 12.333 99 37s34 54.334 34 89.001
c0 39.333 -12.5 68.166 -37.5 86.499s-56.5 27.5 -94.5 27.5c-56 0 -94.5 -15.833 -115.5 -47.5s-31.5 -78.167 -31.5 -139.5v-473h-80v497c0 46 7.16699 86.833 21.5 122.5s38.666 63.834 72.999 84.501s81.166 31 140.499 31c46.667 0 85.167 -8.33301 115.5 -25
s53 -38.167 68 -64.5s22.5 -54.166 22.5 -83.499c0 -26 -5.5 -51.833 -16.5 -77.5s-27.667 -47.334 -50 -65.001s-50.5 -27.834 -84.5 -30.501v-2z" />
    <glyph glyph-name="agrave" unicode="&#xe0;" horiz-adv-x="566" 
d="M385 323c0 37.333 -10.0029 66.168 -30.0029 86.501s-48.333 30.5 -85 30.5c-34.667 0 -64 -7.5 -88 -22.5s-41.667 -39.167 -53 -72.5l-65 40c13.333 37.333 38 67.5 74 90.5s80.667 34.5 134 34.5c36 0 68.667 -6.16699 98 -18.5s52.5 -31 69.5 -56
s25.5 -57.167 25.5 -96.5v-242c0 -24 12.667 -36 38 -36c12.667 0 25 1.66699 37 5l-4 -63c-13.333 -6.66699 -30.666 -10 -51.999 -10c-19.333 0 -36.666 3.66699 -51.999 11s-27.333 18.5 -36 33.5s-13 33.833 -13 56.5v10l20 -3c-8 -26 -21.667 -47.167 -41 -63.5
s-41 -28.333 -65 -36s-47.667 -11.5 -71 -11.5c-29.333 0 -56.666 5 -81.999 15s-45.5 25.167 -60.5 45.5s-22.5 45.5 -22.5 75.5c0 37.333 12.5 68.166 37.5 92.499s59.833 40.833 104.5 49.5l198 39v-66l-161 -33c-32.667 -6.66699 -57 -16 -73 -28s-24 -28.667 -24 -50
c0 -20.667 8.16699 -37.5 24.5 -50.5s39.5 -19.5 69.5 -19.5c19.333 0 37.833 2.5 55.5 7.5s33.5 12.667 47.5 23s25 23.333 33 39s12 34.167 12 55.5v138zM241.997 750.002l76 -167h-65l-98 167h87z" />
    <glyph glyph-name="aacute" unicode="&#xe1;" horiz-adv-x="566" 
d="M385 323c0 37.333 -10.0029 66.168 -30.0029 86.501s-48.333 30.5 -85 30.5c-34.667 0 -64 -7.5 -88 -22.5s-41.667 -39.167 -53 -72.5l-65 40c13.333 37.333 38 67.5 74 90.5s80.667 34.5 134 34.5c36 0 68.667 -6.16699 98 -18.5s52.5 -31 69.5 -56
s25.5 -57.167 25.5 -96.5v-242c0 -24 12.667 -36 38 -36c12.667 0 25 1.66699 37 5l-4 -63c-13.333 -6.66699 -30.666 -10 -51.999 -10c-19.333 0 -36.666 3.66699 -51.999 11s-27.333 18.5 -36 33.5s-13 33.833 -13 56.5v10l20 -3c-8 -26 -21.667 -47.167 -41 -63.5
s-41 -28.333 -65 -36s-47.667 -11.5 -71 -11.5c-29.333 0 -56.666 5 -81.999 15s-45.5 25.167 -60.5 45.5s-22.5 45.5 -22.5 75.5c0 37.333 12.5 68.166 37.5 92.499s59.833 40.833 104.5 49.5l198 39v-66l-161 -33c-32.667 -6.66699 -57 -16 -73 -28s-24 -28.667 -24 -50
c0 -20.667 8.16699 -37.5 24.5 -50.5s39.5 -19.5 69.5 -19.5c19.333 0 37.833 2.5 55.5 7.5s33.5 12.667 47.5 23s25 23.333 33 39s12 34.167 12 55.5v138zM302.997 750.002h87l-98 -167h-65z" />
    <glyph glyph-name="acircumflex" unicode="&#xe2;" horiz-adv-x="566" 
d="M385 323c0 37.333 -10.0029 66.168 -30.0029 86.501s-48.333 30.5 -85 30.5c-34.667 0 -64 -7.5 -88 -22.5s-41.667 -39.167 -53 -72.5l-65 40c13.333 37.333 38 67.5 74 90.5s80.667 34.5 134 34.5c36 0 68.667 -6.16699 98 -18.5s52.5 -31 69.5 -56
s25.5 -57.167 25.5 -96.5v-242c0 -24 12.667 -36 38 -36c12.667 0 25 1.66699 37 5l-4 -63c-13.333 -6.66699 -30.666 -10 -51.999 -10c-19.333 0 -36.666 3.66699 -51.999 11s-27.333 18.5 -36 33.5s-13 33.833 -13 56.5v10l20 -3c-8 -26 -21.667 -47.167 -41 -63.5
s-41 -28.333 -65 -36s-47.667 -11.5 -71 -11.5c-29.333 0 -56.666 5 -81.999 15s-45.5 25.167 -60.5 45.5s-22.5 45.5 -22.5 75.5c0 37.333 12.5 68.166 37.5 92.499s59.833 40.833 104.5 49.5l198 39v-66l-161 -33c-32.667 -6.66699 -57 -16 -73 -28s-24 -28.667 -24 -50
c0 -20.667 8.16699 -37.5 24.5 -50.5s39.5 -19.5 69.5 -19.5c19.333 0 37.833 2.5 55.5 7.5s33.5 12.667 47.5 23s25 23.333 33 39s12 34.167 12 55.5v138zM434.997 576.002h-73l-86 115l-86 -115h-73l114 167h90z" />
    <glyph glyph-name="atilde" unicode="&#xe3;" horiz-adv-x="566" 
d="M385 323c0 37.333 -10.0029 66.168 -30.0029 86.501s-48.333 30.5 -85 30.5c-34.667 0 -64 -7.5 -88 -22.5s-41.667 -39.167 -53 -72.5l-65 40c13.333 37.333 38 67.5 74 90.5s80.667 34.5 134 34.5c36 0 68.667 -6.16699 98 -18.5s52.5 -31 69.5 -56
s25.5 -57.167 25.5 -96.5v-242c0 -24 12.667 -36 38 -36c12.667 0 25 1.66699 37 5l-4 -63c-13.333 -6.66699 -30.666 -10 -51.999 -10c-19.333 0 -36.666 3.66699 -51.999 11s-27.333 18.5 -36 33.5s-13 33.833 -13 56.5v10l20 -3c-8 -26 -21.667 -47.167 -41 -63.5
s-41 -28.333 -65 -36s-47.667 -11.5 -71 -11.5c-29.333 0 -56.666 5 -81.999 15s-45.5 25.167 -60.5 45.5s-22.5 45.5 -22.5 75.5c0 37.333 12.5 68.166 37.5 92.499s59.833 40.833 104.5 49.5l198 39v-66l-161 -33c-32.667 -6.66699 -57 -16 -73 -28s-24 -28.667 -24 -50
c0 -20.667 8.16699 -37.5 24.5 -50.5s39.5 -19.5 69.5 -19.5c19.333 0 37.833 2.5 55.5 7.5s33.5 12.667 47.5 23s25 23.333 33 39s12 34.167 12 55.5v138zM455.997 717.002c-2 -29.333 -7.49805 -54 -16.498 -74s-21.333 -35 -37 -45s-35.167 -15 -58.5 -15
c-18.667 0 -34.5 3.5 -47.5 10.5s-24.167 14.833 -33.5 23.5s-18.5 16.5 -27.5 23.5s-18.833 10.5 -29.5 10.5c-14.667 0 -25.667 -6.16699 -33 -18.5s-12.666 -29.166 -15.999 -50.499h-63c3.33301 44 14.166 77.333 32.499 100s45.166 34 80.499 34
c18 0 33.5 -3.5 46.5 -10.5s24.333 -14.833 34 -23.5s18.834 -16.5 27.501 -23.5s18 -10.5 28 -10.5c15.333 0 26.666 6.16699 33.999 18.5s12.666 29.166 15.999 50.499h63z" />
    <glyph glyph-name="adieresis" unicode="&#xe4;" horiz-adv-x="566" 
d="M385 323c0 37.333 -10.0029 66.168 -30.0029 86.501s-48.333 30.5 -85 30.5c-34.667 0 -64 -7.5 -88 -22.5s-41.667 -39.167 -53 -72.5l-65 40c13.333 37.333 38 67.5 74 90.5s80.667 34.5 134 34.5c36 0 68.667 -6.16699 98 -18.5s52.5 -31 69.5 -56
s25.5 -57.167 25.5 -96.5v-242c0 -24 12.667 -36 38 -36c12.667 0 25 1.66699 37 5l-4 -63c-13.333 -6.66699 -30.666 -10 -51.999 -10c-19.333 0 -36.666 3.66699 -51.999 11s-27.333 18.5 -36 33.5s-13 33.833 -13 56.5v10l20 -3c-8 -26 -21.667 -47.167 -41 -63.5
s-41 -28.333 -65 -36s-47.667 -11.5 -71 -11.5c-29.333 0 -56.666 5 -81.999 15s-45.5 25.167 -60.5 45.5s-22.5 45.5 -22.5 75.5c0 37.333 12.5 68.166 37.5 92.499s59.833 40.833 104.5 49.5l198 39v-66l-161 -33c-32.667 -6.66699 -57 -16 -73 -28s-24 -28.667 -24 -50
c0 -20.667 8.16699 -37.5 24.5 -50.5s39.5 -19.5 69.5 -19.5c19.333 0 37.833 2.5 55.5 7.5s33.5 12.667 47.5 23s25 23.333 33 39s12 34.167 12 55.5v138zM178.997 696.002c17.333 0 31.166 -5.16699 41.499 -15.5s15.5 -24.166 15.5 -41.499
c0 -16.667 -5.16699 -30.334 -15.5 -41.001s-24.166 -16 -41.499 -16c-16.667 0 -30.334 5.33301 -41.001 16s-16 24.334 -16 41.001c0 17.333 5.33301 31.166 16 41.499s24.334 15.5 41.001 15.5zM372.997 696.002c17.333 0 31.166 -5.16699 41.499 -15.5
s15.5 -24.166 15.5 -41.499c0 -16.667 -5.16699 -30.334 -15.5 -41.001s-24.166 -16 -41.499 -16c-16.667 0 -30.334 5.33301 -41.001 16s-16 24.334 -16 41.001c0 17.333 5.33301 31.166 16 41.499s24.334 15.5 41.001 15.5z" />
    <glyph glyph-name="aring" unicode="&#xe5;" horiz-adv-x="566" 
d="M385 323c0 37.333 -10.0029 66.168 -30.0029 86.501s-48.333 30.5 -85 30.5c-34.667 0 -64 -7.5 -88 -22.5s-41.667 -39.167 -53 -72.5l-65 40c13.333 37.333 38 67.5 74 90.5s80.667 34.5 134 34.5c36 0 68.667 -6.16699 98 -18.5s52.5 -31 69.5 -56
s25.5 -57.167 25.5 -96.5v-242c0 -24 12.667 -36 38 -36c12.667 0 25 1.66699 37 5l-4 -63c-13.333 -6.66699 -30.666 -10 -51.999 -10c-19.333 0 -36.666 3.66699 -51.999 11s-27.333 18.5 -36 33.5s-13 33.833 -13 56.5v10l20 -3c-8 -26 -21.667 -47.167 -41 -63.5
s-41 -28.333 -65 -36s-47.667 -11.5 -71 -11.5c-29.333 0 -56.666 5 -81.999 15s-45.5 25.167 -60.5 45.5s-22.5 45.5 -22.5 75.5c0 37.333 12.5 68.166 37.5 92.499s59.833 40.833 104.5 49.5l198 39v-66l-161 -33c-32.667 -6.66699 -57 -16 -73 -28s-24 -28.667 -24 -50
c0 -20.667 8.16699 -37.5 24.5 -50.5s39.5 -19.5 69.5 -19.5c19.333 0 37.833 2.5 55.5 7.5s33.5 12.667 47.5 23s25 23.333 33 39s12 34.167 12 55.5v138zM272.997 812.002c37.333 0 67.5 -10.833 90.5 -32.5s34.5 -50.167 34.5 -85.5s-11.5 -64 -34.5 -86
s-53.167 -33 -90.5 -33s-67.666 11 -90.999 33s-35 50.667 -35 86s11.667 63.833 35 85.5s53.666 32.5 90.999 32.5zM272.997 763.002c-20.667 0 -37.667 -6.5 -51 -19.5s-20 -29.5 -20 -49.5s6.66699 -36.5 20 -49.5s30.333 -19.5 51 -19.5s37.667 6.5 51 19.5
s20 29.5 20 49.5s-6.66699 36.5 -20 49.5s-30.333 19.5 -51 19.5z" />
    <glyph glyph-name="ae" unicode="&#xe6;" horiz-adv-x="895" 
d="M230 -10c-30.667 0 -58.833 5 -84.5 15s-46.167 25.167 -61.5 45.5s-23 45.5 -23 75.5c0 37.333 12.167 68 36.5 92s58.166 40.333 101.499 49l186 37v19c0 37.333 -10.833 66.166 -32.5 86.499s-49.5 30.5 -83.5 30.5c-31.333 0 -59.166 -7.5 -83.499 -22.5
s-43.166 -39.167 -56.499 -72.5l-65 40c10.667 25.333 25.5 47.333 44.5 66s42 33.167 69 43.5s56.833 15.5 89.5 15.5c44 0 82.333 -9.16699 115 -27.5s55 -47.833 67 -88.5l-24 3c12.667 24 28.834 44.333 48.501 61s42.167 29.5 67.5 38.5s52.333 13.5 81 13.5
c44.667 0 82.834 -10 114.501 -30s56.167 -47.167 73.5 -81.5s26 -72.833 26 -115.5c0 -11.333 -0.333008 -21.666 -1 -30.999s-1.66699 -17.666 -3 -24.999h-366v0c3.33301 -52.667 19.666 -93.667 48.999 -123s66 -44 110 -44c33.333 0 61.166 7 83.499 21
s40.5 33 54.5 57l63 -37c-12.667 -22.667 -28.834 -42.334 -48.501 -59.001s-42.167 -29.5 -67.5 -38.5s-53 -13.5 -83 -13.5c-50 0 -93.833 11.833 -131.5 35.5s-65.167 58.5 -82.5 104.5l25 7c-2.66699 -22.667 -10.5 -43 -23.5 -61s-29.333 -33.5 -49 -46.5
s-41.167 -22.833 -64.5 -29.5s-47 -10 -71 -10zM237.001 60c19.333 0 37.833 2.5 55.5 7.5s33.5 12.667 47.5 23s25 23.333 33 39s12 34.167 12 55.5v52l-145 -29c-32.667 -6.66699 -57 -16 -73 -28s-24 -28.667 -24 -50c0 -20.667 8.16699 -37.5 24.5 -50.5
s39.5 -19.5 69.5 -19.5zM469.001 298h286.999c-0.666992 30.667 -7 56.5 -19 77.5s-28 37 -48 48s-43 16.5 -69 16.5c-40.667 0 -74.167 -12.333 -100.5 -37s-43.166 -59.667 -50.499 -105z" />
    <glyph glyph-name="ccedilla" unicode="&#xe7;" horiz-adv-x="560" 
d="M300 510c34.667 0 65.1709 -5.33301 91.5039 -16s49.166 -26 68.499 -46s35 -43.667 47 -71l-76 -36c-10.667 32 -26.834 56.5 -48.501 73.5s-49.834 25.5 -84.501 25.5c-33.333 0 -62 -7.5 -86 -22.5s-42.333 -36.667 -55 -65s-19 -62.5 -19 -102.5
c0 -39.333 6.33301 -73.333 19 -102s31 -50.5 55 -65.5s52.667 -22.5 86 -22.5c26 0 48.5 4 67.5 12s34.667 19.667 47 35s20.833 34 25.5 56l74 -26c-11.333 -30.667 -26.833 -57 -46.5 -79s-43.334 -38.833 -71.001 -50.5s-59.167 -17.5 -94.5 -17.5
c-46.667 0 -88.334 10.333 -125.001 31s-65.334 50.5 -86.001 89.5s-31 85.5 -31 139.5s10.333 100.5 31 139.5s49.334 68.833 86.001 89.5s78.334 31 125.001 31zM244.004 4l42.002 25.001c39.333 -12.667 67.333 -29.834 84 -51.501s25 -47.167 25 -76.5
c0 -32 -11.333 -59.333 -34 -82s-51.667 -34 -87 -34c-20.667 0 -38.834 2.66699 -54.501 8s-29.167 12.333 -40.5 21l19 58c9.33301 -6 19.166 -11.333 29.499 -16s22.833 -7 37.5 -7c18.667 0 34 6 46 18s18 29.333 18 52c0 17.333 -6.33301 32.333 -19 45
s-34.667 26 -66 40z" />
    <glyph glyph-name="egrave" unicode="&#xe8;" horiz-adv-x="577" 
d="M302 -10c-47.333 0 -89.4971 10.332 -126.497 30.999s-65.833 50.5 -86.5 89.5s-31 85.5 -31 139.5s10.333 100.5 31 139.5s49 68.833 85 89.5s77 31 123 31c46.667 0 86.5 -10 119.5 -30s58.167 -47.167 75.5 -81.5s26 -72.833 26 -115.5
c0 -11.333 -0.333008 -21.666 -1 -30.999s-1.66699 -17.666 -3 -24.999h-404v71h369l-41 -8c0 48 -13.167 85 -39.5 111s-60.833 39 -103.5 39c-32.667 0 -60.834 -7.5 -84.501 -22.5s-42 -36.667 -55 -65s-19.5 -62.5 -19.5 -102.5c0 -39.333 6.66699 -73.333 20 -102
s32.166 -50.5 56.499 -65.5s53.5 -22.5 87.5 -22.5c36.667 0 66.5 7 89.5 21s41.5 33 55.5 57l63 -37c-12.667 -22.667 -28.834 -42.334 -48.501 -59.001s-42.667 -29.5 -69 -38.5s-55.833 -13.5 -88.5 -13.5zM257.003 749.999l76 -167h-65l-98 167h87z" />
    <glyph glyph-name="eacute" unicode="&#xe9;" horiz-adv-x="577" 
d="M302 -10c-47.333 0 -89.4971 10.332 -126.497 30.999s-65.833 50.5 -86.5 89.5s-31 85.5 -31 139.5s10.333 100.5 31 139.5s49 68.833 85 89.5s77 31 123 31c46.667 0 86.5 -10 119.5 -30s58.167 -47.167 75.5 -81.5s26 -72.833 26 -115.5
c0 -11.333 -0.333008 -21.666 -1 -30.999s-1.66699 -17.666 -3 -24.999h-404v71h369l-41 -8c0 48 -13.167 85 -39.5 111s-60.833 39 -103.5 39c-32.667 0 -60.834 -7.5 -84.501 -22.5s-42 -36.667 -55 -65s-19.5 -62.5 -19.5 -102.5c0 -39.333 6.66699 -73.333 20 -102
s32.166 -50.5 56.499 -65.5s53.5 -22.5 87.5 -22.5c36.667 0 66.5 7 89.5 21s41.5 33 55.5 57l63 -37c-12.667 -22.667 -28.834 -42.334 -48.501 -59.001s-42.667 -29.5 -69 -38.5s-55.833 -13.5 -88.5 -13.5zM318.003 749.999h87l-98 -167h-65z" />
    <glyph glyph-name="ecircumflex" unicode="&#xea;" horiz-adv-x="577" 
d="M302 -10c-47.333 0 -89.4971 10.332 -126.497 30.999s-65.833 50.5 -86.5 89.5s-31 85.5 -31 139.5s10.333 100.5 31 139.5s49 68.833 85 89.5s77 31 123 31c46.667 0 86.5 -10 119.5 -30s58.167 -47.167 75.5 -81.5s26 -72.833 26 -115.5
c0 -11.333 -0.333008 -21.666 -1 -30.999s-1.66699 -17.666 -3 -24.999h-404v71h369l-41 -8c0 48 -13.167 85 -39.5 111s-60.833 39 -103.5 39c-32.667 0 -60.834 -7.5 -84.501 -22.5s-42 -36.667 -55 -65s-19.5 -62.5 -19.5 -102.5c0 -39.333 6.66699 -73.333 20 -102
s32.166 -50.5 56.499 -65.5s53.5 -22.5 87.5 -22.5c36.667 0 66.5 7 89.5 21s41.5 33 55.5 57l63 -37c-12.667 -22.667 -28.834 -42.334 -48.501 -59.001s-42.667 -29.5 -69 -38.5s-55.833 -13.5 -88.5 -13.5zM450.003 575.999h-73l-86 115l-86 -115h-73l114 167h90z" />
    <glyph glyph-name="edieresis" unicode="&#xeb;" horiz-adv-x="577" 
d="M302 -10c-47.333 0 -89.4971 10.332 -126.497 30.999s-65.833 50.5 -86.5 89.5s-31 85.5 -31 139.5s10.333 100.5 31 139.5s49 68.833 85 89.5s77 31 123 31c46.667 0 86.5 -10 119.5 -30s58.167 -47.167 75.5 -81.5s26 -72.833 26 -115.5
c0 -11.333 -0.333008 -21.666 -1 -30.999s-1.66699 -17.666 -3 -24.999h-404v71h369l-41 -8c0 48 -13.167 85 -39.5 111s-60.833 39 -103.5 39c-32.667 0 -60.834 -7.5 -84.501 -22.5s-42 -36.667 -55 -65s-19.5 -62.5 -19.5 -102.5c0 -39.333 6.66699 -73.333 20 -102
s32.166 -50.5 56.499 -65.5s53.5 -22.5 87.5 -22.5c36.667 0 66.5 7 89.5 21s41.5 33 55.5 57l63 -37c-12.667 -22.667 -28.834 -42.334 -48.501 -59.001s-42.667 -29.5 -69 -38.5s-55.833 -13.5 -88.5 -13.5zM194.003 695.999c17.333 0 31.166 -5.16699 41.499 -15.5
s15.5 -24.166 15.5 -41.499c0 -16.667 -5.16699 -30.334 -15.5 -41.001s-24.166 -16 -41.499 -16c-16.667 0 -30.334 5.33301 -41.001 16s-16 24.334 -16 41.001c0 17.333 5.33301 31.166 16 41.499s24.334 15.5 41.001 15.5zM388.003 695.999
c17.333 0 31.166 -5.16699 41.499 -15.5s15.5 -24.166 15.5 -41.499c0 -16.667 -5.16699 -30.334 -15.5 -41.001s-24.166 -16 -41.499 -16c-16.667 0 -30.334 5.33301 -41.001 16s-16 24.334 -16 41.001c0 17.333 5.33301 31.166 16 41.499s24.334 15.5 41.001 15.5z" />
    <glyph glyph-name="igrave" unicode="&#xec;" horiz-adv-x="266" 
d="M173 500v-500h-80v500h80zM99 750l76 -167h-65l-98 167h87z" />
    <glyph glyph-name="iacute" unicode="&#xed;" horiz-adv-x="266" 
d="M173 500v-500h-80v500h80zM160 750h87l-98 -167h-65z" />
    <glyph glyph-name="icircumflex" unicode="&#xee;" horiz-adv-x="266" 
d="M173 500v-500h-80v500h80zM292 576h-73l-86 115l-86 -115h-73l114 167h90z" />
    <glyph glyph-name="idieresis" unicode="&#xef;" horiz-adv-x="266" 
d="M213 582c-17.333 0 -31.333 5.33301 -42 16s-16 24.334 -16 41.001c0 17.333 5.33301 31.166 16 41.499s24.667 15.5 42 15.5s31.166 -5.16699 41.499 -15.5s15.5 -24.166 15.5 -41.499c0 -16.667 -5.16699 -30.334 -15.5 -41.001s-24.166 -16 -41.499 -16zM53 582
c-16.667 0 -30.334 5.33301 -41.001 16s-16 24.334 -16 41.001c0 17.333 5.33301 31.166 16 41.499s24.334 15.5 41.001 15.5c17.333 0 31.333 -5.16699 42 -15.5s16 -24.166 16 -41.499c0 -16.667 -5.33301 -30.334 -16 -41.001s-24.667 -16 -42 -16zM173 500v-500h-80v500
h80z" />
    <glyph glyph-name="eth" unicode="&#xf0;" horiz-adv-x="620" 
d="M298 -10c-48 0 -89.667 9.83398 -125 29.501s-62.666 48.167 -81.999 85.5s-29 81.666 -29 132.999s10.333 95.5 31 132.5s48.667 65.333 84 85s75 29.5 119 29.5c41.333 0 76.666 -7 105.999 -21s53 -33.667 71 -59l-8 -7c-8 36.667 -19 70.667 -33 102
s-31.333 60.5 -52 87.5s-45.5 52.333 -74.5 76s-62.5 45.834 -100.5 66.501h111c39.333 -22.667 73.333 -49 102 -79s52.5 -63.5 71.5 -100.5s33.167 -77.333 42.5 -121s14 -90.834 14 -141.501c0 -58 -9 -109.5 -27 -154.5s-45.167 -80.167 -81.5 -105.5
s-82.833 -38 -139.5 -38zM302 60.001c35.333 0 65.332 8.33301 89.999 25s43.5 38.5 56.5 65.5s19.5 56.167 19.5 87.5c0 36.667 -6.5 68.167 -19.5 94.5s-31.5 46.666 -55.5 60.999s-52.667 21.5 -86 21.5s-62.166 -7.16699 -86.499 -21.5s-43 -34.666 -56 -60.999
s-19.5 -57.833 -19.5 -94.5c0 -56 14.167 -99.667 42.5 -131s66.5 -47 114.5 -47zM206.999 533.001l-15 61l200 44l36 -48zM427.999 590.001l-36 48l143 40l17 -59z" />
    <glyph glyph-name="ntilde" unicode="&#xf1;" horiz-adv-x="619" 
d="M93 0l0.000976562 500h70l7 -112l-13 11c10.667 26.667 25 48.167 43 64.5s38.833 28.166 62.5 35.499s48.167 11 73.5 11c36 0 68.667 -6.83301 98 -20.5s52.833 -34.5 70.5 -62.5s26.5 -63.667 26.5 -107v-320h-80v292c0 55.333 -11.833 93.833 -35.5 115.5
s-52.834 32.5 -87.501 32.5c-24 0 -48 -5.66699 -72 -17s-43.833 -29.666 -59.5 -54.999s-23.5 -59.333 -23.5 -102v-266h-80zM498.001 717c-2 -29.333 -7.49805 -54 -16.498 -74s-21.333 -35 -37 -45s-35.167 -15 -58.5 -15c-18.667 0 -34.5 3.5 -47.5 10.5
s-24.167 14.833 -33.5 23.5s-18.5 16.5 -27.5 23.5s-18.833 10.5 -29.5 10.5c-14.667 0 -25.667 -6.16699 -33 -18.5s-12.666 -29.166 -15.999 -50.499h-63c3.33301 44 14.166 77.333 32.499 100s45.166 34 80.499 34c18 0 33.5 -3.5 46.5 -10.5s24.333 -14.833 34 -23.5
s18.834 -16.5 27.501 -23.5s18 -10.5 28 -10.5c15.333 0 26.666 6.16699 33.999 18.5s12.666 29.166 15.999 50.499h63z" />
    <glyph glyph-name="ograve" unicode="&#xf2;" horiz-adv-x="600" 
d="M300 510c47.333 0 89.166 -10.333 125.499 -31s64.833 -50.5 85.5 -89.5s31 -85.5 31 -139.5s-10.333 -100.5 -31 -139.5s-49.167 -68.833 -85.5 -89.5s-78.166 -31 -125.499 -31c-46.667 0 -88.334 10.333 -125.001 31s-65.334 50.5 -86.001 89.5s-31 85.5 -31 139.5
s10.333 100.5 31 139.5s49.334 68.833 86.001 89.5s78.334 31 125.001 31zM300 441c-34 0 -63 -7.66699 -87 -23s-42.5 -37.166 -55.5 -65.499s-19.5 -62.5 -19.5 -102.5c0 -39.333 6.5 -73.333 19.5 -102s31.5 -50.667 55.5 -66s53 -23 87 -23s63 7.66699 87 23
s42.5 37.333 55.5 66s19.5 62.667 19.5 102c0 40 -6.5 74.167 -19.5 102.5s-31.5 50.166 -55.5 65.499s-53 23 -87 23zM266 750l76 -167h-65l-98 167h87z" />
    <glyph glyph-name="oacute" unicode="&#xf3;" horiz-adv-x="600" 
d="M300 510c47.333 0 89.166 -10.333 125.499 -31s64.833 -50.5 85.5 -89.5s31 -85.5 31 -139.5s-10.333 -100.5 -31 -139.5s-49.167 -68.833 -85.5 -89.5s-78.166 -31 -125.499 -31c-46.667 0 -88.334 10.333 -125.001 31s-65.334 50.5 -86.001 89.5s-31 85.5 -31 139.5
s10.333 100.5 31 139.5s49.334 68.833 86.001 89.5s78.334 31 125.001 31zM300 441c-34 0 -63 -7.66699 -87 -23s-42.5 -37.166 -55.5 -65.499s-19.5 -62.5 -19.5 -102.5c0 -39.333 6.5 -73.333 19.5 -102s31.5 -50.667 55.5 -66s53 -23 87 -23s63 7.66699 87 23
s42.5 37.333 55.5 66s19.5 62.667 19.5 102c0 40 -6.5 74.167 -19.5 102.5s-31.5 50.166 -55.5 65.499s-53 23 -87 23zM327 750h87l-98 -167h-65z" />
    <glyph glyph-name="ocircumflex" unicode="&#xf4;" horiz-adv-x="600" 
d="M300 510c47.333 0 89.166 -10.333 125.499 -31s64.833 -50.5 85.5 -89.5s31 -85.5 31 -139.5s-10.333 -100.5 -31 -139.5s-49.167 -68.833 -85.5 -89.5s-78.166 -31 -125.499 -31c-46.667 0 -88.334 10.333 -125.001 31s-65.334 50.5 -86.001 89.5s-31 85.5 -31 139.5
s10.333 100.5 31 139.5s49.334 68.833 86.001 89.5s78.334 31 125.001 31zM300 441c-34 0 -63 -7.66699 -87 -23s-42.5 -37.166 -55.5 -65.499s-19.5 -62.5 -19.5 -102.5c0 -39.333 6.5 -73.333 19.5 -102s31.5 -50.667 55.5 -66s53 -23 87 -23s63 7.66699 87 23
s42.5 37.333 55.5 66s19.5 62.667 19.5 102c0 40 -6.5 74.167 -19.5 102.5s-31.5 50.166 -55.5 65.499s-53 23 -87 23zM459 576h-73l-86 115l-86 -115h-73l114 167h90z" />
    <glyph glyph-name="otilde" unicode="&#xf5;" horiz-adv-x="600" 
d="M300 510c47.333 0 89.166 -10.333 125.499 -31s64.833 -50.5 85.5 -89.5s31 -85.5 31 -139.5s-10.333 -100.5 -31 -139.5s-49.167 -68.833 -85.5 -89.5s-78.166 -31 -125.499 -31c-46.667 0 -88.334 10.333 -125.001 31s-65.334 50.5 -86.001 89.5s-31 85.5 -31 139.5
s10.333 100.5 31 139.5s49.334 68.833 86.001 89.5s78.334 31 125.001 31zM300 441c-34 0 -63 -7.66699 -87 -23s-42.5 -37.166 -55.5 -65.499s-19.5 -62.5 -19.5 -102.5c0 -39.333 6.5 -73.333 19.5 -102s31.5 -50.667 55.5 -66s53 -23 87 -23s63 7.66699 87 23
s42.5 37.333 55.5 66s19.5 62.667 19.5 102c0 40 -6.5 74.167 -19.5 102.5s-31.5 50.166 -55.5 65.499s-53 23 -87 23zM480 717c-2 -29.333 -7.49805 -54 -16.498 -74s-21.333 -35 -37 -45s-35.167 -15 -58.5 -15c-18.667 0 -34.5 3.5 -47.5 10.5s-24.167 14.833 -33.5 23.5
s-18.5 16.5 -27.5 23.5s-18.833 10.5 -29.5 10.5c-14.667 0 -25.667 -6.16699 -33 -18.5s-12.666 -29.166 -15.999 -50.499h-63c3.33301 44 14.166 77.333 32.499 100s45.166 34 80.499 34c18 0 33.5 -3.5 46.5 -10.5s24.333 -14.833 34 -23.5s18.834 -16.5 27.501 -23.5
s18 -10.5 28 -10.5c15.333 0 26.666 6.16699 33.999 18.5s12.666 29.166 15.999 50.499h63z" />
    <glyph glyph-name="odieresis" unicode="&#xf6;" horiz-adv-x="600" 
d="M300 510c47.333 0 89.166 -10.333 125.499 -31s64.833 -50.5 85.5 -89.5s31 -85.5 31 -139.5s-10.333 -100.5 -31 -139.5s-49.167 -68.833 -85.5 -89.5s-78.166 -31 -125.499 -31c-46.667 0 -88.334 10.333 -125.001 31s-65.334 50.5 -86.001 89.5s-31 85.5 -31 139.5
s10.333 100.5 31 139.5s49.334 68.833 86.001 89.5s78.334 31 125.001 31zM300 441c-34 0 -63 -7.66699 -87 -23s-42.5 -37.166 -55.5 -65.499s-19.5 -62.5 -19.5 -102.5c0 -39.333 6.5 -73.333 19.5 -102s31.5 -50.667 55.5 -66s53 -23 87 -23s63 7.66699 87 23
s42.5 37.333 55.5 66s19.5 62.667 19.5 102c0 40 -6.5 74.167 -19.5 102.5s-31.5 50.166 -55.5 65.499s-53 23 -87 23zM203 696c17.333 0 31.166 -5.16699 41.499 -15.5s15.5 -24.166 15.5 -41.499c0 -16.667 -5.16699 -30.334 -15.5 -41.001s-24.166 -16 -41.499 -16
c-16.667 0 -30.334 5.33301 -41.001 16s-16 24.334 -16 41.001c0 17.333 5.33301 31.166 16 41.499s24.334 15.5 41.001 15.5zM397 696c17.333 0 31.166 -5.16699 41.499 -15.5s15.5 -24.166 15.5 -41.499c0 -16.667 -5.16699 -30.334 -15.5 -41.001
s-24.166 -16 -41.499 -16c-16.667 0 -30.334 5.33301 -41.001 16s-16 24.334 -16 41.001c0 17.333 5.33301 31.166 16 41.499s24.334 15.5 41.001 15.5z" />
    <glyph glyph-name="divide" unicode="&#xf7;" 
d="M545 354v-75h-486v75h486zM302 185c19.333 0 35 -6 47 -18s18 -27.667 18 -47s-6 -35 -18 -47s-27.667 -18 -47 -18s-35 6 -47 18s-18 27.667 -18 47s6 35 18 47s27.667 18 47 18zM302 576c19.333 0 35 -6 47 -18s18 -27.667 18 -47s-6 -35 -18 -47s-27.667 -18 -47 -18
s-35 6 -47 18s-18 27.667 -18 47s6 35 18 47s27.667 18 47 18z" />
    <glyph glyph-name="oslash" unicode="&#xf8;" horiz-adv-x="600" 
d="M300 510c47.333 0 89.166 -10.333 125.499 -31s64.833 -50.5 85.5 -89.5s31 -85.5 31 -139.5s-10.333 -100.5 -31 -139.5s-49.167 -68.833 -85.5 -89.5s-78.166 -31 -125.499 -31c-46.667 0 -88.334 10.333 -125.001 31s-65.334 50.5 -86.001 89.5s-31 85.5 -31 139.5
s10.333 100.5 31 139.5s49.334 68.833 86.001 89.5s78.334 31 125.001 31zM300 441c-34 0 -63 -7.66699 -87 -23s-42.5 -37.166 -55.5 -65.499s-19.5 -62.5 -19.5 -102.5c0 -39.333 6.5 -73.333 19.5 -102s31.5 -50.667 55.5 -66s53 -23 87 -23s63 7.66699 87 23
s42.5 37.333 55.5 66s19.5 62.667 19.5 102c0 40 -6.5 74.167 -19.5 102.5s-31.5 50.166 -55.5 65.499s-53 23 -87 23zM55 -30l423 560h67l-423 -560h-67z" />
    <glyph glyph-name="ugrave" unicode="&#xf9;" horiz-adv-x="617" 
d="M274 -10c-32 0 -62.166 6.00098 -90.499 18.001s-51.333 31.5 -69 58.5s-26.5 62.167 -26.5 105.5v328h80v-307c0 -50.667 11 -85.5 33 -104.5s53 -28.5 93 -28.5c18.667 0 37 3.16699 55 9.5s34.167 16.333 48.5 30s25.666 31.167 33.999 52.5s12.5 46.666 12.5 75.999
v272h80v-500h-70l-5 76c-17.333 -30 -40.833 -51.833 -70.5 -65.5s-64.5 -20.5 -104.5 -20.5zM272.001 740.001l76 -167h-65l-98 167h87z" />
    <glyph glyph-name="uacute" unicode="&#xfa;" horiz-adv-x="617" 
d="M274 -10c-32 0 -62.166 6.00098 -90.499 18.001s-51.333 31.5 -69 58.5s-26.5 62.167 -26.5 105.5v328h80v-307c0 -50.667 11 -85.5 33 -104.5s53 -28.5 93 -28.5c18.667 0 37 3.16699 55 9.5s34.167 16.333 48.5 30s25.666 31.167 33.999 52.5s12.5 46.666 12.5 75.999
v272h80v-500h-70l-5 76c-17.333 -30 -40.833 -51.833 -70.5 -65.5s-64.5 -20.5 -104.5 -20.5zM333.001 740.001h87l-98 -167h-65z" />
    <glyph glyph-name="ucircumflex" unicode="&#xfb;" horiz-adv-x="617" 
d="M274 -10c-32 0 -62.166 6.00098 -90.499 18.001s-51.333 31.5 -69 58.5s-26.5 62.167 -26.5 105.5v328h80v-307c0 -50.667 11 -85.5 33 -104.5s53 -28.5 93 -28.5c18.667 0 37 3.16699 55 9.5s34.167 16.333 48.5 30s25.666 31.167 33.999 52.5s12.5 46.666 12.5 75.999
v272h80v-500h-70l-5 76c-17.333 -30 -40.833 -51.833 -70.5 -65.5s-64.5 -20.5 -104.5 -20.5zM465.001 566.001h-73l-86 115l-86 -115h-73l114 167h90z" />
    <glyph glyph-name="udieresis" unicode="&#xfc;" horiz-adv-x="617" 
d="M274 -10c-32 0 -62.166 6.00098 -90.499 18.001s-51.333 31.5 -69 58.5s-26.5 62.167 -26.5 105.5v328h80v-307c0 -50.667 11 -85.5 33 -104.5s53 -28.5 93 -28.5c18.667 0 37 3.16699 55 9.5s34.167 16.333 48.5 30s25.666 31.167 33.999 52.5s12.5 46.666 12.5 75.999
v272h80v-500h-70l-5 76c-17.333 -30 -40.833 -51.833 -70.5 -65.5s-64.5 -20.5 -104.5 -20.5zM209.001 686.001c17.333 0 31.166 -5.16699 41.499 -15.5s15.5 -24.166 15.5 -41.499c0 -16.667 -5.16699 -30.334 -15.5 -41.001s-24.166 -16 -41.499 -16
c-16.667 0 -30.334 5.33301 -41.001 16s-16 24.334 -16 41.001c0 17.333 5.33301 31.166 16 41.499s24.334 15.5 41.001 15.5zM403.001 686.001c17.333 0 31.166 -5.16699 41.499 -15.5s15.5 -24.166 15.5 -41.499c0 -16.667 -5.16699 -30.334 -15.5 -41.001
s-24.166 -16 -41.499 -16c-16.667 0 -30.334 5.33301 -41.001 16s-16 24.334 -16 41.001c0 17.333 5.33301 31.166 16 41.499s24.334 15.5 41.001 15.5z" />
    <glyph glyph-name="yacute" unicode="&#xfd;" horiz-adv-x="516" 
d="M504 500l-234.999 -584.001c-12.667 -32.667 -26.5 -58.5 -41.5 -77.5s-31.667 -32.667 -50 -41s-39.5 -12.5 -63.5 -12.5c-22.667 0 -43.5 3.16699 -62.5 9.5s-35.833 14.833 -50.5 25.5l22 70c13.333 -12 27.5 -20.833 42.5 -26.5s29.833 -8.5 44.5 -8.5
c17.333 0 33.666 5.33301 48.999 16s29.333 32.334 42 65.001l26 65l-50 119l-159 380h91l125 -326l31 -89l36 99l117 316h86zM286.001 739.999h87l-98 -167h-65z" />
    <glyph glyph-name="thorn" unicode="&#xfe;" horiz-adv-x="627" 
d="M93 -210l-0.00195312 940.004h80v-352l-10 24c13.333 31.333 35.833 57.166 67.5 77.499s67.834 30.5 108.501 30.5c41.333 0 79.333 -10.333 114 -31s62.334 -50.334 83.001 -89.001s31 -85.334 31 -140.001c0 -54 -10.5 -100.5 -31.5 -139.5
s-48.833 -68.833 -83.5 -89.5s-72.667 -31 -114 -31s-77.5 10.167 -108.5 30.5s-53.167 46.166 -66.5 77.499l10 15v-323h-80zM329.998 60.0039c49.333 0 87.833 17.334 115.5 52.001s41.5 80.667 41.5 138s-13.5 103.333 -40.5 138s-64.833 52 -113.5 52
c-32 0 -60 -7.83301 -84 -23.5s-42.667 -37.667 -56 -66s-20 -61.833 -20 -100.5c0 -38 6.5 -71.333 19.5 -100s31.333 -50.834 55 -66.501s51.167 -23.5 82.5 -23.5z" />
    <glyph glyph-name="ydieresis" unicode="&#xff;" horiz-adv-x="516" 
d="M504 500l-234.999 -584.001c-12.667 -32.667 -26.5 -58.5 -41.5 -77.5s-31.667 -32.667 -50 -41s-39.5 -12.5 -63.5 -12.5c-22.667 0 -43.5 3.16699 -62.5 9.5s-35.833 14.833 -50.5 25.5l22 70c13.333 -12 27.5 -20.833 42.5 -26.5s29.833 -8.5 44.5 -8.5
c17.333 0 33.666 5.33301 48.999 16s29.333 32.334 42 65.001l26 65l-50 119l-159 380h91l125 -326l31 -89l36 99l117 316h86zM162.001 685.999c17.333 0 31.166 -5.16699 41.499 -15.5s15.5 -24.166 15.5 -41.499c0 -16.667 -5.16699 -30.334 -15.5 -41.001
s-24.166 -16 -41.499 -16c-16.667 0 -30.334 5.33301 -41.001 16s-16 24.334 -16 41.001c0 17.333 5.33301 31.166 16 41.499s24.334 15.5 41.001 15.5zM356.001 685.999c17.333 0 31.166 -5.16699 41.499 -15.5s15.5 -24.166 15.5 -41.499
c0 -16.667 -5.16699 -30.334 -15.5 -41.001s-24.166 -16 -41.499 -16c-16.667 0 -30.334 5.33301 -41.001 16s-16 24.334 -16 41.001c0 17.333 5.33301 31.166 16 41.499s24.334 15.5 41.001 15.5z" />
    <glyph glyph-name="Amacron" unicode="&#x100;" horiz-adv-x="660" 
d="M634 0h-85l-70 183h-299l-70 -183h-84l257 660h95zM209 258h241l-121 325zM494 823v-67h-328v67h328z" />
    <glyph glyph-name="amacron" unicode="&#x101;" horiz-adv-x="566" 
d="M385 323c0 37.333 -10.0029 66.168 -30.0029 86.501s-48.333 30.5 -85 30.5c-34.667 0 -64 -7.5 -88 -22.5s-41.667 -39.167 -53 -72.5l-65 40c13.333 37.333 38 67.5 74 90.5s80.667 34.5 134 34.5c36 0 68.667 -6.16699 98 -18.5s52.5 -31 69.5 -56
s25.5 -57.167 25.5 -96.5v-242c0 -24 12.667 -36 38 -36c12.667 0 25 1.66699 37 5l-4 -63c-13.333 -6.66699 -30.666 -10 -51.999 -10c-19.333 0 -36.666 3.66699 -51.999 11s-27.333 18.5 -36 33.5s-13 33.833 -13 56.5v10l20 -3c-8 -26 -21.667 -47.167 -41 -63.5
s-41 -28.333 -65 -36s-47.667 -11.5 -71 -11.5c-29.333 0 -56.666 5 -81.999 15s-45.5 25.167 -60.5 45.5s-22.5 45.5 -22.5 75.5c0 37.333 12.5 68.166 37.5 92.499s59.833 40.833 104.5 49.5l198 39v-66l-161 -33c-32.667 -6.66699 -57 -16 -73 -28s-24 -28.667 -24 -50
c0 -20.667 8.16699 -37.5 24.5 -50.5s39.5 -19.5 69.5 -19.5c19.333 0 37.833 2.5 55.5 7.5s33.5 12.667 47.5 23s25 23.333 33 39s12 34.167 12 55.5v138zM439.997 663.002v-67h-328v67h328z" />
    <glyph glyph-name="Abreve" unicode="&#x102;" horiz-adv-x="660" 
d="M634 0h-85l-70 183h-299l-70 -183h-84l257 660h95zM209 258h241l-121 325zM478 885c0 -44 -13.668 -79.667 -41.001 -107s-63 -41 -107 -41s-79.667 13.667 -107 41s-41 63 -41 107h65c0.666992 -23.333 8 -43.833 22 -61.5s34.333 -26.5 61 -26.5
c27.333 0 47.833 8.83301 61.5 26.5s20.834 38.167 21.501 61.5h65z" />
    <glyph glyph-name="abreve" unicode="&#x103;" horiz-adv-x="566" 
d="M385 323c0 37.333 -10.0029 66.168 -30.0029 86.501s-48.333 30.5 -85 30.5c-34.667 0 -64 -7.5 -88 -22.5s-41.667 -39.167 -53 -72.5l-65 40c13.333 37.333 38 67.5 74 90.5s80.667 34.5 134 34.5c36 0 68.667 -6.16699 98 -18.5s52.5 -31 69.5 -56
s25.5 -57.167 25.5 -96.5v-242c0 -24 12.667 -36 38 -36c12.667 0 25 1.66699 37 5l-4 -63c-13.333 -6.66699 -30.666 -10 -51.999 -10c-19.333 0 -36.666 3.66699 -51.999 11s-27.333 18.5 -36 33.5s-13 33.833 -13 56.5v10l20 -3c-8 -26 -21.667 -47.167 -41 -63.5
s-41 -28.333 -65 -36s-47.667 -11.5 -71 -11.5c-29.333 0 -56.666 5 -81.999 15s-45.5 25.167 -60.5 45.5s-22.5 45.5 -22.5 75.5c0 37.333 12.5 68.166 37.5 92.499s59.833 40.833 104.5 49.5l198 39v-66l-161 -33c-32.667 -6.66699 -57 -16 -73 -28s-24 -28.667 -24 -50
c0 -20.667 8.16699 -37.5 24.5 -50.5s39.5 -19.5 69.5 -19.5c19.333 0 37.833 2.5 55.5 7.5s33.5 12.667 47.5 23s25 23.333 33 39s12 34.167 12 55.5v138zM423.997 725.002c0 -44 -13.668 -79.667 -41.001 -107s-63 -41 -107 -41s-79.667 13.667 -107 41s-41 63 -41 107h65
c0.666992 -23.333 8 -43.833 22 -61.5s34.333 -26.5 61 -26.5c27.333 0 47.833 8.83301 61.5 26.5s20.834 38.167 21.501 61.5h65z" />
    <glyph glyph-name="Aogonek" unicode="&#x104;" horiz-adv-x="660" 
d="M564 -215c-24 0 -44.833 4.1709 -62.5 12.5039s-31.5 20.166 -41.5 35.499s-15 34 -15 56c0 33.333 11.5 61.5 34.5 84.5s59.167 42.167 108.5 57.5l46 -31c-33.333 -10.667 -59 -21.834 -77 -33.501s-30.333 -23.5 -37 -35.5s-10 -24.333 -10 -37
c0 -16.667 5.83301 -29.5 17.5 -38.5s27.167 -13.5 46.5 -13.5c8.66699 0 18 0.666992 28 2s19 4.66602 27 9.99902l16 -51c-9.33301 -6.66699 -21.5 -11.334 -36.5 -14.001s-29.833 -4 -44.5 -4zM634 0.00390625h-85l-70 183h-299l-70 -183h-84l257 660h95zM209 258.004
h241l-121 325z" />
    <glyph glyph-name="aogonek" unicode="&#x105;" horiz-adv-x="566" 
d="M456 -228c-24 0 -44.832 4.16797 -62.499 12.501s-31.5 20 -41.5 35s-15 32.167 -15 51.5c0 37.333 13.167 67.666 39.5 90.999s64.166 45.333 113.499 66l46 -25c-33.333 -14.667 -59.833 -28.834 -79.5 -42.501s-33.667 -27 -42 -40s-12.5 -25.833 -12.5 -38.5
c0 -16.667 6 -29.667 18 -39s27.333 -14 46 -14c8.66699 0 18 0.833008 28 2.5s19 4.83398 27 9.50098l16 -51c-9.33301 -6 -21.5 -10.5 -36.5 -13.5s-29.833 -4.5 -44.5 -4.5zM385.001 323.001c0 37.333 -10.0029 66.168 -30.0029 86.501s-48.333 30.5 -85 30.5
c-34.667 0 -64 -7.5 -88 -22.5s-41.667 -39.167 -53 -72.5l-65 40c13.333 37.333 38 67.5 74 90.5s80.667 34.5 134 34.5c36 0 68.667 -6.16699 98 -18.5s52.5 -31 69.5 -56s25.5 -57.167 25.5 -96.5v-242c0 -24 12.667 -36 38 -36c12.667 0 25 1.66699 37 5l-4 -63
c-13.333 -6.66699 -30.666 -10 -51.999 -10c-19.333 0 -36.666 3.66699 -51.999 11s-27.333 18.5 -36 33.5s-13 33.833 -13 56.5v10l20 -3c-8 -26 -21.667 -47.167 -41 -63.5s-41 -28.333 -65 -36s-47.667 -11.5 -71 -11.5c-29.333 0 -56.666 5 -81.999 15
s-45.5 25.167 -60.5 45.5s-22.5 45.5 -22.5 75.5c0 37.333 12.5 68.166 37.5 92.499s59.833 40.833 104.5 49.5l198 39v-66l-161 -33c-32.667 -6.66699 -57 -16 -73 -28s-24 -28.667 -24 -50c0 -20.667 8.16699 -37.5 24.5 -50.5s39.5 -19.5 69.5 -19.5
c19.333 0 37.833 2.5 55.5 7.5s33.5 12.667 47.5 23s25 23.333 33 39s12 34.167 12 55.5v138z" />
    <glyph glyph-name="Cacute" unicode="&#x106;" horiz-adv-x="686" 
d="M640 169c-14 -37.333 -33.998 -69.502 -59.998 -96.502s-56.5 -47.5 -91.5 -61.5s-73.167 -21 -114.5 -21c-62.667 0 -116.834 13.833 -162.501 41.5s-81 66.834 -106 117.501s-37.5 111 -37.5 181s12.5 130.333 37.5 181s60.333 89.834 106 117.501
s99.167 41.5 160.5 41.5c42.667 0 80.667 -5.83301 114 -17.5s61.833 -29 85.5 -52s42.5 -51.167 56.5 -84.5l-79 -37c-14.667 38 -35.834 66.833 -63.501 86.5s-63.5 29.5 -107.5 29.5c-44.667 0 -84 -10.5 -118 -31.5s-60.5 -51.167 -79.5 -90.5s-28.5 -87 -28.5 -143
c0 -55.333 9 -102.833 27 -142.5s43.667 -70 77 -91s72.666 -31.5 117.999 -31.5c44 0 82.333 11.167 115 33.5s56.334 55.833 71.001 100.5zM395.002 901.998h84l-86 -159h-64z" />
    <glyph glyph-name="cacute" unicode="&#x107;" horiz-adv-x="560" 
d="M300 510c34.667 0 65.1709 -5.33301 91.5039 -16s49.166 -26 68.499 -46s35 -43.667 47 -71l-76 -36c-10.667 32 -26.834 56.5 -48.501 73.5s-49.834 25.5 -84.501 25.5c-33.333 0 -62 -7.5 -86 -22.5s-42.333 -36.667 -55 -65s-19 -62.5 -19 -102.5
c0 -39.333 6.33301 -73.333 19 -102s31 -50.5 55 -65.5s52.667 -22.5 86 -22.5c26 0 48.5 4 67.5 12s34.667 19.667 47 35s20.833 34 25.5 56l74 -26c-11.333 -30.667 -26.833 -57 -46.5 -79s-43.334 -38.833 -71.001 -50.5s-59.167 -17.5 -94.5 -17.5
c-46.667 0 -88.334 10.333 -125.001 31s-65.334 50.5 -86.001 89.5s-31 85.5 -31 139.5s10.333 100.5 31 139.5s49.334 68.833 86.001 89.5s78.334 31 125.001 31zM319.004 750h87l-98 -167h-65z" />
    <glyph glyph-name="Ccircumflex" unicode="&#x108;" horiz-adv-x="686" 
d="M640 169c-14 -37.333 -33.998 -69.502 -59.998 -96.502s-56.5 -47.5 -91.5 -61.5s-73.167 -21 -114.5 -21c-62.667 0 -116.834 13.833 -162.501 41.5s-81 66.834 -106 117.501s-37.5 111 -37.5 181s12.5 130.333 37.5 181s60.333 89.834 106 117.501
s99.167 41.5 160.5 41.5c42.667 0 80.667 -5.83301 114 -17.5s61.833 -29 85.5 -52s42.5 -51.167 56.5 -84.5l-79 -37c-14.667 38 -35.834 66.833 -63.501 86.5s-63.5 29.5 -107.5 29.5c-44.667 0 -84 -10.5 -118 -31.5s-60.5 -51.167 -79.5 -90.5s-28.5 -87 -28.5 -143
c0 -55.333 9 -102.833 27 -142.5s43.667 -70 77 -91s72.666 -31.5 117.999 -31.5c44 0 82.333 11.167 115 33.5s56.334 55.833 71.001 100.5zM526.002 742.998h-74l-80 107l-80 -107h-74l110 159h88z" />
    <glyph glyph-name="ccircumflex" unicode="&#x109;" horiz-adv-x="560" 
d="M300 510c34.667 0 65.1709 -5.33301 91.5039 -16s49.166 -26 68.499 -46s35 -43.667 47 -71l-76 -36c-10.667 32 -26.834 56.5 -48.501 73.5s-49.834 25.5 -84.501 25.5c-33.333 0 -62 -7.5 -86 -22.5s-42.333 -36.667 -55 -65s-19 -62.5 -19 -102.5
c0 -39.333 6.33301 -73.333 19 -102s31 -50.5 55 -65.5s52.667 -22.5 86 -22.5c26 0 48.5 4 67.5 12s34.667 19.667 47 35s20.833 34 25.5 56l74 -26c-11.333 -30.667 -26.833 -57 -46.5 -79s-43.334 -38.833 -71.001 -50.5s-59.167 -17.5 -94.5 -17.5
c-46.667 0 -88.334 10.333 -125.001 31s-65.334 50.5 -86.001 89.5s-31 85.5 -31 139.5s10.333 100.5 31 139.5s49.334 68.833 86.001 89.5s78.334 31 125.001 31zM451.004 576h-73l-86 115l-86 -115h-73l114 167h90z" />
    <glyph glyph-name="Cdotaccent" unicode="&#x10a;" horiz-adv-x="686" 
d="M640 169c-14 -37.333 -33.998 -69.502 -59.998 -96.502s-56.5 -47.5 -91.5 -61.5s-73.167 -21 -114.5 -21c-62.667 0 -116.834 13.833 -162.501 41.5s-81 66.834 -106 117.501s-37.5 111 -37.5 181s12.5 130.333 37.5 181s60.333 89.834 106 117.501
s99.167 41.5 160.5 41.5c42.667 0 80.667 -5.83301 114 -17.5s61.833 -29 85.5 -52s42.5 -51.167 56.5 -84.5l-79 -37c-14.667 38 -35.834 66.833 -63.501 86.5s-63.5 29.5 -107.5 29.5c-44.667 0 -84 -10.5 -118 -31.5s-60.5 -51.167 -79.5 -90.5s-28.5 -87 -28.5 -143
c0 -55.333 9 -102.833 27 -142.5s43.667 -70 77 -91s72.666 -31.5 117.999 -31.5c44 0 82.333 11.167 115 33.5s56.334 55.833 71.001 100.5zM372.002 875.998c18 0 32.5 -5.5 43.5 -16.5s16.5 -25.5 16.5 -43.5s-5.5 -32.5 -16.5 -43.5s-25.5 -16.5 -43.5 -16.5
s-32.5 5.5 -43.5 16.5s-16.5 25.5 -16.5 43.5s5.5 32.5 16.5 43.5s25.5 16.5 43.5 16.5z" />
    <glyph glyph-name="cdotaccent" unicode="&#x10b;" horiz-adv-x="560" 
d="M300 510c34.667 0 65.1709 -5.33301 91.5039 -16s49.166 -26 68.499 -46s35 -43.667 47 -71l-76 -36c-10.667 32 -26.834 56.5 -48.501 73.5s-49.834 25.5 -84.501 25.5c-33.333 0 -62 -7.5 -86 -22.5s-42.333 -36.667 -55 -65s-19 -62.5 -19 -102.5
c0 -39.333 6.33301 -73.333 19 -102s31 -50.5 55 -65.5s52.667 -22.5 86 -22.5c26 0 48.5 4 67.5 12s34.667 19.667 47 35s20.833 34 25.5 56l74 -26c-11.333 -30.667 -26.833 -57 -46.5 -79s-43.334 -38.833 -71.001 -50.5s-59.167 -17.5 -94.5 -17.5
c-46.667 0 -88.334 10.333 -125.001 31s-65.334 50.5 -86.001 89.5s-31 85.5 -31 139.5s10.333 100.5 31 139.5s49.334 68.833 86.001 89.5s78.334 31 125.001 31zM292.004 716c18 0 32.5 -5.5 43.5 -16.5s16.5 -25.5 16.5 -43.5s-5.5 -32.5 -16.5 -43.5
s-25.5 -16.5 -43.5 -16.5s-32.5 5.5 -43.5 16.5s-16.5 25.5 -16.5 43.5s5.5 32.5 16.5 43.5s25.5 16.5 43.5 16.5z" />
    <glyph glyph-name="Ccaron" unicode="&#x10c;" horiz-adv-x="686" 
d="M640 169c-14 -37.333 -33.998 -69.502 -59.998 -96.502s-56.5 -47.5 -91.5 -61.5s-73.167 -21 -114.5 -21c-62.667 0 -116.834 13.833 -162.501 41.5s-81 66.834 -106 117.501s-37.5 111 -37.5 181s12.5 130.333 37.5 181s60.333 89.834 106 117.501
s99.167 41.5 160.5 41.5c42.667 0 80.667 -5.83301 114 -17.5s61.833 -29 85.5 -52s42.5 -51.167 56.5 -84.5l-79 -37c-14.667 38 -35.834 66.833 -63.501 86.5s-63.5 29.5 -107.5 29.5c-44.667 0 -84 -10.5 -118 -31.5s-60.5 -51.167 -79.5 -90.5s-28.5 -87 -28.5 -143
c0 -55.333 9 -102.833 27 -142.5s43.667 -70 77 -91s72.666 -31.5 117.999 -31.5c44 0 82.333 11.167 115 33.5s56.334 55.833 71.001 100.5zM526.002 901.998l-110 -159h-88l-110 159h74l80 -107l80 107h74z" />
    <glyph glyph-name="ccaron" unicode="&#x10d;" horiz-adv-x="560" 
d="M300 510c34.667 0 65.1709 -5.33301 91.5039 -16s49.166 -26 68.499 -46s35 -43.667 47 -71l-76 -36c-10.667 32 -26.834 56.5 -48.501 73.5s-49.834 25.5 -84.501 25.5c-33.333 0 -62 -7.5 -86 -22.5s-42.333 -36.667 -55 -65s-19 -62.5 -19 -102.5
c0 -39.333 6.33301 -73.333 19 -102s31 -50.5 55 -65.5s52.667 -22.5 86 -22.5c26 0 48.5 4 67.5 12s34.667 19.667 47 35s20.833 34 25.5 56l74 -26c-11.333 -30.667 -26.833 -57 -46.5 -79s-43.334 -38.833 -71.001 -50.5s-59.167 -17.5 -94.5 -17.5
c-46.667 0 -88.334 10.333 -125.001 31s-65.334 50.5 -86.001 89.5s-31 85.5 -31 139.5s10.333 100.5 31 139.5s49.334 68.833 86.001 89.5s78.334 31 125.001 31zM451.004 750l-114 -167h-90l-114 167h73l86 -115l86 115h73z" />
    <glyph glyph-name="Dcaron" unicode="&#x10e;" horiz-adv-x="721" 
d="M321 660c103.333 0 184.5 -28.5 243.5 -85.5s88.5 -138.5 88.5 -244.5s-29.5 -187.5 -88.5 -244.5s-140.167 -85.5 -243.5 -85.5h-213v660h213zM329 75c75.333 0 134.166 22.5 176.499 67.5s63.5 107.5 63.5 187.5s-21.167 142.5 -63.5 187.5
s-101.166 67.5 -176.499 67.5h-141v-510h141zM519 902l-110 -159h-88l-110 159h74l80 -107l80 107h74z" />
    <glyph glyph-name="dcaron" unicode="&#x10f;" horiz-adv-x="650" 
d="M687 730l-41 -197h-55l20 197h76zM288 -10c-41.333 0 -79.3281 10.3311 -113.995 30.998s-62.334 50.5 -83.001 89.5s-31 85.5 -31 139.5c0 55.333 11 102.333 33 141s51 68.167 87 88.5s74.667 30.5 116 30.5s77.166 -10.667 107.499 -32s50.5 -49.666 60.5 -84.999
l-10 -7v344h80v-730h-70l-7 121l11 6c-4.66699 -29.333 -15.834 -54.166 -33.501 -74.499s-39.334 -35.833 -65.001 -46.5s-52.834 -16 -81.501 -16zM296.005 59.998c32 0 59.834 8 83.501 24s42 38.833 55 68.5s19.5 64.5 19.5 104.5c0 38 -6.5 70.667 -19.5 98
s-31 48.333 -54 63s-49.833 22 -80.5 22c-50.667 0 -90 -17.333 -118 -52s-42 -80.667 -42 -138s13.667 -103.333 41 -138s65.666 -52 114.999 -52z" />
    <glyph glyph-name="Dcroat" unicode="&#x110;" horiz-adv-x="737" 
d="M26 296v75h375v-75h-375zM337 660c103.333 0 184.5 -28.5 243.5 -85.5s88.5 -138.5 88.5 -244.5s-29.5 -187.5 -88.5 -244.5s-140.167 -85.5 -243.5 -85.5h-213v660h213zM345 75c75.333 0 134.166 22.5 176.499 67.5s63.5 107.5 63.5 187.5s-21.167 142.5 -63.5 187.5
s-101.166 67.5 -176.499 67.5h-141v-510h141z" />
    <glyph glyph-name="dcroat" unicode="&#x111;" horiz-adv-x="629" 
d="M300 566v61h314v-61h-314zM288 -10c-41.333 0 -79.3281 10.3311 -113.995 30.998s-62.334 50.5 -83.001 89.5s-31 85.5 -31 139.5c0 55.333 11 102.333 33 141s51 68.167 87 88.5s74.667 30.5 116 30.5s77.166 -10.667 107.499 -32s50.5 -49.666 60.5 -84.999l-10 -7v344
h80v-730h-70l-7 121l11 6c-4.66699 -29.333 -15.834 -54.166 -33.501 -74.499s-39.334 -35.833 -65.001 -46.5s-52.834 -16 -81.501 -16zM296.005 59.998c32 0 59.834 8 83.501 24s42 38.833 55 68.5s19.5 64.5 19.5 104.5c0 38 -6.5 70.667 -19.5 98s-31 48.333 -54 63
s-49.833 22 -80.5 22c-50.667 0 -90 -17.333 -118 -52s-42 -80.667 -42 -138s13.667 -103.333 41 -138s65.666 -52 114.999 -52z" />
    <glyph glyph-name="Emacron" unicode="&#x112;" horiz-adv-x="638" 
d="M108 0v660h463v-75h-383v-213h298v-75h-298v-222h398v-75h-478zM504 823v-67h-328v67h328z" />
    <glyph glyph-name="emacron" unicode="&#x113;" horiz-adv-x="577" 
d="M302 -10c-47.333 0 -89.4971 10.332 -126.497 30.999s-65.833 50.5 -86.5 89.5s-31 85.5 -31 139.5s10.333 100.5 31 139.5s49 68.833 85 89.5s77 31 123 31c46.667 0 86.5 -10 119.5 -30s58.167 -47.167 75.5 -81.5s26 -72.833 26 -115.5
c0 -11.333 -0.333008 -21.666 -1 -30.999s-1.66699 -17.666 -3 -24.999h-404v71h369l-41 -8c0 48 -13.167 85 -39.5 111s-60.833 39 -103.5 39c-32.667 0 -60.834 -7.5 -84.501 -22.5s-42 -36.667 -55 -65s-19.5 -62.5 -19.5 -102.5c0 -39.333 6.66699 -73.333 20 -102
s32.166 -50.5 56.499 -65.5s53.5 -22.5 87.5 -22.5c36.667 0 66.5 7 89.5 21s41.5 33 55.5 57l63 -37c-12.667 -22.667 -28.834 -42.334 -48.501 -59.001s-42.667 -29.5 -69 -38.5s-55.833 -13.5 -88.5 -13.5zM455.003 662.999v-67h-328v67h328z" />
    <glyph glyph-name="Ebreve" unicode="&#x114;" horiz-adv-x="638" 
d="M108 0v660h463v-75h-383v-213h298v-75h-298v-222h398v-75h-478zM488 885c0 -44 -13.668 -79.667 -41.001 -107s-63 -41 -107 -41s-79.667 13.667 -107 41s-41 63 -41 107h65c0.666992 -23.333 8 -43.833 22 -61.5s34.333 -26.5 61 -26.5
c27.333 0 47.833 8.83301 61.5 26.5s20.834 38.167 21.501 61.5h65z" />
    <glyph glyph-name="ebreve" unicode="&#x115;" horiz-adv-x="577" 
d="M302 -10c-47.333 0 -89.4971 10.332 -126.497 30.999s-65.833 50.5 -86.5 89.5s-31 85.5 -31 139.5s10.333 100.5 31 139.5s49 68.833 85 89.5s77 31 123 31c46.667 0 86.5 -10 119.5 -30s58.167 -47.167 75.5 -81.5s26 -72.833 26 -115.5
c0 -11.333 -0.333008 -21.666 -1 -30.999s-1.66699 -17.666 -3 -24.999h-404v71h369l-41 -8c0 48 -13.167 85 -39.5 111s-60.833 39 -103.5 39c-32.667 0 -60.834 -7.5 -84.501 -22.5s-42 -36.667 -55 -65s-19.5 -62.5 -19.5 -102.5c0 -39.333 6.66699 -73.333 20 -102
s32.166 -50.5 56.499 -65.5s53.5 -22.5 87.5 -22.5c36.667 0 66.5 7 89.5 21s41.5 33 55.5 57l63 -37c-12.667 -22.667 -28.834 -42.334 -48.501 -59.001s-42.667 -29.5 -69 -38.5s-55.833 -13.5 -88.5 -13.5zM439.003 724.999c0 -44 -13.668 -79.667 -41.001 -107
s-63 -41 -107 -41s-79.667 13.667 -107 41s-41 63 -41 107h65c0.666992 -23.333 8 -43.833 22 -61.5s34.333 -26.5 61 -26.5c27.333 0 47.833 8.83301 61.5 26.5s20.834 38.167 21.501 61.5h65z" />
    <glyph glyph-name="Edotaccent" unicode="&#x116;" horiz-adv-x="638" 
d="M108 0v660h463v-75h-383v-213h298v-75h-298v-222h398v-75h-478zM340 876c18 0 32.5 -5.5 43.5 -16.5s16.5 -25.5 16.5 -43.5s-5.5 -32.5 -16.5 -43.5s-25.5 -16.5 -43.5 -16.5s-32.5 5.5 -43.5 16.5s-16.5 25.5 -16.5 43.5s5.5 32.5 16.5 43.5s25.5 16.5 43.5 16.5z" />
    <glyph glyph-name="edotaccent" unicode="&#x117;" horiz-adv-x="577" 
d="M302 -10c-47.333 0 -89.4971 10.332 -126.497 30.999s-65.833 50.5 -86.5 89.5s-31 85.5 -31 139.5s10.333 100.5 31 139.5s49 68.833 85 89.5s77 31 123 31c46.667 0 86.5 -10 119.5 -30s58.167 -47.167 75.5 -81.5s26 -72.833 26 -115.5
c0 -11.333 -0.333008 -21.666 -1 -30.999s-1.66699 -17.666 -3 -24.999h-404v71h369l-41 -8c0 48 -13.167 85 -39.5 111s-60.833 39 -103.5 39c-32.667 0 -60.834 -7.5 -84.501 -22.5s-42 -36.667 -55 -65s-19.5 -62.5 -19.5 -102.5c0 -39.333 6.66699 -73.333 20 -102
s32.166 -50.5 56.499 -65.5s53.5 -22.5 87.5 -22.5c36.667 0 66.5 7 89.5 21s41.5 33 55.5 57l63 -37c-12.667 -22.667 -28.834 -42.334 -48.501 -59.001s-42.667 -29.5 -69 -38.5s-55.833 -13.5 -88.5 -13.5zM291.003 715.999c18 0 32.5 -5.5 43.5 -16.5
s16.5 -25.5 16.5 -43.5s-5.5 -32.5 -16.5 -43.5s-25.5 -16.5 -43.5 -16.5s-32.5 5.5 -43.5 16.5s-16.5 25.5 -16.5 43.5s5.5 32.5 16.5 43.5s25.5 16.5 43.5 16.5z" />
    <glyph glyph-name="Eogonek" unicode="&#x118;" horiz-adv-x="638" 
d="M506 -231c-24 0 -44.832 4.16699 -62.499 12.5s-31.5 20 -41.5 35s-15 32.167 -15 51.5c0 37.333 13.167 67.666 39.5 90.999s64.166 45.333 113.499 66l46 -25c-50 -22 -84.833 -43 -104.5 -63s-29.5 -39.333 -29.5 -58c0 -16.667 6 -29.667 18 -39s27.333 -14 46 -14
c8.66699 0 18 0.833008 28 2.5s19 4.83398 27 9.50098l16 -51c-9.33301 -6 -21.5 -10.5 -36.5 -13.5s-29.833 -4.5 -44.5 -4.5zM108.001 0v660h463v-75h-383v-213h298v-75h-298v-222h398v-75h-478z" />
    <glyph glyph-name="eogonek" unicode="&#x119;" horiz-adv-x="577" 
d="M302 -10c-47.333 0 -89.4971 10.332 -126.497 30.999s-65.833 50.5 -86.5 89.5s-31 85.5 -31 139.5s10.333 100.5 31 139.5s49 68.833 85 89.5s77 31 123 31c46.667 0 86.5 -10 119.5 -30s58.167 -47.167 75.5 -81.5s26 -72.833 26 -115.5
c0 -11.333 -0.333008 -21.666 -1 -30.999s-1.66699 -17.666 -3 -24.999h-404v71h369l-41 -8c0 48 -13.167 85 -39.5 111s-60.833 39 -103.5 39c-32.667 0 -60.834 -7.5 -84.501 -22.5s-42 -36.667 -55 -65s-19.5 -62.5 -19.5 -102.5c0 -39.333 6.66699 -73.333 20 -102
s32.166 -50.5 56.499 -65.5s53.5 -22.5 87.5 -22.5c36.667 0 66.5 7 89.5 21s41.5 33 55.5 57l63 -37c-12.667 -22.667 -28.834 -42.334 -48.501 -59.001s-42.667 -29.5 -69 -38.5s-55.833 -13.5 -88.5 -13.5zM327.003 -224.001c-38 0 -67.167 9.49902 -87.5 28.499
s-30.5 43.833 -30.5 74.5c0 37.333 11.833 67 35.5 89s60.167 42 109.5 60l44 -21c-36.667 -13.333 -64 -26.5 -82 -39.5s-29.833 -26 -35.5 -39s-8.5 -26.5 -8.5 -40.5c0 -17.333 5.66699 -30.666 17 -39.999s26.333 -14 45 -14c10 0 19.667 1 29 3s18 4.66699 26 8l12 -53
c-8.66699 -4.66699 -19.667 -8.5 -33 -11.5s-27 -4.5 -41 -4.5z" />
    <glyph glyph-name="Ecaron" unicode="&#x11a;" horiz-adv-x="638" 
d="M108 0v660h463v-75h-383v-213h298v-75h-298v-222h398v-75h-478zM494 902l-110 -159h-88l-110 159h74l80 -107l80 107h74z" />
    <glyph glyph-name="ecaron" unicode="&#x11b;" horiz-adv-x="577" 
d="M302 -10c-47.333 0 -89.4971 10.332 -126.497 30.999s-65.833 50.5 -86.5 89.5s-31 85.5 -31 139.5s10.333 100.5 31 139.5s49 68.833 85 89.5s77 31 123 31c46.667 0 86.5 -10 119.5 -30s58.167 -47.167 75.5 -81.5s26 -72.833 26 -115.5
c0 -11.333 -0.333008 -21.666 -1 -30.999s-1.66699 -17.666 -3 -24.999h-404v71h369l-41 -8c0 48 -13.167 85 -39.5 111s-60.833 39 -103.5 39c-32.667 0 -60.834 -7.5 -84.501 -22.5s-42 -36.667 -55 -65s-19.5 -62.5 -19.5 -102.5c0 -39.333 6.66699 -73.333 20 -102
s32.166 -50.5 56.499 -65.5s53.5 -22.5 87.5 -22.5c36.667 0 66.5 7 89.5 21s41.5 33 55.5 57l63 -37c-12.667 -22.667 -28.834 -42.334 -48.501 -59.001s-42.667 -29.5 -69 -38.5s-55.833 -13.5 -88.5 -13.5zM450.003 749.999l-114 -167h-90l-114 167h73l86 -115l86 115h73
z" />
    <glyph glyph-name="Gcircumflex" unicode="&#x11c;" horiz-adv-x="724" 
d="M374 -10c-62.667 0 -116.834 13.8311 -162.501 41.498s-81 66.834 -106 117.501s-37.5 111 -37.5 181s13.167 130.333 39.5 181s63.166 89.834 110.499 117.501s101.666 41.5 162.999 41.5c65.333 0 118.5 -12.333 159.5 -37s74.167 -62.667 99.5 -114l-73 -40
c-14.667 38 -37.834 66.833 -69.501 86.5s-70.5 29.5 -116.5 29.5c-44.667 0 -84.167 -10.5 -118.5 -31.5s-61.333 -51.333 -81 -91s-29.5 -87.167 -29.5 -142.5s8.5 -102.833 25.5 -142.5s42.333 -70 76 -91s74.834 -31.5 123.501 -31.5c27.333 0 52.833 3.5 76.5 10.5
s44.334 17.5 62.001 31.5s31.5 31.667 41.5 53s15 46.333 15 75v23h-210v75h283v-333h-63l-4 123l17 -3c-17.333 -41.333 -44.666 -73.333 -81.999 -96s-83.666 -34 -138.999 -34zM527 742.998h-74l-80 107l-80 -107h-74l110 159h88z" />
    <glyph glyph-name="gcircumflex" unicode="&#x11d;" horiz-adv-x="532" 
d="M108 576l114 167h90l114 -167h-73l-86 115l-86 -115h-73zM514 592l18 -70.001h-1.5h-1.5c-34 0 -60 -6.66699 -78 -20s-27 -34.333 -27 -63l-50 21c0 27.333 6 50.833 18 70.5s28.333 34.834 49 45.501s43.667 16 69 16h2.5h1.5zM362 63.999
c47.333 0 84.333 -10.833 111 -32.5s40 -50.5 40 -86.5c0 -32.667 -10.833 -61 -32.5 -85s-50.667 -42.5 -87 -55.5s-77.166 -19.5 -122.499 -19.5c-78.667 0 -137.5 13.333 -176.5 40s-58.5 58.667 -58.5 96c0 26.667 8.83301 50.5 26.5 71.5s47.5 32.833 89.5 35.5l-7 -15
c-22.667 6 -41.834 16.167 -57.501 30.5s-23.5 35.166 -23.5 62.499s10.167 50.833 30.5 70.5s50.5 31.834 90.5 36.501l53 -27h-10c-32.667 -3.33301 -55.834 -11.5 -69.501 -24.5s-20.5 -27.167 -20.5 -42.5c0 -18.667 6.83301 -32.5 20.5 -41.5
s32.834 -13.5 57.501 -13.5h146zM270 -148.001c38.667 0 70.499 4 95.499 12s43.5 18.333 55.5 31s18 26.334 18 41.001c0 18 -7.16699 32.333 -21.5 43s-40.166 16 -77.499 16h-154c-21.333 0 -39.333 -5.5 -54 -16.5s-22 -26.167 -22 -45.5
c0 -24.667 14.167 -44.334 42.5 -59.001s67.5 -22 117.5 -22zM262.999 509.999c40 0 75.499 -7.16602 106.499 -21.499s55.167 -34.166 72.5 -59.499s26 -54.666 26 -87.999c0 -32.667 -8.66699 -61.834 -26 -87.501s-41.5 -45.667 -72.5 -60s-66.5 -21.5 -106.5 -21.5
c-66 0 -116.667 15.833 -152 47.5s-53 72.167 -53 121.5c0 33.333 8.83301 62.666 26.5 87.999s41.834 45.166 72.501 59.499s66 21.5 106 21.5zM262.998 445c-34.667 0 -63.667 -9.5 -87 -28.5s-35 -44.167 -35 -75.5c0 -30.667 11.667 -55.667 35 -75s52.333 -29 87 -29
s63.667 9.66699 87 29s35 44.333 35 75c0 31.333 -11.667 56.5 -35 75.5s-52.333 28.5 -87 28.5z" />
    <glyph glyph-name="Gbreve" unicode="&#x11e;" horiz-adv-x="724" 
d="M374 -10c-62.667 0 -116.834 13.8311 -162.501 41.498s-81 66.834 -106 117.501s-37.5 111 -37.5 181s13.167 130.333 39.5 181s63.166 89.834 110.499 117.501s101.666 41.5 162.999 41.5c65.333 0 118.5 -12.333 159.5 -37s74.167 -62.667 99.5 -114l-73 -40
c-14.667 38 -37.834 66.833 -69.501 86.5s-70.5 29.5 -116.5 29.5c-44.667 0 -84.167 -10.5 -118.5 -31.5s-61.333 -51.333 -81 -91s-29.5 -87.167 -29.5 -142.5s8.5 -102.833 25.5 -142.5s42.333 -70 76 -91s74.834 -31.5 123.501 -31.5c27.333 0 52.833 3.5 76.5 10.5
s44.334 17.5 62.001 31.5s31.5 31.667 41.5 53s15 46.333 15 75v23h-210v75h283v-333h-63l-4 123l17 -3c-17.333 -41.333 -44.666 -73.333 -81.999 -96s-83.666 -34 -138.999 -34zM521 884.998c0 -44 -13.668 -79.667 -41.001 -107s-63 -41 -107 -41s-79.667 13.667 -107 41
s-41 63 -41 107h65c0.666992 -23.333 8 -43.833 22 -61.5s34.333 -26.5 61 -26.5c27.333 0 47.833 8.83301 61.5 26.5s20.834 38.167 21.501 61.5h65z" />
    <glyph glyph-name="gbreve" unicode="&#x11f;" horiz-adv-x="532" 
d="M514 592l18 -70.001h-1.5h-1.5c-34 0 -60 -6.66699 -78 -20s-27 -34.333 -27 -63l-50 21c0 27.333 6 50.833 18 70.5s28.333 34.834 49 45.501s43.667 16 69 16h2.5h1.5zM362 63.999c47.333 0 84.333 -10.833 111 -32.5s40 -50.5 40 -86.5
c0 -32.667 -10.833 -61 -32.5 -85s-50.667 -42.5 -87 -55.5s-77.166 -19.5 -122.499 -19.5c-78.667 0 -137.5 13.333 -176.5 40s-58.5 58.667 -58.5 96c0 26.667 8.83301 50.5 26.5 71.5s47.5 32.833 89.5 35.5l-7 -15c-22.667 6 -41.834 16.167 -57.501 30.5
s-23.5 35.166 -23.5 62.499s10.167 50.833 30.5 70.5s50.5 31.834 90.5 36.501l53 -27h-10c-32.667 -3.33301 -55.834 -11.5 -69.501 -24.5s-20.5 -27.167 -20.5 -42.5c0 -18.667 6.83301 -32.5 20.5 -41.5s32.834 -13.5 57.501 -13.5h146zM270 -148.001
c38.667 0 70.499 4 95.499 12s43.5 18.333 55.5 31s18 26.334 18 41.001c0 18 -7.16699 32.333 -21.5 43s-40.166 16 -77.499 16h-154c-21.333 0 -39.333 -5.5 -54 -16.5s-22 -26.167 -22 -45.5c0 -24.667 14.167 -44.334 42.5 -59.001s67.5 -22 117.5 -22zM262.999 509.999
c40 0 75.499 -7.16602 106.499 -21.499s55.167 -34.166 72.5 -59.499s26 -54.666 26 -87.999c0 -32.667 -8.66699 -61.834 -26 -87.501s-41.5 -45.667 -72.5 -60s-66.5 -21.5 -106.5 -21.5c-66 0 -116.667 15.833 -152 47.5s-53 72.167 -53 121.5
c0 33.333 8.83301 62.666 26.5 87.999s41.834 45.166 72.501 59.499s66 21.5 106 21.5zM262.998 445c-34.667 0 -63.667 -9.5 -87 -28.5s-35 -44.167 -35 -75.5c0 -30.667 11.667 -55.667 35 -75s52.333 -29 87 -29s63.667 9.66699 87 29s35 44.333 35 75
c0 31.333 -11.667 56.5 -35 75.5s-52.333 28.5 -87 28.5zM424.998 725c0 -44 -13.668 -79.667 -41.001 -107s-63 -41 -107 -41s-79.667 13.667 -107 41s-41 63 -41 107h65c0.666992 -23.333 8 -43.833 22 -61.5s34.333 -26.5 61 -26.5c27.333 0 47.833 8.83301 61.5 26.5
s20.834 38.167 21.501 61.5h65z" />
    <glyph glyph-name="Gdotaccent" unicode="&#x120;" horiz-adv-x="724" 
d="M374 -10c-62.667 0 -116.834 13.8311 -162.501 41.498s-81 66.834 -106 117.501s-37.5 111 -37.5 181s13.167 130.333 39.5 181s63.166 89.834 110.499 117.501s101.666 41.5 162.999 41.5c65.333 0 118.5 -12.333 159.5 -37s74.167 -62.667 99.5 -114l-73 -40
c-14.667 38 -37.834 66.833 -69.501 86.5s-70.5 29.5 -116.5 29.5c-44.667 0 -84.167 -10.5 -118.5 -31.5s-61.333 -51.333 -81 -91s-29.5 -87.167 -29.5 -142.5s8.5 -102.833 25.5 -142.5s42.333 -70 76 -91s74.834 -31.5 123.501 -31.5c27.333 0 52.833 3.5 76.5 10.5
s44.334 17.5 62.001 31.5s31.5 31.667 41.5 53s15 46.333 15 75v23h-210v75h283v-333h-63l-4 123l17 -3c-17.333 -41.333 -44.666 -73.333 -81.999 -96s-83.666 -34 -138.999 -34zM373 875.998c18 0 32.5 -5.5 43.5 -16.5s16.5 -25.5 16.5 -43.5s-5.5 -32.5 -16.5 -43.5
s-25.5 -16.5 -43.5 -16.5s-32.5 5.5 -43.5 16.5s-16.5 25.5 -16.5 43.5s5.5 32.5 16.5 43.5s25.5 16.5 43.5 16.5z" />
    <glyph glyph-name="gdotaccent" unicode="&#x121;" horiz-adv-x="532" 
d="M514 592l18 -70.999h-3h-4c-32.667 0 -57.834 -6.5 -75.501 -19.5s-26.5 -33.833 -26.5 -62.5l-49 25c0 26 6 48.667 18 68s28.333 34.166 49 44.499s43.334 15.5 68.001 15.5h2.5h2.5zM362 64.001c47.333 0 84.333 -10.833 111 -32.5s40 -50.5 40 -86.5
c0 -32.667 -10.833 -61 -32.5 -85s-50.667 -42.5 -87 -55.5s-77.166 -19.5 -122.499 -19.5c-78.667 0 -137.5 13.333 -176.5 40s-58.5 58.667 -58.5 96c0 26.667 8.83301 50.5 26.5 71.5s47.5 32.833 89.5 35.5l-7 -15c-22.667 6 -41.834 16.167 -57.501 30.5
s-23.5 35.166 -23.5 62.499s10.167 50.833 30.5 70.5s50.5 31.834 90.5 36.501l53 -27h-10c-32.667 -3.33301 -55.834 -11.5 -69.501 -24.5s-20.5 -27.167 -20.5 -42.5c0 -18.667 6.83301 -32.5 20.5 -41.5s32.834 -13.5 57.501 -13.5h146zM270 -147.999
c38.667 0 70.499 4 95.499 12s43.5 18.333 55.5 31s18 26.334 18 41.001c0 18 -7.16699 32.333 -21.5 43s-40.166 16 -77.499 16h-154c-21.333 0 -39.333 -5.5 -54 -16.5s-22 -26.167 -22 -45.5c0 -24.667 14.167 -44.334 42.5 -59.001s67.5 -22 117.5 -22zM262.999 510.001
c40 0 75.499 -7.16602 106.499 -21.499s55.167 -34.166 72.5 -59.499s26 -54.666 26 -87.999c0 -32.667 -8.66699 -61.834 -26 -87.501s-41.5 -45.667 -72.5 -60s-66.5 -21.5 -106.5 -21.5c-66 0 -116.667 15.833 -152 47.5s-53 72.167 -53 121.5
c0 33.333 8.83301 62.666 26.5 87.999s41.834 45.166 72.501 59.499s66 21.5 106 21.5zM262.998 445.002c-34.667 0 -63.667 -9.5 -87 -28.5s-35 -44.167 -35 -75.5c0 -30.667 11.667 -55.667 35 -75s52.333 -29 87 -29s63.667 9.66699 87 29s35 44.333 35 75
c0 31.333 -11.667 56.5 -35 75.5s-52.333 28.5 -87 28.5zM266.998 716.002c18 0 32.5 -5.5 43.5 -16.5s16.5 -25.5 16.5 -43.5s-5.5 -32.5 -16.5 -43.5s-25.5 -16.5 -43.5 -16.5s-32.5 5.5 -43.5 16.5s-16.5 25.5 -16.5 43.5s5.5 32.5 16.5 43.5s25.5 16.5 43.5 16.5z" />
    <glyph glyph-name="uni0122" unicode="&#x122;" horiz-adv-x="724" 
d="M374 -10c-62.667 0 -116.834 13.8311 -162.501 41.498s-81 66.834 -106 117.501s-37.5 111 -37.5 181s13.167 130.333 39.5 181s63.166 89.834 110.499 117.501s101.666 41.5 162.999 41.5c65.333 0 118.5 -12.333 159.5 -37s74.167 -62.667 99.5 -114l-73 -40
c-14.667 38 -37.834 66.833 -69.501 86.5s-70.5 29.5 -116.5 29.5c-44.667 0 -84.167 -10.5 -118.5 -31.5s-61.333 -51.333 -81 -91s-29.5 -87.167 -29.5 -142.5s8.5 -102.833 25.5 -142.5s42.333 -70 76 -91s74.834 -31.5 123.501 -31.5c27.333 0 52.833 3.5 76.5 10.5
s44.334 17.5 62.001 31.5s31.5 31.667 41.5 53s15 46.333 15 75v23h-210v75h283v-333h-63l-4 123l17 -3c-17.333 -41.333 -44.666 -73.333 -81.999 -96s-83.666 -34 -138.999 -34zM442 -76.002l-65 -161h-63l44 161h84z" />
    <glyph glyph-name="uni0123" unicode="&#x123;" horiz-adv-x="532" 
d="M514 592l18 -70.999h-3h-4c-32.667 0 -57.834 -6.5 -75.501 -19.5s-26.5 -33.833 -26.5 -62.5l-49 25c0 26 6 48.667 18 68s28.333 34.166 49 44.499s43.334 15.5 68.001 15.5h2.5h2.5zM362 64.001c47.333 0 84.333 -10.833 111 -32.5s40 -50.5 40 -86.5
c0 -32.667 -10.833 -61 -32.5 -85s-50.667 -42.5 -87 -55.5s-77.166 -19.5 -122.499 -19.5c-78.667 0 -137.5 13.333 -176.5 40s-58.5 58.667 -58.5 96c0 26.667 8.83301 50.5 26.5 71.5s47.5 32.833 89.5 35.5l-7 -15c-22.667 6 -41.834 16.167 -57.501 30.5
s-23.5 35.166 -23.5 62.499s10.167 50.833 30.5 70.5s50.5 31.834 90.5 36.501l53 -27h-10c-32.667 -3.33301 -55.834 -11.5 -69.501 -24.5s-20.5 -27.167 -20.5 -42.5c0 -18.667 6.83301 -32.5 20.5 -41.5s32.834 -13.5 57.501 -13.5h146zM270 -147.999
c38.667 0 70.499 4 95.499 12s43.5 18.333 55.5 31s18 26.334 18 41.001c0 18 -7.16699 32.333 -21.5 43s-40.166 16 -77.499 16h-154c-21.333 0 -39.333 -5.5 -54 -16.5s-22 -26.167 -22 -45.5c0 -24.667 14.167 -44.334 42.5 -59.001s67.5 -22 117.5 -22zM262.999 510.001
c40 0 75.499 -7.16602 106.499 -21.499s55.167 -34.166 72.5 -59.499s26 -54.666 26 -87.999c0 -32.667 -8.66699 -61.834 -26 -87.501s-41.5 -45.667 -72.5 -60s-66.5 -21.5 -106.5 -21.5c-66 0 -116.667 15.833 -152 47.5s-53 72.167 -53 121.5
c0 33.333 8.83301 62.666 26.5 87.999s41.834 45.166 72.501 59.499s66 21.5 106 21.5zM262.998 445.002c-34.667 0 -63.667 -9.5 -87 -28.5s-35 -44.167 -35 -75.5c0 -30.667 11.667 -55.667 35 -75s52.333 -29 87 -29s63.667 9.66699 87 29s35 44.333 35 75
c0 31.333 -11.667 56.5 -35 75.5s-52.333 28.5 -87 28.5zM356.998 778.002l-42 -191h-88l70 191h60z" />
    <glyph glyph-name="Hcircumflex" unicode="&#x124;" horiz-adv-x="734" 
d="M626 660v-660h-80v660h80zM188 660v-660h-80v660h80zM583 372v-75h-433v75h433zM521 743h-74l-80 107l-80 -107h-74l110 159h88z" />
    <glyph glyph-name="hcircumflex" unicode="&#x125;" horiz-adv-x="619" 
d="M93 0l0.000976562 730.001h80v-305c17.333 30 40.333 51.667 69 65s60 20 94 20c36 0 68.667 -6.83301 98 -20.5s52.833 -34.5 70.5 -62.5s26.5 -63.667 26.5 -107v-320h-80v292c0 55.333 -11.833 93.833 -35.5 115.5s-52.834 32.5 -87.501 32.5
c-24 0 -48 -5.66699 -72 -17s-43.833 -29.833 -59.5 -55.5s-23.5 -59.834 -23.5 -102.501v-265h-80zM287.001 793.001h-74l-80 107l-80 -107h-74l110 159h88z" />
    <glyph glyph-name="Hbar" unicode="&#x126;" horiz-adv-x="734" 
d="M626 660v-660h-80v660h80zM188 660v-660h-80v660h80zM583 372v-75h-433v75h433zM704 549v-70h-674v70h674z" />
    <glyph glyph-name="hbar" unicode="&#x127;" horiz-adv-x="619" 
d="M16 627h314v-61h-314v61zM93 0l0.000976562 730.001h80v-305c17.333 30 40.333 51.667 69 65s60 20 94 20c36 0 68.667 -6.83301 98 -20.5s52.833 -34.5 70.5 -62.5s26.5 -63.667 26.5 -107v-320h-80v292c0 55.333 -11.833 93.833 -35.5 115.5s-52.834 32.5 -87.501 32.5
c-24 0 -48 -5.66699 -72 -17s-43.833 -29.833 -59.5 -55.5s-23.5 -59.834 -23.5 -102.501v-265h-80z" />
    <glyph glyph-name="Itilde" unicode="&#x128;" horiz-adv-x="296" 
d="M188 660v-660h-80v660h80zM328 877c-2 -29.333 -7.49805 -54 -16.498 -74s-21.333 -35 -37 -45s-35.167 -15 -58.5 -15c-18.667 0 -34.5 3.5 -47.5 10.5s-24.167 14.833 -33.5 23.5s-18.5 16.5 -27.5 23.5s-18.833 10.5 -29.5 10.5c-14.667 0 -25.667 -6.16699 -33 -18.5
s-12.666 -29.166 -15.999 -50.499h-63c3.33301 44 14.166 77.333 32.499 100s45.166 34 80.499 34c18 0 33.5 -3.5 46.5 -10.5s24.333 -14.833 34 -23.5s18.834 -16.5 27.501 -23.5s18 -10.5 28 -10.5c15.333 0 26.666 6.16699 33.999 18.5s12.666 29.166 15.999 50.499h63z
" />
    <glyph glyph-name="itilde" unicode="&#x129;" horiz-adv-x="266" 
d="M173 500v-500h-80v500h80zM313 717c-2 -29.333 -7.49805 -54 -16.498 -74s-21.333 -35 -37 -45s-35.167 -15 -58.5 -15c-18.667 0 -34.5 3.5 -47.5 10.5s-24.167 14.833 -33.5 23.5s-18.5 16.5 -27.5 23.5s-18.833 10.5 -29.5 10.5c-14.667 0 -25.667 -6.16699 -33 -18.5
s-12.666 -29.166 -15.999 -50.499h-63c3.33301 44 14.166 77.333 32.499 100s45.166 34 80.499 34c18 0 33.5 -3.5 46.5 -10.5s24.333 -14.833 34 -23.5s18.834 -16.5 27.501 -23.5s18 -10.5 28 -10.5c15.333 0 26.666 6.16699 33.999 18.5s12.666 29.166 15.999 50.499h63z
" />
    <glyph glyph-name="Imacron" unicode="&#x12a;" horiz-adv-x="296" 
d="M256 823v-67h-216v67h216zM188 660v-660h-80v660h80z" />
    <glyph glyph-name="imacron" unicode="&#x12b;" horiz-adv-x="266" 
d="M238 663v-67h-210v67h210zM173 500v-500h-80v500h80z" />
    <glyph glyph-name="Ibreve" unicode="&#x12c;" horiz-adv-x="296" 
d="M188 660v-660h-80v660h80zM296 885c0 -44 -13.668 -79.667 -41.001 -107s-63 -41 -107 -41s-79.667 13.667 -107 41s-41 63 -41 107h65c0.666992 -23.333 8 -43.833 22 -61.5s34.333 -26.5 61 -26.5c27.333 0 47.833 8.83301 61.5 26.5s20.834 38.167 21.501 61.5h65z
" />
    <glyph glyph-name="ibreve" unicode="&#x12d;" horiz-adv-x="266" 
d="M173 500v-500h-80v500h80zM281 725c0 -44 -13.668 -79.667 -41.001 -107s-63 -41 -107 -41s-79.667 13.667 -107 41s-41 63 -41 107h65c0.666992 -23.333 8 -43.833 22 -61.5s34.333 -26.5 61 -26.5c27.333 0 47.833 8.83301 61.5 26.5s20.834 38.167 21.501 61.5h65z
" />
    <glyph glyph-name="Iogonek" unicode="&#x12e;" horiz-adv-x="296" 
d="M128 -231c-20.667 0 -39.501 3.99902 -56.501 11.999s-30.5 19.333 -40.5 34s-15 32.334 -15 53.001c0 24.667 5.33301 45.834 16 63.501s25.667 33.834 45 48.501s42 29 68 43l43 -23c-40 -22.667 -67.833 -43.834 -83.5 -63.501s-23.5 -38.834 -23.5 -57.501
c0 -16 4.83301 -28.833 14.5 -38.5s23.834 -14.5 42.501 -14.5c8 0 16.667 1 26 3s17 4.66699 23 8l16 -51c-8.66699 -4.66699 -19.5 -8.66699 -32.5 -12s-27.167 -5 -42.5 -5zM187.999 659.999v-660h-80v660h80z" />
    <glyph glyph-name="iogonek" unicode="&#x12f;" horiz-adv-x="266" 
d="M113 -231c-20.667 0 -39.501 3.99902 -56.501 11.999s-30.5 19.333 -40.5 34s-15 32.334 -15 53.001c0 24.667 5.33301 45.834 16 63.501s25.667 33.834 45 48.501s42 29 68 43l43 -23c-40 -22.667 -67.833 -43.834 -83.5 -63.501s-23.5 -38.834 -23.5 -57.501
c0 -16 4.83301 -28.833 14.5 -38.5s23.834 -14.5 42.501 -14.5c8 0 16.667 1 26 3s17 4.66699 23 8l16 -51c-8.66699 -4.66699 -19.5 -8.66699 -32.5 -12s-27.167 -5 -42.5 -5zM132.999 595.999c-18 0 -32.5 5.5 -43.5 16.5s-16.5 25.5 -16.5 43.5s5.5 32.5 16.5 43.5
s25.5 16.5 43.5 16.5s32.5 -5.5 43.5 -16.5s16.5 -25.5 16.5 -43.5s-5.5 -32.5 -16.5 -43.5s-25.5 -16.5 -43.5 -16.5zM172.999 499.999v-500h-80v500h80z" />
    <glyph glyph-name="Idotaccent" unicode="&#x130;" horiz-adv-x="296" 
d="M188 660v-660h-80v660h80zM148 876c18 0 32.5 -5.5 43.5 -16.5s16.5 -25.5 16.5 -43.5s-5.5 -32.5 -16.5 -43.5s-25.5 -16.5 -43.5 -16.5s-32.5 5.5 -43.5 16.5s-16.5 25.5 -16.5 43.5s5.5 32.5 16.5 43.5s25.5 16.5 43.5 16.5z" />
    <glyph glyph-name="dotlessi" unicode="&#x131;" horiz-adv-x="266" 
d="M173 500v-500h-80v500h80z" />
    <glyph glyph-name="IJ" unicode="&#x132;" horiz-adv-x="862" 
d="M188 660v-660h-80v660h80zM761 660l-0.00292969 -433.999c0 -74 -19.833 -131.833 -59.5 -173.5s-94.5 -62.5 -164.5 -62.5c-49.333 0 -90 9.33301 -122 28s-54.167 45.167 -66.5 79.5s-14.166 74.5 -5.49902 120.5l74 15
c-7.33301 -56.667 -2.16602 -98.834 15.501 -126.501s51.5 -41.5 101.5 -41.5c56.667 0 95.334 15.5 116.001 46.5s31 75.833 31 134.5v414h80z" />
    <glyph glyph-name="ij" unicode="&#x133;" horiz-adv-x="532" 
d="M133 596c-18 0 -32.5 5.5 -43.5 16.5s-16.5 25.5 -16.5 43.5s5.5 32.5 16.5 43.5s25.5 16.5 43.5 16.5s32.5 -5.5 43.5 -16.5s16.5 -25.5 16.5 -43.5s-5.5 -32.5 -16.5 -43.5s-25.5 -16.5 -43.5 -16.5zM173 500v-500h-80v500h80zM399 596c-18 0 -32.5 5.5 -43.5 16.5
s-16.5 25.5 -16.5 43.5s5.5 32.5 16.5 43.5s25.5 16.5 43.5 16.5s32.5 -5.5 43.5 -16.5s16.5 -25.5 16.5 -43.5s-5.5 -32.5 -16.5 -43.5s-25.5 -16.5 -43.5 -16.5zM439 500l-0.000976562 -550.999c0 -41.333 -8 -74 -24 -98s-35.667 -41 -59 -51s-46.333 -15 -69 -15
c-20.667 0 -39.667 3.16699 -57 9.5s-31.666 14.166 -42.999 23.499l17 76c9.33301 -8.66699 21 -16 35 -22s29.667 -9 47 -9c21.333 0 38.833 7 52.5 21s20.5 38.333 20.5 73v543h80z" />
    <glyph glyph-name="Jcircumflex" unicode="&#x134;" horiz-adv-x="566" 
d="M465 660l-0.00292969 -433.999c0 -74 -19.833 -131.833 -59.5 -173.5s-94.5 -62.5 -164.5 -62.5c-49.333 0 -90 9.33301 -122 28s-54.167 45.167 -66.5 79.5s-14.166 74.5 -5.49902 120.5l74 15c-7.33301 -56.667 -2.16602 -98.834 15.501 -126.501
s51.5 -41.5 101.5 -41.5c56.667 0 95.334 15.5 116.001 46.5s31 75.833 31 134.5v414h80zM578.997 743.001h-74l-80 107l-80 -107h-74l110 159h88z" />
    <glyph glyph-name="jcircumflex" unicode="&#x135;" horiz-adv-x="266" 
d="M173 500l-0.000976562 -550.999c0 -41.333 -8 -74 -24 -98s-35.667 -41 -59 -51s-46.333 -15 -69 -15c-20.667 0 -39.667 3.16699 -57 9.5s-31.666 14.166 -42.999 23.499l17 76c9.33301 -8.66699 21 -16 35 -22s29.667 -9 47 -9c21.333 0 38.833 7 52.5 21
s20.5 38.333 20.5 73v543h80zM291.999 576.001h-73l-86 115l-86 -115h-73l114 167h90z" />
    <glyph glyph-name="uni0136" unicode="&#x136;" horiz-adv-x="656" 
d="M625 660l-288 -295l-12 -13l-177 -181v108l372 381h105zM188 660v-660h-80v660h80zM345 416l283 -416h-96l-253 371zM410 -76l-65 -161h-63l44 161h84z" />
    <glyph glyph-name="uni0137" unicode="&#x137;" horiz-adv-x="567" 
d="M532 500l-216 -216l-19 -19l-164 -164v100l298 299h101zM173 730v-730h-80v730h80zM323 325l221 -325h-97l-191 280zM352 -76l-65 -161h-63l44 161h84z" />
    <glyph glyph-name="kgreenlandic" unicode="&#x138;" horiz-adv-x="567" 
d="M532 500l-216 -216l-19 -19l-164 -164v100l299 299h100zM173 500v-500h-80v500h80zM323 325l221 -325h-97l-191 280z" />
    <glyph glyph-name="Lacute" unicode="&#x139;" horiz-adv-x="598" 
d="M188 75h378v-75h-458v660h80v-585zM171 902h84l-86 -159h-64z" />
    <glyph glyph-name="lacute" unicode="&#x13a;" horiz-adv-x="306" 
d="M169 730l0.000976562 -603c0 -25.333 4.66699 -42.833 14 -52.5s24.333 -14.5 45 -14.5c13.333 0 24.333 1 33 3s20.334 5.66699 35.001 11l-13 -70c-10.667 -4.66699 -22.334 -8.16699 -35.001 -10.5s-25.667 -3.5 -39 -3.5c-40.667 0 -70.834 11 -90.501 33
s-29.5 55.667 -29.5 101v606h80zM80.001 800l52 130h83l-73 -130h-62z" />
    <glyph glyph-name="uni013B" unicode="&#x13b;" horiz-adv-x="598" 
d="M188 75h378v-75h-458v660h80v-585zM399 -76l-65 -161h-63l44 161h84z" />
    <glyph glyph-name="uni013C" unicode="&#x13c;" horiz-adv-x="306" 
d="M169 730l0.000976562 -603c0 -25.333 4.66699 -42.833 14 -52.5s24.333 -14.5 45 -14.5c13.333 0 24.333 1 33 3s20.334 5.66699 35.001 11l-13 -70c-10.667 -4.66699 -22.334 -8.16699 -35.001 -10.5s-25.667 -3.5 -39 -3.5c-40.667 0 -70.834 11 -90.501 33
s-29.5 55.667 -29.5 101v606h80zM236.001 -76l-65 -161h-63l44 161h84z" />
    <glyph glyph-name="Lcaron" unicode="&#x13d;" horiz-adv-x="598" 
d="M406 660l-41 -197h-55l20 197h76zM188 75h378v-75h-458v660h80v-585z" />
    <glyph glyph-name="lcaron" unicode="&#x13e;" horiz-adv-x="315" 
d="M322 730l-41 -197h-55l20 197h76zM169 730l0.000976562 -603c0 -25.333 4.66699 -42.833 14 -52.5s24.333 -14.5 45 -14.5c13.333 0 24.333 1 33 3s20.334 5.66699 35.001 11l-13 -70c-10.667 -4.66699 -22.334 -8.16699 -35.001 -10.5s-25.667 -3.5 -39 -3.5
c-40.667 0 -70.834 11 -90.501 33s-29.5 55.667 -29.5 101v606h80z" />
    <glyph glyph-name="Ldot" unicode="&#x13f;" horiz-adv-x="618" 
d="M188 75h378v-75h-458v660h80v-585zM464 419c19.333 0 35 -6 47 -18s18 -27.667 18 -47s-6 -35 -18 -47s-27.667 -18 -47 -18s-35 6 -47 18s-18 27.667 -18 47s6 35 18 47s27.667 18 47 18z" />
    <glyph glyph-name="ldot" unicode="&#x140;" horiz-adv-x="407" 
d="M169 730l0.000976562 -603c0 -25.333 4.66699 -42.833 14 -52.5s24.333 -14.5 45 -14.5c13.333 0 24.333 1 33 3s20.334 5.66699 35.001 11l-13 -70c-10.667 -4.66699 -22.334 -8.16699 -35.001 -10.5s-25.667 -3.5 -39 -3.5c-40.667 0 -70.834 11 -90.501 33
s-29.5 55.667 -29.5 101v606h80zM334.001 431c19.333 0 35 -6 47 -18s18 -27.667 18 -47s-6 -35 -18 -47s-27.667 -18 -47 -18s-35 6 -47 18s-18 27.667 -18 47s6 35 18 47s27.667 18 47 18z" />
    <glyph glyph-name="Lslash" unicode="&#x141;" horiz-adv-x="628" 
d="M395 481v-83l-362 -202v83zM218 75h378v-75h-458v660h80v-585z" />
    <glyph glyph-name="lslash" unicode="&#x142;" horiz-adv-x="372" 
d="M335 500v-83l-144 -92l-4 -2l-148 -94v83l136 86l6 4zM215 730l0.000976562 -603c0 -25.333 4.66699 -42.833 14 -52.5s24.333 -14.5 45 -14.5c13.333 0 24.333 1 33 3s20.334 5.66699 35.001 11l-13 -70c-10.667 -4.66699 -22.334 -8.16699 -35.001 -10.5
s-25.667 -3.5 -39 -3.5c-40.667 0 -70.834 11 -90.501 33s-29.5 55.667 -29.5 101v606h80z" />
    <glyph glyph-name="Nacute" unicode="&#x143;" horiz-adv-x="734" 
d="M626 660v-660h-99l-276 442l-70 124h-1l4 -100v-466h-76v660h99l275 -440l71 -127h1l-4 101v466h76zM394 902h84l-86 -159h-64z" />
    <glyph glyph-name="nacute" unicode="&#x144;" horiz-adv-x="619" 
d="M93 0l0.000976562 500h70l7 -112l-13 11c10.667 26.667 25 48.167 43 64.5s38.833 28.166 62.5 35.499s48.167 11 73.5 11c36 0 68.667 -6.83301 98 -20.5s52.833 -34.5 70.5 -62.5s26.5 -63.667 26.5 -107v-320h-80v292c0 55.333 -11.833 93.833 -35.5 115.5
s-52.834 32.5 -87.501 32.5c-24 0 -48 -5.66699 -72 -17s-43.833 -29.666 -59.5 -54.999s-23.5 -59.333 -23.5 -102v-266h-80zM345.001 750h87l-98 -167h-65z" />
    <glyph glyph-name="uni0145" unicode="&#x145;" horiz-adv-x="734" 
d="M626 660v-660h-99l-276 442l-70 124h-1l4 -100v-466h-76v660h99l275 -440l71 -127h1l-4 101v466h76zM434 -76l-65 -161h-63l44 161h84z" />
    <glyph glyph-name="uni0146" unicode="&#x146;" horiz-adv-x="619" 
d="M93 0l0.000976562 500h70l7 -112l-13 11c10.667 26.667 25 48.167 43 64.5s38.833 28.166 62.5 35.499s48.167 11 73.5 11c36 0 68.667 -6.83301 98 -20.5s52.833 -34.5 70.5 -62.5s26.5 -63.667 26.5 -107v-320h-80v292c0 55.333 -11.833 93.833 -35.5 115.5
s-52.834 32.5 -87.501 32.5c-24 0 -48 -5.66699 -72 -17s-43.833 -29.666 -59.5 -54.999s-23.5 -59.333 -23.5 -102v-266h-80zM379.001 -76l-65 -161h-63l44 161h84z" />
    <glyph glyph-name="Ncaron" unicode="&#x147;" horiz-adv-x="734" 
d="M626 660v-660h-99l-276 442l-70 124h-1l4 -100v-466h-76v660h99l275 -440l71 -127h1l-4 101v466h76zM525 902l-110 -159h-88l-110 159h74l80 -107l80 107h74z" />
    <glyph glyph-name="ncaron" unicode="&#x148;" horiz-adv-x="619" 
d="M93 0l0.000976562 500h70l7 -112l-13 11c10.667 26.667 25 48.167 43 64.5s38.833 28.166 62.5 35.499s48.167 11 73.5 11c36 0 68.667 -6.83301 98 -20.5s52.833 -34.5 70.5 -62.5s26.5 -63.667 26.5 -107v-320h-80v292c0 55.333 -11.833 93.833 -35.5 115.5
s-52.834 32.5 -87.501 32.5c-24 0 -48 -5.66699 -72 -17s-43.833 -29.666 -59.5 -54.999s-23.5 -59.333 -23.5 -102v-266h-80zM477.001 750l-114 -167h-90l-114 167h73l86 -115l86 115h73z" />
    <glyph glyph-name="Eng" unicode="&#x14a;" horiz-adv-x="734" 
d="M474 -215c-20.667 0 -39.668 3.16797 -57.001 9.50098s-31.666 14.166 -42.999 23.499l17 76c9.33301 -8.66699 21 -16 35 -22s29.667 -9 47 -9c21.333 0 39.5 7 54.5 21s22.5 38.333 22.5 73v46l-299 439l-70 130h-1l4 -106v-466h-76v660h99l300 -440l43 -80h1l-1 520
h76v-711c0 -41.333 -8 -74 -24 -98s-35.667 -41 -59 -51s-46.333 -15 -69 -15z" />
    <glyph glyph-name="eng" unicode="&#x14b;" horiz-adv-x="619" 
d="M531 183l-0.000976562 -233.999c0 -41.333 -8 -74 -24 -98s-35.667 -41 -59 -51s-46.333 -15 -69 -15c-20.667 0 -39.667 3.16699 -57 9.5s-31.666 14.166 -42.999 23.499l17 76c9.33301 -8.66699 21 -16 35 -22s29.667 -9 47 -9c21.333 0 38.833 7 52.5 21
s20.5 38.333 20.5 73v226h80zM92.999 0.000976562l0.000976562 500h70l7 -112l-13 11c10.667 26.667 25 48.167 43 64.5s38.833 28.166 62.5 35.499s48.167 11 73.5 11c36 0 68.667 -6.83301 98 -20.5s52.833 -34.5 70.5 -62.5s26.5 -63.667 26.5 -107v-320h-80v292
c0 55.333 -11.833 93.833 -35.5 115.5s-52.834 32.5 -87.501 32.5c-24 0 -48 -5.66699 -72 -17s-43.833 -29.666 -59.5 -54.999s-23.5 -59.333 -23.5 -102v-266h-80z" />
    <glyph glyph-name="Omacron" unicode="&#x14c;" horiz-adv-x="748" 
d="M374 670c62.667 0 116.834 -13.833 162.501 -41.5s81 -66.834 106 -117.501s37.5 -111 37.5 -181s-12.5 -130.333 -37.5 -181s-60.333 -89.834 -106 -117.501s-99.834 -41.5 -162.501 -41.5s-116.834 13.833 -162.501 41.5s-81 66.834 -106 117.501s-37.5 111 -37.5 181
s12.5 130.333 37.5 181s60.333 89.834 106 117.501s99.834 41.5 162.501 41.5zM374 595c-45.333 0 -84.666 -10.5 -117.999 -31.5s-59 -51.333 -77 -91s-27 -87.167 -27 -142.5s9 -102.833 27 -142.5s43.667 -70 77 -91s72.666 -31.5 117.999 -31.5
c46 0 85.5 10.5 118.5 31.5s58.5 51.333 76.5 91s27 87.167 27 142.5s-9 102.833 -27 142.5s-43.5 70 -76.5 91s-72.5 31.5 -118.5 31.5zM538 823v-67h-328v67h328z" />
    <glyph glyph-name="omacron" unicode="&#x14d;" horiz-adv-x="600" 
d="M300 510c47.333 0 89.166 -10.333 125.499 -31s64.833 -50.5 85.5 -89.5s31 -85.5 31 -139.5s-10.333 -100.5 -31 -139.5s-49.167 -68.833 -85.5 -89.5s-78.166 -31 -125.499 -31c-46.667 0 -88.334 10.333 -125.001 31s-65.334 50.5 -86.001 89.5s-31 85.5 -31 139.5
s10.333 100.5 31 139.5s49.334 68.833 86.001 89.5s78.334 31 125.001 31zM300 441c-34 0 -63 -7.66699 -87 -23s-42.5 -37.166 -55.5 -65.499s-19.5 -62.5 -19.5 -102.5c0 -39.333 6.5 -73.333 19.5 -102s31.5 -50.667 55.5 -66s53 -23 87 -23s63 7.66699 87 23
s42.5 37.333 55.5 66s19.5 62.667 19.5 102c0 40 -6.5 74.167 -19.5 102.5s-31.5 50.166 -55.5 65.499s-53 23 -87 23zM464 663v-67h-328v67h328z" />
    <glyph glyph-name="Obreve" unicode="&#x14e;" horiz-adv-x="748" 
d="M374 670c62.667 0 116.834 -13.833 162.501 -41.5s81 -66.834 106 -117.501s37.5 -111 37.5 -181s-12.5 -130.333 -37.5 -181s-60.333 -89.834 -106 -117.501s-99.834 -41.5 -162.501 -41.5s-116.834 13.833 -162.501 41.5s-81 66.834 -106 117.501s-37.5 111 -37.5 181
s12.5 130.333 37.5 181s60.333 89.834 106 117.501s99.834 41.5 162.501 41.5zM374 595c-45.333 0 -84.666 -10.5 -117.999 -31.5s-59 -51.333 -77 -91s-27 -87.167 -27 -142.5s9 -102.833 27 -142.5s43.667 -70 77 -91s72.666 -31.5 117.999 -31.5
c46 0 85.5 10.5 118.5 31.5s58.5 51.333 76.5 91s27 87.167 27 142.5s-9 102.833 -27 142.5s-43.5 70 -76.5 91s-72.5 31.5 -118.5 31.5zM522 885c0 -44 -13.668 -79.667 -41.001 -107s-63 -41 -107 -41s-79.667 13.667 -107 41s-41 63 -41 107h65
c0.666992 -23.333 8 -43.833 22 -61.5s34.333 -26.5 61 -26.5c27.333 0 47.833 8.83301 61.5 26.5s20.834 38.167 21.501 61.5h65z" />
    <glyph glyph-name="obreve" unicode="&#x14f;" horiz-adv-x="600" 
d="M300 510c47.333 0 89.166 -10.333 125.499 -31s64.833 -50.5 85.5 -89.5s31 -85.5 31 -139.5s-10.333 -100.5 -31 -139.5s-49.167 -68.833 -85.5 -89.5s-78.166 -31 -125.499 -31c-46.667 0 -88.334 10.333 -125.001 31s-65.334 50.5 -86.001 89.5s-31 85.5 -31 139.5
s10.333 100.5 31 139.5s49.334 68.833 86.001 89.5s78.334 31 125.001 31zM300 441c-34 0 -63 -7.66699 -87 -23s-42.5 -37.166 -55.5 -65.499s-19.5 -62.5 -19.5 -102.5c0 -39.333 6.5 -73.333 19.5 -102s31.5 -50.667 55.5 -66s53 -23 87 -23s63 7.66699 87 23
s42.5 37.333 55.5 66s19.5 62.667 19.5 102c0 40 -6.5 74.167 -19.5 102.5s-31.5 50.166 -55.5 65.499s-53 23 -87 23zM448 725c0 -44 -13.668 -79.667 -41.001 -107s-63 -41 -107 -41s-79.667 13.667 -107 41s-41 63 -41 107h65c0.666992 -23.333 8 -43.833 22 -61.5
s34.333 -26.5 61 -26.5c27.333 0 47.833 8.83301 61.5 26.5s20.834 38.167 21.501 61.5h65z" />
    <glyph glyph-name="Ohungarumlaut" unicode="&#x150;" horiz-adv-x="748" 
d="M374 670c62.667 0 116.834 -13.833 162.501 -41.5s81 -66.834 106 -117.501s37.5 -111 37.5 -181s-12.5 -130.333 -37.5 -181s-60.333 -89.834 -106 -117.501s-99.834 -41.5 -162.501 -41.5s-116.834 13.833 -162.501 41.5s-81 66.834 -106 117.501s-37.5 111 -37.5 181
s12.5 130.333 37.5 181s60.333 89.834 106 117.501s99.834 41.5 162.501 41.5zM374 595c-45.333 0 -84.666 -10.5 -117.999 -31.5s-59 -51.333 -77 -91s-27 -87.167 -27 -142.5s9 -102.833 27 -142.5s43.667 -70 77 -91s72.666 -31.5 117.999 -31.5
c46 0 85.5 10.5 118.5 31.5s58.5 51.333 76.5 91s27 87.167 27 142.5s-9 102.833 -27 142.5s-43.5 70 -76.5 91s-72.5 31.5 -118.5 31.5zM497 902h84l-86 -159h-64zM320 902h84l-86 -159h-64z" />
    <glyph glyph-name="ohungarumlaut" unicode="&#x151;" horiz-adv-x="600" 
d="M300 510c47.333 0 89.166 -10.333 125.499 -31s64.833 -50.5 85.5 -89.5s31 -85.5 31 -139.5s-10.333 -100.5 -31 -139.5s-49.167 -68.833 -85.5 -89.5s-78.166 -31 -125.499 -31c-46.667 0 -88.334 10.333 -125.001 31s-65.334 50.5 -86.001 89.5s-31 85.5 -31 139.5
s10.333 100.5 31 139.5s49.334 68.833 86.001 89.5s78.334 31 125.001 31zM300 441c-34 0 -63 -7.66699 -87 -23s-42.5 -37.166 -55.5 -65.499s-19.5 -62.5 -19.5 -102.5c0 -39.333 6.5 -73.333 19.5 -102s31.5 -50.667 55.5 -66s53 -23 87 -23s63 7.66699 87 23
s42.5 37.333 55.5 66s19.5 62.667 19.5 102c0 40 -6.5 74.167 -19.5 102.5s-31.5 50.166 -55.5 65.499s-53 23 -87 23zM335 583l76 167h87l-98 -167h-65zM159 583l76 167h87l-98 -167h-65z" />
    <glyph glyph-name="OE" unicode="&#x152;" horiz-adv-x="1080" 
d="M659 75l368.998 -0.00195312v-75h-442v99c-24.667 -34.667 -55.167 -61.5 -91.5 -80.5s-77.166 -28.5 -122.499 -28.5c-62.667 0 -116.667 13.833 -162 41.5s-80.333 66.834 -105 117.501s-37 111 -37 181s12.167 130.333 36.5 181s59.5 89.834 105.5 117.501
s101.333 41.5 166 41.5c44.667 0 84.834 -9.16699 120.501 -27.5s65.5 -44.833 89.5 -79.5v97h427v-75h-354v-213h269v-75h-269v-222zM375.998 64.998c42 0 78.667 10.5 110 31.5s55.833 51.333 73.5 91s26.5 87.167 26.5 142.5s-8.83301 102.833 -26.5 142.5
s-42.167 70 -73.5 91s-68 31.5 -110 31.5c-47.333 0 -87.833 -10.5 -121.5 -31.5s-59.167 -51.333 -76.5 -91s-26 -87.167 -26 -142.5s8.66699 -102.833 26 -142.5s42.833 -70 76.5 -91s74.167 -31.5 121.5 -31.5z" />
    <glyph glyph-name="oe" unicode="&#x153;" horiz-adv-x="981" 
d="M300 -10c-46.667 0 -88.332 10.332 -124.999 30.999s-65.334 50.5 -86.001 89.5s-31 85.5 -31 139.5s10.333 100.5 31 139.5s49.334 68.833 86.001 89.5s78.334 31 125.001 31c47.333 0 89.666 -11.5 126.999 -34.5s65.666 -57.5 84.999 -103.5h-22
c19.333 46 47.5 80.5 84.5 103.5s79.167 34.5 126.5 34.5c46.667 0 86.5 -10 119.5 -30s58.167 -47.167 75.5 -81.5s26 -72.833 26 -115.5c0 -11.333 -0.333008 -21.666 -1 -30.999s-1.66699 -17.666 -3 -24.999h-404v71h328c-1.33301 45.333 -15.166 80.333 -41.499 105
s-60.166 37 -101.499 37c-32.667 0 -60.834 -7.5 -84.501 -22.5s-42 -36.667 -55 -65s-19.5 -62.5 -19.5 -102.5c0 -39.333 6.66699 -73.333 20 -102s32.333 -50.5 57 -65.5s53.667 -22.5 87 -22.5c36.667 0 66.5 7 89.5 21s41.5 33 55.5 57l63 -37
c-12.667 -22.667 -28.834 -42.334 -48.501 -59.001s-42.667 -29.5 -69 -38.5s-55.833 -13.5 -88.5 -13.5c-48.667 0 -92 11.333 -130 34s-66.667 57 -86 103l22 1c-18.667 -46 -46.667 -80.5 -84 -103.5s-80 -34.5 -128 -34.5zM300.002 58.999c34 0 63 7.66699 87 23
s42.5 37.333 55.5 66s19.5 62.667 19.5 102c0 40 -6.5 74.167 -19.5 102.5s-31.5 50.166 -55.5 65.499s-53 23 -87 23s-63 -7.66699 -87 -23s-42.5 -37.166 -55.5 -65.499s-19.5 -62.5 -19.5 -102.5c0 -39.333 6.5 -73.333 19.5 -102s31.5 -50.667 55.5 -66s53 -23 87 -23z
" />
    <glyph glyph-name="Racute" unicode="&#x154;" horiz-adv-x="665" 
d="M358 660c67.333 0 121.333 -17.333 162 -52s61 -81.667 61 -141s-20.5 -105.5 -61.5 -138.5s-95.167 -49.5 -162.5 -49.5l-7 -5h-162v-274h-80v660h250zM357 349c47.333 0 82.5 9.83301 105.5 29.5s34.5 49.167 34.5 88.5s-11.5 68.833 -34.5 88.5
s-58.167 29.5 -105.5 29.5h-169v-236h169zM403 333l218 -333h-95l-190 289zM345 902h84l-86 -159h-64z" />
    <glyph glyph-name="racute" unicode="&#x155;" horiz-adv-x="408" 
d="M93 0l0.000976562 499.999h65l11 -82c14 30.667 34.5 53.667 61.5 69s59.833 23 98.5 23c8.66699 0 18.167 -0.666992 28.5 -2s19.166 -4 26.499 -8l-14 -73c-7.33301 2.66699 -15.333 4.66699 -24 6s-21 2 -37 2c-20.667 0 -41.5 -6 -62.5 -18
s-38.5 -30.167 -52.5 -54.5s-21 -55.166 -21 -92.499v-270h-80zM263.001 749.999h87l-98 -167h-65z" />
    <glyph glyph-name="uni0156" unicode="&#x156;" horiz-adv-x="665" 
d="M358 660c67.333 0 121.333 -17.333 162 -52s61 -81.667 61 -141s-20.5 -105.5 -61.5 -138.5s-95.167 -49.5 -162.5 -49.5l-7 -5h-162v-274h-80v660h250zM357 349c47.333 0 82.5 9.83301 105.5 29.5s34.5 49.167 34.5 88.5s-11.5 68.833 -34.5 88.5
s-58.167 29.5 -105.5 29.5h-169v-236h169zM403 333l218 -333h-95l-190 289zM402 -76l-65 -161h-63l44 161h84z" />
    <glyph glyph-name="uni0157" unicode="&#x157;" horiz-adv-x="408" 
d="M93 0l0.000976562 499.999h65l11 -82c14 30.667 34.5 53.667 61.5 69s59.833 23 98.5 23c8.66699 0 18.167 -0.666992 28.5 -2s19.166 -4 26.499 -8l-14 -73c-7.33301 2.66699 -15.333 4.66699 -24 6s-21 2 -37 2c-20.667 0 -41.5 -6 -62.5 -18
s-38.5 -30.167 -52.5 -54.5s-21 -55.166 -21 -92.499v-270h-80zM170.001 -76.001l-65 -161h-63l44 161h84z" />
    <glyph glyph-name="Rcaron" unicode="&#x158;" horiz-adv-x="665" 
d="M358 660c67.333 0 121.333 -17.333 162 -52s61 -81.667 61 -141s-20.5 -105.5 -61.5 -138.5s-95.167 -49.5 -162.5 -49.5l-7 -5h-162v-274h-80v660h250zM357 349c47.333 0 82.5 9.83301 105.5 29.5s34.5 49.167 34.5 88.5s-11.5 68.833 -34.5 88.5
s-58.167 29.5 -105.5 29.5h-169v-236h169zM403 333l218 -333h-95l-190 289zM476 902l-110 -159h-88l-110 159h74l80 -107l80 107h74z" />
    <glyph glyph-name="rcaron" unicode="&#x159;" horiz-adv-x="408" 
d="M93 0l0.000976562 499.999h65l11 -82c14 30.667 34.5 53.667 61.5 69s59.833 23 98.5 23c8.66699 0 18.167 -0.666992 28.5 -2s19.166 -4 26.499 -8l-14 -73c-7.33301 2.66699 -15.333 4.66699 -24 6s-21 2 -37 2c-20.667 0 -41.5 -6 -62.5 -18
s-38.5 -30.167 -52.5 -54.5s-21 -55.166 -21 -92.499v-270h-80zM395.001 749.999l-114 -167h-90l-114 167h73l86 -115l86 115h73z" />
    <glyph glyph-name="Sacute" unicode="&#x15a;" horiz-adv-x="641" 
d="M320 670c58 0 108 -11.8311 150 -35.498s77 -58.5 105 -104.5l-67 -52c-24.667 42.667 -52.5 72.834 -83.5 90.501s-68.5 26.5 -112.5 26.5c-35.333 0 -64.5 -5 -87.5 -15s-39.833 -23.167 -50.5 -39.5s-16 -34.833 -16 -55.5c0 -23.333 7.33301 -43.833 22 -61.5
s44 -31.5 88 -41.5l143 -32c63.333 -14 107.5 -35.167 132.5 -63.5s37.5 -63.5 37.5 -105.5c0 -37.333 -10.5 -70.5 -31.5 -99.5s-50.5 -51.5 -88.5 -67.5s-82.667 -24 -134 -24c-48 0 -90.167 6.5 -126.5 19.5s-67.5 30.5 -93.5 52.5s-47.333 46.667 -64 74l70 57
c12.667 -25.333 29 -47.666 49 -66.999s44.167 -34.333 72.5 -45s60.833 -16 97.5 -16c34 0 63.5 4.16699 88.5 12.5s44.167 20.666 57.5 36.999s20 36.166 20 59.499c0 21.333 -7 40.5 -21 57.5s-40.333 29.833 -79 38.5l-155 35
c-40.667 9.33301 -73.5 22.166 -98.5 38.499s-43 35.666 -54 57.999s-16.5 46.5 -16.5 72.5c0 35.333 9.83301 67.833 29.5 97.5s48 53.5 85 71.5s80.833 27 131.5 27zM349 902.002h84l-86 -159h-64z" />
    <glyph glyph-name="sacute" unicode="&#x15b;" horiz-adv-x="527" 
d="M273 -10c-48.667 0 -93.5029 10.332 -134.503 30.999s-72.5 50 -94.5 88l68 49c14.667 -30.667 36.167 -54.667 64.5 -72s62.5 -26 102.5 -26c35.333 0 63 6.83301 83 20.5s30 31.5 30 53.5c0 14 -4.5 26.833 -13.5 38.5s-26.167 20.167 -51.5 25.5l-120 25
c-48.667 10 -83.5 26.667 -104.5 50s-31.5 52.333 -31.5 87c0 27.333 7.83301 52.333 23.5 75s38 40.834 67 54.501s63.167 20.5 102.5 20.5c49.333 0 91 -9.66699 125 -29s59.333 -46.666 76 -81.999l-67 -44c-11.333 29.333 -29.666 50.833 -54.999 64.5
s-51.666 20.5 -78.999 20.5c-24 0 -44.5 -3.33301 -61.5 -10s-30 -15.834 -39 -27.501s-13.5 -24.834 -13.5 -39.501s5 -28.167 15 -40.5s28.667 -21.166 56 -26.499l125 -26c46.667 -9.33301 79.334 -24.666 98.001 -45.999s28 -47.333 28 -78
c0 -31.333 -8.33301 -58.833 -25 -82.5s-40 -41.834 -70 -54.501s-64.667 -19 -104 -19zM290.997 749.999h87l-98 -167h-65z" />
    <glyph glyph-name="Scircumflex" unicode="&#x15c;" horiz-adv-x="641" 
d="M320 670c58 0 108 -11.8311 150 -35.498s77 -58.5 105 -104.5l-67 -52c-24.667 42.667 -52.5 72.834 -83.5 90.501s-68.5 26.5 -112.5 26.5c-35.333 0 -64.5 -5 -87.5 -15s-39.833 -23.167 -50.5 -39.5s-16 -34.833 -16 -55.5c0 -23.333 7.33301 -43.833 22 -61.5
s44 -31.5 88 -41.5l143 -32c63.333 -14 107.5 -35.167 132.5 -63.5s37.5 -63.5 37.5 -105.5c0 -37.333 -10.5 -70.5 -31.5 -99.5s-50.5 -51.5 -88.5 -67.5s-82.667 -24 -134 -24c-48 0 -90.167 6.5 -126.5 19.5s-67.5 30.5 -93.5 52.5s-47.333 46.667 -64 74l70 57
c12.667 -25.333 29 -47.666 49 -66.999s44.167 -34.333 72.5 -45s60.833 -16 97.5 -16c34 0 63.5 4.16699 88.5 12.5s44.167 20.666 57.5 36.999s20 36.166 20 59.499c0 21.333 -7 40.5 -21 57.5s-40.333 29.833 -79 38.5l-155 35
c-40.667 9.33301 -73.5 22.166 -98.5 38.499s-43 35.666 -54 57.999s-16.5 46.5 -16.5 72.5c0 35.333 9.83301 67.833 29.5 97.5s48 53.5 85 71.5s80.833 27 131.5 27zM480 743.002h-74l-80 107l-80 -107h-74l110 159h88z" />
    <glyph glyph-name="scircumflex" unicode="&#x15d;" horiz-adv-x="527" 
d="M273 -10c-48.667 0 -93.5029 10.332 -134.503 30.999s-72.5 50 -94.5 88l68 49c14.667 -30.667 36.167 -54.667 64.5 -72s62.5 -26 102.5 -26c35.333 0 63 6.83301 83 20.5s30 31.5 30 53.5c0 14 -4.5 26.833 -13.5 38.5s-26.167 20.167 -51.5 25.5l-120 25
c-48.667 10 -83.5 26.667 -104.5 50s-31.5 52.333 -31.5 87c0 27.333 7.83301 52.333 23.5 75s38 40.834 67 54.501s63.167 20.5 102.5 20.5c49.333 0 91 -9.66699 125 -29s59.333 -46.666 76 -81.999l-67 -44c-11.333 29.333 -29.666 50.833 -54.999 64.5
s-51.666 20.5 -78.999 20.5c-24 0 -44.5 -3.33301 -61.5 -10s-30 -15.834 -39 -27.501s-13.5 -24.834 -13.5 -39.501s5 -28.167 15 -40.5s28.667 -21.166 56 -26.499l125 -26c46.667 -9.33301 79.334 -24.666 98.001 -45.999s28 -47.333 28 -78
c0 -31.333 -8.33301 -58.833 -25 -82.5s-40 -41.834 -70 -54.501s-64.667 -19 -104 -19zM422.997 575.999h-73l-86 115l-86 -115h-73l114 167h90z" />
    <glyph glyph-name="Scedilla" unicode="&#x15e;" horiz-adv-x="641" 
d="M320 670c58 0 108 -11.8311 150 -35.498s77 -58.5 105 -104.5l-67 -52c-24.667 42.667 -52.5 72.834 -83.5 90.501s-68.5 26.5 -112.5 26.5c-35.333 0 -64.5 -5 -87.5 -15s-39.833 -23.167 -50.5 -39.5s-16 -34.833 -16 -55.5c0 -23.333 7.33301 -43.833 22 -61.5
s44 -31.5 88 -41.5l143 -32c63.333 -14 107.5 -35.167 132.5 -63.5s37.5 -63.5 37.5 -105.5c0 -37.333 -10.5 -70.5 -31.5 -99.5s-50.5 -51.5 -88.5 -67.5s-82.667 -24 -134 -24c-48 0 -90.167 6.5 -126.5 19.5s-67.5 30.5 -93.5 52.5s-47.333 46.667 -64 74l70 57
c12.667 -25.333 29 -47.666 49 -66.999s44.167 -34.333 72.5 -45s60.833 -16 97.5 -16c34 0 63.5 4.16699 88.5 12.5s44.167 20.666 57.5 36.999s20 36.166 20 59.499c0 21.333 -7 40.5 -21 57.5s-40.333 29.833 -79 38.5l-155 35
c-40.667 9.33301 -73.5 22.166 -98.5 38.499s-43 35.666 -54 57.999s-16.5 46.5 -16.5 72.5c0 35.333 9.83301 67.833 29.5 97.5s48 53.5 85 71.5s80.833 27 131.5 27zM263 4.00195l42.002 25.001c39.333 -12.667 67.333 -29.834 84 -51.501s25 -47.167 25 -76.5
c0 -32 -11.333 -59.333 -34 -82s-51.667 -34 -87 -34c-20.667 0 -38.834 2.66699 -54.501 8s-29.167 12.333 -40.5 21l19 58c9.33301 -6 19.166 -11.333 29.499 -16s22.833 -7 37.5 -7c18.667 0 34 6 46 18s18 29.333 18 52c0 17.333 -6.33301 32.333 -19 45
s-34.667 26 -66 40z" />
    <glyph glyph-name="scedilla" unicode="&#x15f;" horiz-adv-x="527" 
d="M273 -10c-48.667 0 -93.5029 10.332 -134.503 30.999s-72.5 50 -94.5 88l68 49c14.667 -30.667 36.167 -54.667 64.5 -72s62.5 -26 102.5 -26c35.333 0 63 6.83301 83 20.5s30 31.5 30 53.5c0 14 -4.5 26.833 -13.5 38.5s-26.167 20.167 -51.5 25.5l-120 25
c-48.667 10 -83.5 26.667 -104.5 50s-31.5 52.333 -31.5 87c0 27.333 7.83301 52.333 23.5 75s38 40.834 67 54.501s63.167 20.5 102.5 20.5c49.333 0 91 -9.66699 125 -29s59.333 -46.666 76 -81.999l-67 -44c-11.333 29.333 -29.666 50.833 -54.999 64.5
s-51.666 20.5 -78.999 20.5c-24 0 -44.5 -3.33301 -61.5 -10s-30 -15.834 -39 -27.501s-13.5 -24.834 -13.5 -39.501s5 -28.167 15 -40.5s28.667 -21.166 56 -26.499l125 -26c46.667 -9.33301 79.334 -24.666 98.001 -45.999s28 -47.333 28 -78
c0 -31.333 -8.33301 -58.833 -25 -82.5s-40 -41.834 -70 -54.501s-64.667 -19 -104 -19zM213.997 3.99902l42.002 25.001c39.333 -12.667 67.333 -29.834 84 -51.501s25 -47.167 25 -76.5c0 -32 -11.333 -59.333 -34 -82s-51.667 -34 -87 -34
c-20.667 0 -38.834 2.66699 -54.501 8s-29.167 12.333 -40.5 21l19 58c9.33301 -6 19.166 -11.333 29.499 -16s22.833 -7 37.5 -7c18.667 0 34 6 46 18s18 29.333 18 52c0 17.333 -6.33301 32.333 -19 45s-34.667 26 -66 40z" />
    <glyph glyph-name="Scaron" unicode="&#x160;" horiz-adv-x="641" 
d="M320 670c58 0 108 -11.8311 150 -35.498s77 -58.5 105 -104.5l-67 -52c-24.667 42.667 -52.5 72.834 -83.5 90.501s-68.5 26.5 -112.5 26.5c-35.333 0 -64.5 -5 -87.5 -15s-39.833 -23.167 -50.5 -39.5s-16 -34.833 -16 -55.5c0 -23.333 7.33301 -43.833 22 -61.5
s44 -31.5 88 -41.5l143 -32c63.333 -14 107.5 -35.167 132.5 -63.5s37.5 -63.5 37.5 -105.5c0 -37.333 -10.5 -70.5 -31.5 -99.5s-50.5 -51.5 -88.5 -67.5s-82.667 -24 -134 -24c-48 0 -90.167 6.5 -126.5 19.5s-67.5 30.5 -93.5 52.5s-47.333 46.667 -64 74l70 57
c12.667 -25.333 29 -47.666 49 -66.999s44.167 -34.333 72.5 -45s60.833 -16 97.5 -16c34 0 63.5 4.16699 88.5 12.5s44.167 20.666 57.5 36.999s20 36.166 20 59.499c0 21.333 -7 40.5 -21 57.5s-40.333 29.833 -79 38.5l-155 35
c-40.667 9.33301 -73.5 22.166 -98.5 38.499s-43 35.666 -54 57.999s-16.5 46.5 -16.5 72.5c0 35.333 9.83301 67.833 29.5 97.5s48 53.5 85 71.5s80.833 27 131.5 27zM480 902.002l-110 -159h-88l-110 159h74l80 -107l80 107h74z" />
    <glyph glyph-name="scaron" unicode="&#x161;" horiz-adv-x="527" 
d="M273 -10c-48.667 0 -93.5029 10.332 -134.503 30.999s-72.5 50 -94.5 88l68 49c14.667 -30.667 36.167 -54.667 64.5 -72s62.5 -26 102.5 -26c35.333 0 63 6.83301 83 20.5s30 31.5 30 53.5c0 14 -4.5 26.833 -13.5 38.5s-26.167 20.167 -51.5 25.5l-120 25
c-48.667 10 -83.5 26.667 -104.5 50s-31.5 52.333 -31.5 87c0 27.333 7.83301 52.333 23.5 75s38 40.834 67 54.501s63.167 20.5 102.5 20.5c49.333 0 91 -9.66699 125 -29s59.333 -46.666 76 -81.999l-67 -44c-11.333 29.333 -29.666 50.833 -54.999 64.5
s-51.666 20.5 -78.999 20.5c-24 0 -44.5 -3.33301 -61.5 -10s-30 -15.834 -39 -27.501s-13.5 -24.834 -13.5 -39.501s5 -28.167 15 -40.5s28.667 -21.166 56 -26.499l125 -26c46.667 -9.33301 79.334 -24.666 98.001 -45.999s28 -47.333 28 -78
c0 -31.333 -8.33301 -58.833 -25 -82.5s-40 -41.834 -70 -54.501s-64.667 -19 -104 -19zM422.997 749.999l-114 -167h-90l-114 167h73l86 -115l86 115h73z" />
    <glyph glyph-name="uni0162" unicode="&#x162;" 
d="M262 0l27.002 29.002c39.333 -12.667 67.333 -29.834 84 -51.501s25 -47.167 25 -76.5c0 -32 -11.333 -59.333 -34 -82s-51.667 -34 -87 -34c-20.667 0 -38.834 2.66699 -54.501 8s-29.167 12.333 -40.5 21l19 58c9.33301 -6 19.166 -11.333 29.499 -16
s22.833 -7 37.5 -7c18.667 0 34 6 46 18s18 29.333 18 52c0 17.333 -5.66699 32.166 -17 44.499s-29 24.5 -53 36.5zM572.002 660.002v-75h-230v-585h-80v585h-230v75h540z" />
    <glyph glyph-name="uni0163" unicode="&#x163;" horiz-adv-x="419" 
d="M211 642v-504c0 -24.667 7 -43 21 -55s32 -18 54 -18c19.333 0 36 3.33301 50 10s26.667 15.667 38 27l28 -67c-15.333 -14 -33.5 -25 -54.5 -33s-45.167 -12 -72.5 -12c-25.333 0 -49 4.5 -71 13.5s-39.5 23.333 -52.5 43s-19.833 45.5 -20.5 77.5v496zM393 500v-69
h-362v69h362zM201 4l42.002 25.001c39.333 -12.667 67.333 -29.834 84 -51.501s25 -47.167 25 -76.5c0 -32 -11.333 -59.333 -34 -82s-51.667 -34 -87 -34c-20.667 0 -38.834 2.66699 -54.501 8s-29.167 12.333 -40.5 21l19 58c9.33301 -6 19.166 -11.333 29.499 -16
s22.833 -7 37.5 -7c18.667 0 34 6 46 18s18 29.333 18 52c0 17.333 -6.33301 32.333 -19 45s-34.667 26 -66 40z" />
    <glyph glyph-name="Tcaron" unicode="&#x164;" 
d="M572 660v-75h-230v-585h-80v585h-230v75h540zM456 902l-110 -159h-88l-110 159h74l80 -107l80 107h74z" />
    <glyph glyph-name="tcaron" unicode="&#x165;" horiz-adv-x="419" 
d="M368 767l-41 -197h-55l20 197h76zM211 642v-504c0 -24.667 7 -43 21 -55s32 -18 54 -18c19.333 0 36 3.33301 50 10s26.667 15.667 38 27l28 -67c-15.333 -14 -33.5 -25 -54.5 -33s-45.167 -12 -72.5 -12c-25.333 0 -49 4.5 -71 13.5s-39.5 23.333 -52.5 43
s-19.833 45.5 -20.5 77.5v496zM393 500v-69h-362v69h362z" />
    <glyph glyph-name="Tbar" unicode="&#x166;" 
d="M572 660v-75h-230v-585h-80v585h-230v75h540zM501 359v-75h-397v75h397z" />
    <glyph glyph-name="tbar" unicode="&#x167;" horiz-adv-x="419" 
d="M396 340v-61h-365v61h365zM211 642v-504c0 -24.667 7 -43 21 -55s32 -18 54 -18c19.333 0 36 3.33301 50 10s26.667 15.667 38 27l28 -67c-15.333 -14 -33.5 -25 -54.5 -33s-45.167 -12 -72.5 -12c-25.333 0 -49 4.5 -71 13.5s-39.5 23.333 -52.5 43
s-19.833 45.5 -20.5 77.5v496zM393 500v-69h-362v69h362z" />
    <glyph glyph-name="Utilde" unicode="&#x168;" horiz-adv-x="708" 
d="M613 660v-414c0 -84.667 -22.333 -148.5 -67 -191.5s-108.667 -64.5 -192 -64.5c-82.667 0 -146.5 21.5 -191.5 64.5s-67.5 106.833 -67.5 191.5v414h80v-394c0 -68.667 14.5 -119.334 43.5 -152.001s74.167 -49 135.5 -49s106.5 16.333 135.5 49
s43.5 83.334 43.5 152.001v394h80zM534 852c-2 -29.333 -7.49805 -54 -16.498 -74s-21.333 -35 -37 -45s-35.167 -15 -58.5 -15c-18.667 0 -34.5 3.5 -47.5 10.5s-24.167 14.833 -33.5 23.5s-18.5 16.5 -27.5 23.5s-18.833 10.5 -29.5 10.5
c-14.667 0 -25.667 -6.16699 -33 -18.5s-12.666 -29.166 -15.999 -50.499h-63c3.33301 44 14.166 77.333 32.499 100s45.166 34 80.499 34c18 0 33.5 -3.5 46.5 -10.5s24.333 -14.833 34 -23.5s18.834 -16.5 27.501 -23.5s18 -10.5 28 -10.5
c15.333 0 26.666 6.16699 33.999 18.5s12.666 29.166 15.999 50.499h63z" />
    <glyph glyph-name="utilde" unicode="&#x169;" horiz-adv-x="617" 
d="M274 -10c-32 0 -62.166 6.00098 -90.499 18.001s-51.333 31.5 -69 58.5s-26.5 62.167 -26.5 105.5v328h80v-307c0 -50.667 11 -85.5 33 -104.5s53 -28.5 93 -28.5c18.667 0 37 3.16699 55 9.5s34.167 16.333 48.5 30s25.666 31.167 33.999 52.5s12.5 46.666 12.5 75.999
v272h80v-500h-70l-5 76c-17.333 -30 -40.833 -51.833 -70.5 -65.5s-64.5 -20.5 -104.5 -20.5zM486.001 707.001c-2 -29.333 -7.49805 -54 -16.498 -74s-21.333 -35 -37 -45s-35.167 -15 -58.5 -15c-18.667 0 -34.5 3.5 -47.5 10.5s-24.167 14.833 -33.5 23.5
s-18.5 16.5 -27.5 23.5s-18.833 10.5 -29.5 10.5c-14.667 0 -25.667 -6.16699 -33 -18.5s-12.666 -29.166 -15.999 -50.499h-63c3.33301 44 14.166 77.333 32.499 100s45.166 34 80.499 34c18 0 33.5 -3.5 46.5 -10.5s24.333 -14.833 34 -23.5s18.834 -16.5 27.501 -23.5
s18 -10.5 28 -10.5c15.333 0 26.666 6.16699 33.999 18.5s12.666 29.166 15.999 50.499h63z" />
    <glyph glyph-name="Umacron" unicode="&#x16a;" horiz-adv-x="708" 
d="M613 660v-414c0 -84.667 -22.333 -148.5 -67 -191.5s-108.667 -64.5 -192 -64.5c-82.667 0 -146.5 21.5 -191.5 64.5s-67.5 106.833 -67.5 191.5v414h80v-394c0 -68.667 14.5 -119.334 43.5 -152.001s74.167 -49 135.5 -49s106.5 16.333 135.5 49
s43.5 83.334 43.5 152.001v394h80zM518 798v-67h-328v67h328z" />
    <glyph glyph-name="umacron" unicode="&#x16b;" horiz-adv-x="617" 
d="M274 -10c-32 0 -62.166 6.00098 -90.499 18.001s-51.333 31.5 -69 58.5s-26.5 62.167 -26.5 105.5v328h80v-307c0 -50.667 11 -85.5 33 -104.5s53 -28.5 93 -28.5c18.667 0 37 3.16699 55 9.5s34.167 16.333 48.5 30s25.666 31.167 33.999 52.5s12.5 46.666 12.5 75.999
v272h80v-500h-70l-5 76c-17.333 -30 -40.833 -51.833 -70.5 -65.5s-64.5 -20.5 -104.5 -20.5zM470.001 653.001v-67h-328v67h328z" />
    <glyph glyph-name="Ubreve" unicode="&#x16c;" horiz-adv-x="708" 
d="M613 660v-414c0 -84.667 -22.333 -148.5 -67 -191.5s-108.667 -64.5 -192 -64.5c-82.667 0 -146.5 21.5 -191.5 64.5s-67.5 106.833 -67.5 191.5v414h80v-394c0 -68.667 14.5 -119.334 43.5 -152.001s74.167 -49 135.5 -49s106.5 16.333 135.5 49
s43.5 83.334 43.5 152.001v394h80zM502 860c0 -44 -13.668 -79.667 -41.001 -107s-63 -41 -107 -41s-79.667 13.667 -107 41s-41 63 -41 107h65c0.666992 -23.333 8 -43.833 22 -61.5s34.333 -26.5 61 -26.5c27.333 0 47.833 8.83301 61.5 26.5s20.834 38.167 21.501 61.5
h65z" />
    <glyph glyph-name="ubreve" unicode="&#x16d;" horiz-adv-x="617" 
d="M274 -10c-32 0 -62.166 6.00098 -90.499 18.001s-51.333 31.5 -69 58.5s-26.5 62.167 -26.5 105.5v328h80v-307c0 -50.667 11 -85.5 33 -104.5s53 -28.5 93 -28.5c18.667 0 37 3.16699 55 9.5s34.167 16.333 48.5 30s25.666 31.167 33.999 52.5s12.5 46.666 12.5 75.999
v272h80v-500h-70l-5 76c-17.333 -30 -40.833 -51.833 -70.5 -65.5s-64.5 -20.5 -104.5 -20.5zM454.001 715.001c0 -44 -13.668 -79.667 -41.001 -107s-63 -41 -107 -41s-79.667 13.667 -107 41s-41 63 -41 107h65c0.666992 -23.333 8 -43.833 22 -61.5
s34.333 -26.5 61 -26.5c27.333 0 47.833 8.83301 61.5 26.5s20.834 38.167 21.501 61.5h65z" />
    <glyph glyph-name="Uring" unicode="&#x16e;" horiz-adv-x="708" 
d="M613 660v-414c0 -84.667 -22.333 -148.5 -67 -191.5s-108.667 -64.5 -192 -64.5c-82.667 0 -146.5 21.5 -191.5 64.5s-67.5 106.833 -67.5 191.5v414h80v-394c0 -68.667 14.5 -119.334 43.5 -152.001s74.167 -49 135.5 -49s106.5 16.333 135.5 49
s43.5 83.334 43.5 152.001v394h80zM351 920c37.333 0 67.5 -10.833 90.5 -32.5s34.5 -50.167 34.5 -85.5s-11.5 -64 -34.5 -86s-53.167 -33 -90.5 -33s-67.666 11 -90.999 33s-35 50.667 -35 86s11.667 63.833 35 85.5s53.666 32.5 90.999 32.5zM351 871
c-20.667 0 -37.667 -6.5 -51 -19.5s-20 -29.5 -20 -49.5s6.66699 -36.5 20 -49.5s30.333 -19.5 51 -19.5s37.667 6.5 51 19.5s20 29.5 20 49.5s-6.66699 36.5 -20 49.5s-30.333 19.5 -51 19.5z" />
    <glyph glyph-name="uring" unicode="&#x16f;" horiz-adv-x="617" 
d="M274 -10c-32 0 -62.166 6.00098 -90.499 18.001s-51.333 31.5 -69 58.5s-26.5 62.167 -26.5 105.5v328h80v-307c0 -50.667 11 -85.5 33 -104.5s53 -28.5 93 -28.5c18.667 0 37 3.16699 55 9.5s34.167 16.333 48.5 30s25.666 31.167 33.999 52.5s12.5 46.666 12.5 75.999
v272h80v-500h-70l-5 76c-17.333 -30 -40.833 -51.833 -70.5 -65.5s-64.5 -20.5 -104.5 -20.5zM303.001 802.001c37.333 0 67.5 -10.833 90.5 -32.5s34.5 -50.167 34.5 -85.5s-11.5 -64 -34.5 -86s-53.167 -33 -90.5 -33s-67.666 11 -90.999 33s-35 50.667 -35 86
s11.667 63.833 35 85.5s53.666 32.5 90.999 32.5zM303.001 753.001c-20.667 0 -37.667 -6.5 -51 -19.5s-20 -29.5 -20 -49.5s6.66699 -36.5 20 -49.5s30.333 -19.5 51 -19.5s37.667 6.5 51 19.5s20 29.5 20 49.5s-6.66699 36.5 -20 49.5s-30.333 19.5 -51 19.5z" />
    <glyph glyph-name="Uhungarumlaut" unicode="&#x170;" horiz-adv-x="708" 
d="M613 660v-414c0 -84.667 -22.333 -148.5 -67 -191.5s-108.667 -64.5 -192 -64.5c-82.667 0 -146.5 21.5 -191.5 64.5s-67.5 106.833 -67.5 191.5v414h80v-394c0 -68.667 14.5 -119.334 43.5 -152.001s74.167 -49 135.5 -49s106.5 16.333 135.5 49
s43.5 83.334 43.5 152.001v394h80zM477 877h84l-86 -159h-64zM300 877h84l-86 -159h-64z" />
    <glyph glyph-name="uhungarumlaut" unicode="&#x171;" horiz-adv-x="617" 
d="M274 -10c-32 0 -62.166 6.00098 -90.499 18.001s-51.333 31.5 -69 58.5s-26.5 62.167 -26.5 105.5v328h80v-307c0 -50.667 11 -85.5 33 -104.5s53 -28.5 93 -28.5c18.667 0 37 3.16699 55 9.5s34.167 16.333 48.5 30s25.666 31.167 33.999 52.5s12.5 46.666 12.5 75.999
v272h80v-500h-70l-5 76c-17.333 -30 -40.833 -51.833 -70.5 -65.5s-64.5 -20.5 -104.5 -20.5zM341.001 573.001l76 167h87l-98 -167h-65zM165.001 573.001l76 167h87l-98 -167h-65z" />
    <glyph glyph-name="Uogonek" unicode="&#x172;" horiz-adv-x="708" 
d="M613 660v-414c0 -84.667 -22.333 -148.5 -67 -191.5s-108.667 -64.5 -192 -64.5c-82.667 0 -146.5 21.5 -191.5 64.5s-67.5 106.833 -67.5 191.5v414h80v-394c0 -68.667 14.5 -119.334 43.5 -152.001s74.167 -49 135.5 -49s106.5 16.333 135.5 49
s43.5 83.334 43.5 152.001v394h80zM407 -220c-38 0 -67.167 9.49902 -87.5 28.499s-30.5 43.833 -30.5 74.5c0 37.333 11.833 67 35.5 89s60.167 42 109.5 60l44 -21c-36.667 -13.333 -64 -26.5 -82 -39.5s-29.833 -26 -35.5 -39s-8.5 -26.5 -8.5 -40.5
c0 -17.333 5.66699 -30.666 17 -39.999s26.333 -14 45 -14c10 0 19.667 1 29 3s18 4.66699 26 8l12 -53c-8.66699 -4.66699 -19.667 -8.5 -33 -11.5s-27 -4.5 -41 -4.5z" />
    <glyph glyph-name="uogonek" unicode="&#x173;" horiz-adv-x="617" 
d="M464 -231c-20.667 0 -39.501 3.99902 -56.501 11.999s-30.5 19.333 -40.5 34s-15 32.334 -15 53.001c0 24.667 5.33301 45.834 16 63.501s25.667 33.834 45 48.501s42 29 68 43l43 -23c-40 -22.667 -67.833 -43.834 -83.5 -63.501s-23.5 -38.834 -23.5 -57.501
c0 -16 4.83301 -28.833 14.5 -38.5s23.834 -14.5 42.501 -14.5c8 0 16.667 1 26 3s17 4.66699 23 8l16 -51c-8.66699 -4.66699 -19.5 -8.66699 -32.5 -12s-27.167 -5 -42.5 -5zM273.999 -10.001c-32 0 -62.166 6.00098 -90.499 18.001s-51.333 31.5 -69 58.5
s-26.5 62.167 -26.5 105.5v328h80v-307c0 -50.667 11 -85.5 33 -104.5s53 -28.5 93 -28.5c18.667 0 37 3.16699 55 9.5s34.167 16.333 48.5 30s25.666 31.167 33.999 52.5s12.5 46.666 12.5 75.999v272h80v-500h-70l-5 76c-17.333 -30 -40.833 -51.833 -70.5 -65.5
s-64.5 -20.5 -104.5 -20.5z" />
    <glyph glyph-name="Wcircumflex" unicode="&#x174;" horiz-adv-x="961" 
d="M231 0l-195 660h83l163 -587l155 587h91l155 -589l163 589h79l-194 -660h-99l-117 428l-34 149h-1l-34 -149l-116 -428h-99zM635 743h-74l-80 107l-80 -107h-74l110 159h88z" />
    <glyph glyph-name="wcircumflex" unicode="&#x175;" horiz-adv-x="836" 
d="M720 500h89l-174 -500h-80l-141 398l-133 -398h-80l-174 500h89l126 -407l136 407h80l136 -407zM577 576h-73l-86 115l-86 -115h-73l114 167h90z" />
    <glyph glyph-name="Ycircumflex" unicode="&#x176;" horiz-adv-x="572" 
d="M562 660l-236 -402v-258h-80v258l-236 402h95l128 -226l53 -94l53 94l128 226h95zM440 723h-74l-80 107l-80 -107h-74l110 159h88z" />
    <glyph glyph-name="ycircumflex" unicode="&#x177;" horiz-adv-x="516" 
d="M504 500l-234.999 -584.001c-12.667 -32.667 -26.5 -58.5 -41.5 -77.5s-31.667 -32.667 -50 -41s-39.5 -12.5 -63.5 -12.5c-22.667 0 -43.5 3.16699 -62.5 9.5s-35.833 14.833 -50.5 25.5l22 70c13.333 -12 27.5 -20.833 42.5 -26.5s29.833 -8.5 44.5 -8.5
c17.333 0 33.666 5.33301 48.999 16s29.333 32.334 42 65.001l26 65l-50 119l-159 380h91l125 -326l31 -89l36 99l117 316h86zM418.001 565.999h-73l-86 115l-86 -115h-73l114 167h90z" />
    <glyph glyph-name="Ydieresis" unicode="&#x178;" horiz-adv-x="572" 
d="M562 660l-236 -402v-258h-80v258l-236 402h95l128 -226l53 -94l53 94l128 226h95zM189 836c17.333 0 31.166 -5.16699 41.499 -15.5s15.5 -24.166 15.5 -41.499c0 -16.667 -5.16699 -30.334 -15.5 -41.001s-24.166 -16 -41.499 -16c-16.667 0 -30.334 5.33301 -41.001 16
s-16 24.334 -16 41.001c0 17.333 5.33301 31.166 16 41.499s24.334 15.5 41.001 15.5zM383 836c17.333 0 31.166 -5.16699 41.499 -15.5s15.5 -24.166 15.5 -41.499c0 -16.667 -5.16699 -30.334 -15.5 -41.001s-24.166 -16 -41.499 -16
c-16.667 0 -30.334 5.33301 -41.001 16s-16 24.334 -16 41.001c0 17.333 5.33301 31.166 16 41.499s24.334 15.5 41.001 15.5z" />
    <glyph glyph-name="Zacute" unicode="&#x179;" horiz-adv-x="630" 
d="M128 46l-14 29h461v-75h-519v71l434 543l14 -29h-438v75h496v-71zM329 902h84l-86 -159h-64z" />
    <glyph glyph-name="zacute" unicode="&#x17a;" horiz-adv-x="534" 
d="M57 0v61l262 307l63 65l-89 -2h-233v69h411v-61l-262 -307l-62 -65l97 2h235v-69h-422zM279 750h87l-98 -167h-65z" />
    <glyph glyph-name="Zdotaccent" unicode="&#x17b;" horiz-adv-x="630" 
d="M128 46l-14 29h461v-75h-519v71l434 543l14 -29h-438v75h496v-71zM306 876c18 0 32.5 -5.5 43.5 -16.5s16.5 -25.5 16.5 -43.5s-5.5 -32.5 -16.5 -43.5s-25.5 -16.5 -43.5 -16.5s-32.5 5.5 -43.5 16.5s-16.5 25.5 -16.5 43.5s5.5 32.5 16.5 43.5s25.5 16.5 43.5 16.5z
" />
    <glyph glyph-name="zdotaccent" unicode="&#x17c;" horiz-adv-x="534" 
d="M57 0v61l262 307l63 65l-89 -2h-233v69h411v-61l-262 -307l-62 -65l97 2h235v-69h-422zM252 716c18 0 32.5 -5.5 43.5 -16.5s16.5 -25.5 16.5 -43.5s-5.5 -32.5 -16.5 -43.5s-25.5 -16.5 -43.5 -16.5s-32.5 5.5 -43.5 16.5s-16.5 25.5 -16.5 43.5s5.5 32.5 16.5 43.5
s25.5 16.5 43.5 16.5z" />
    <glyph glyph-name="Zcaron" unicode="&#x17d;" horiz-adv-x="630" 
d="M128 46l-14 29h461v-75h-519v71l434 543l14 -29h-438v75h496v-71zM460 902l-110 -159h-88l-110 159h74l80 -107l80 107h74z" />
    <glyph glyph-name="zcaron" unicode="&#x17e;" horiz-adv-x="534" 
d="M57 0v61l262 307l63 65l-89 -2h-233v69h411v-61l-262 -307l-62 -65l97 2h235v-69h-422zM411 750l-114 -167h-90l-114 167h73l86 -115l86 115h73z" />
    <glyph glyph-name="longs" unicode="&#x17f;" horiz-adv-x="260" 
d="M89 0l-0.000976562 584c0 30 4.33301 56.333 13 79s23 40.334 43 53.001s46.333 19 79 19c19.333 0 35.333 -2 48 -6s22.334 -9.66699 29.001 -17l-16 -65c-6.66699 5.33301 -13.5 9.16602 -20.5 11.499s-15.167 3.5 -24.5 3.5c-22.667 0 -40.167 -6.83301 -52.5 -20.5
s-18.5 -35.5 -18.5 -65.5v-576h-80z" />
    <glyph glyph-name="uni018E" unicode="&#x18e;" horiz-adv-x="638" 
d="M530 0h-478v75h398v222h-298v75h298v213h-383v75h463v-660z" />
    <glyph glyph-name="uni018F" unicode="&#x18f;" horiz-adv-x="713" 
d="M341 -10c-55.333 0 -104.67 12.335 -148.003 37.002s-77.166 60.334 -101.499 107.001s-36.5 102.667 -36.5 168c0 9.33301 0.333008 18.666 1 27.999l2 29h538v-80h-494l44 32c-0.666992 -6.66699 -1.16699 -13 -1.5 -19s-0.5 -12 -0.5 -18
c0 -44 9.16699 -81.5 27.5 -112.5s43 -54.833 74 -71.5s65.167 -25 102.5 -25c44.667 0 82.834 9.83301 114.501 29.5s56 49.167 73 88.5s25.5 88.333 25.5 147c0 55.333 -8.83301 102.833 -26.5 142.5s-42.834 70 -75.501 91s-72 31.5 -118 31.5
c-46.667 0 -86.167 -11.667 -118.5 -35s-56.166 -57.333 -71.499 -102l-84 30c14.667 38 35.334 70.5 62.001 97.5s58 47.833 94 62.5s75.333 22 118 22c62.667 0 116.667 -13.833 162 -41.5s80.333 -66.834 105 -117.501s37 -111 37 -181s-12.5 -130.333 -37.5 -181
s-60.333 -89.834 -106 -117.501s-99.167 -41.5 -160.5 -41.5z" />
    <glyph glyph-name="florin" unicode="&#x192;" horiz-adv-x="488" 
d="M384 735c20 0 36.333 -1.66699 49 -5s27 -9.66602 43 -18.999l-12 -72c-21.333 15.333 -45.666 23 -72.999 23c-21.333 0 -38.333 -7 -51 -21s-21.334 -35.667 -26.001 -65l-88 -553c-8 -50 -24.5 -87.667 -49.5 -113s-58.5 -38 -100.5 -38c-20 0 -36.333 1.66699 -49 5
s-27 9.66602 -43 18.999l12 72c21.333 -15.333 45.666 -23 72.999 -23c21.333 0 38.333 7 51 21s21.334 35.667 26.001 65l88 553c8 50 24.5 87.667 49.5 113s58.5 38 100.5 38zM434 400v-69h-380v69h380z" />
    <glyph glyph-name="Ohorn" unicode="&#x1a0;" horiz-adv-x="748" 
d="M650 768c0 -54 -14.999 -96.001 -44.999 -126.001s-73.667 -45 -131 -45l-20 63c47.333 0 79.166 9.33301 95.499 28s24.5 45.334 24.5 80.001h76zM374.001 669.999c62.667 0 116.834 -13.833 162.501 -41.5s81 -66.834 106 -117.501s37.5 -111 37.5 -181
s-12.5 -130.333 -37.5 -181s-60.333 -89.834 -106 -117.501s-99.834 -41.5 -162.501 -41.5s-116.834 13.833 -162.501 41.5s-81 66.834 -106 117.501s-37.5 111 -37.5 181s12.5 130.333 37.5 181s60.333 89.834 106 117.501s99.834 41.5 162.501 41.5zM374.001 594.999
c-45.333 0 -84.666 -10.5 -117.999 -31.5s-59 -51.333 -77 -91s-27 -87.167 -27 -142.5s9 -102.833 27 -142.5s43.667 -70 77 -91s72.666 -31.5 117.999 -31.5c46 0 85.5 10.5 118.5 31.5s58.5 51.333 76.5 91s27 87.167 27 142.5s-9 102.833 -27 142.5s-43.5 70 -76.5 91
s-72.5 31.5 -118.5 31.5z" />
    <glyph glyph-name="ohorn" unicode="&#x1a1;" horiz-adv-x="600" 
d="M300 510c47.333 0 89.166 -10.333 125.499 -31s64.833 -50.5 85.5 -89.5s31 -85.5 31 -139.5s-10.333 -100.5 -31 -139.5s-49.167 -68.833 -85.5 -89.5s-78.166 -31 -125.499 -31c-46.667 0 -88.334 10.333 -125.001 31s-65.334 50.5 -86.001 89.5s-31 85.5 -31 139.5
s10.333 100.5 31 139.5s49.334 68.833 86.001 89.5s78.334 31 125.001 31zM300 441c-34 0 -63 -7.66699 -87 -23s-42.5 -37.166 -55.5 -65.499s-19.5 -62.5 -19.5 -102.5c0 -39.333 6.5 -73.333 19.5 -102s31.5 -50.667 55.5 -66s53 -23 87 -23s63 7.66699 87 23
s42.5 37.333 55.5 66s19.5 62.667 19.5 102c0 40 -6.5 74.167 -19.5 102.5s-31.5 50.166 -55.5 65.499s-53 23 -87 23zM374 441v58.999c28.667 0 51.167 9.16699 67.5 27.5s24.5 48.5 24.5 90.5h69c0 -59.333 -14.5 -103.666 -43.5 -132.999s-68.167 -44 -117.5 -44z" />
    <glyph glyph-name="Uhorn" unicode="&#x1af;" horiz-adv-x="708" 
d="M613 660v-414c0 -84.667 -22.333 -148.5 -67 -191.5s-108.667 -64.5 -192 -64.5c-82.667 0 -146.5 21.5 -191.5 64.5s-67.5 106.833 -67.5 191.5v414h80v-394c0 -68.667 14.5 -119.334 43.5 -152.001s74.167 -49 135.5 -49s106.5 16.333 135.5 49
s43.5 83.334 43.5 152.001v394h80zM717 768c0 -54 -14.5 -96.001 -43.5 -126.001s-69.5 -45 -121.5 -45l-20 63c41.333 0 69.833 9.33301 85.5 28s23.5 45.334 23.5 80.001h76z" />
    <glyph glyph-name="uhorn" unicode="&#x1b0;" horiz-adv-x="617" 
d="M274 -10c-32 0 -62.166 6.00098 -90.499 18.001s-51.333 31.5 -69 58.5s-26.5 62.167 -26.5 105.5v328h80v-307c0 -50.667 11 -85.5 33 -104.5s53 -28.5 93 -28.5c18.667 0 37 3.16699 55 9.5s34.167 16.333 48.5 30s25.666 31.167 33.999 52.5s12.5 46.666 12.5 75.999
v272h80v-500h-70l-5 76c-17.333 -30 -40.833 -51.833 -70.5 -65.5s-64.5 -20.5 -104.5 -20.5zM463.001 441.001v58.999c28.667 0 51.167 9.16699 67.5 27.5s24.5 48.5 24.5 90.5h69c0 -59.333 -14.5 -103.666 -43.5 -132.999s-68.167 -44 -117.5 -44z" />
    <glyph glyph-name="uni01C4" unicode="&#x1c4;" horiz-adv-x="1338" 
d="M321 660c103.333 0 184.5 -28.5 243.5 -85.5s88.5 -138.5 88.5 -244.5s-29.5 -187.5 -88.5 -244.5s-140.167 -85.5 -243.5 -85.5h-213v660h213zM329 75c75.333 0 134.166 22.5 176.499 67.5s63.5 107.5 63.5 187.5s-21.167 142.5 -63.5 187.5
s-101.166 67.5 -176.499 67.5h-141v-510h141zM836 46l-14 29h461v-75h-519v71l434 543l14 -29h-438v75h496v-71zM1168 902l-110 -159h-88l-110 159h74l80 -107l80 107h74z" />
    <glyph glyph-name="uni01C5" unicode="&#x1c5;" horiz-adv-x="1249" 
d="M321 660c103.333 0 184.5 -28.5 243.5 -85.5s88.5 -138.5 88.5 -244.5s-29.5 -187.5 -88.5 -244.5s-140.167 -85.5 -243.5 -85.5h-213v660h213zM329 75c75.333 0 134.166 22.5 176.499 67.5s63.5 107.5 63.5 187.5s-21.167 142.5 -63.5 187.5
s-101.166 67.5 -176.499 67.5h-141v-510h141zM772 0v61l262 307l63 65l-89 -2h-233v69h411v-61l-262 -307l-62 -65l97 2h235v-69h-422zM1126 750l-114 -167h-90l-114 167h73l86 -115l86 115h73z" />
    <glyph glyph-name="uni01C6" unicode="&#x1c6;" horiz-adv-x="1161" 
d="M288 -10c-41.333 0 -79.3281 10.3311 -113.995 30.998s-62.334 50.5 -83.001 89.5s-31 85.5 -31 139.5c0 55.333 11 102.333 33 141s51 68.167 87 88.5s74.667 30.5 116 30.5s77.166 -10.667 107.499 -32s50.5 -49.666 60.5 -84.999l-10 -7v344h80v-730h-70l-7 121l11 6
c-4.66699 -29.333 -15.834 -54.166 -33.501 -74.499s-39.334 -35.833 -65.001 -46.5s-52.834 -16 -81.501 -16zM296.005 59.998c32 0 59.834 8 83.501 24s42 38.833 55 68.5s19.5 64.5 19.5 104.5c0 38 -6.5 70.667 -19.5 98s-31 48.333 -54 63s-49.833 22 -80.5 22
c-50.667 0 -90 -17.333 -118 -52s-42 -80.667 -42 -138s13.667 -103.333 41 -138s65.666 -52 114.999 -52zM684.006 -0.00195312v61l262 307l63 65l-89 -2h-233v69h411v-61l-262 -307l-62 -65l97 2h235v-69h-422zM1038.01 749.998l-114 -167h-90l-114 167h73l86 -115l86 115
h73z" />
    <glyph glyph-name="uni01C7" unicode="&#x1c7;" horiz-adv-x="1164" 
d="M188 75h378v-75h-458v660h80v-585zM1063 660l-0.00292969 -433.999c0 -74 -19.833 -131.833 -59.5 -173.5s-94.5 -62.5 -164.5 -62.5c-49.333 0 -90 9.33301 -122 28s-54.167 45.167 -66.5 79.5s-14.166 74.5 -5.49902 120.5l74 15
c-7.33301 -56.667 -2.16602 -98.834 15.501 -126.501s51.5 -41.5 101.5 -41.5c56.667 0 95.334 15.5 116.001 46.5s31 75.833 31 134.5v414h80z" />
    <glyph glyph-name="uni01C8" unicode="&#x1c8;" horiz-adv-x="864" 
d="M188 75h378v-75h-458v660h80v-585zM731 596c-18 0 -32.5 5.5 -43.5 16.5s-16.5 25.5 -16.5 43.5s5.5 32.5 16.5 43.5s25.5 16.5 43.5 16.5s32.5 -5.5 43.5 -16.5s16.5 -25.5 16.5 -43.5s-5.5 -32.5 -16.5 -43.5s-25.5 -16.5 -43.5 -16.5zM771 500l-0.000976562 -550.999
c0 -41.333 -8 -74 -24 -98s-35.667 -41 -59 -51s-46.333 -15 -69 -15c-20.667 0 -39.667 3.16699 -57 9.5s-31.666 14.166 -42.999 23.499l17 76c9.33301 -8.66699 21 -16 35 -22s29.667 -9 47 -9c21.333 0 38.833 7 52.5 21s20.5 38.333 20.5 73v543h80z" />
    <glyph glyph-name="uni01C9" unicode="&#x1c9;" horiz-adv-x="572" 
d="M169 730l0.000976562 -603c0 -25.333 4.66699 -42.833 14 -52.5s24.333 -14.5 45 -14.5c13.333 0 24.333 1 33 3s20.334 5.66699 35.001 11l-13 -70c-10.667 -4.66699 -22.334 -8.16699 -35.001 -10.5s-25.667 -3.5 -39 -3.5c-40.667 0 -70.834 11 -90.501 33
s-29.5 55.667 -29.5 101v606h80zM439.001 596c-18 0 -32.5 5.5 -43.5 16.5s-16.5 25.5 -16.5 43.5s5.5 32.5 16.5 43.5s25.5 16.5 43.5 16.5s32.5 -5.5 43.5 -16.5s16.5 -25.5 16.5 -43.5s-5.5 -32.5 -16.5 -43.5s-25.5 -16.5 -43.5 -16.5zM479.001 500
l-0.000976562 -550.999c0 -41.333 -8 -74 -24 -98s-35.667 -41 -59 -51s-46.333 -15 -69 -15c-20.667 0 -39.667 3.16699 -57 9.5s-31.666 14.166 -42.999 23.499l17 76c9.33301 -8.66699 21 -16 35 -22s29.667 -9 47 -9c21.333 0 38.833 7 52.5 21s20.5 38.333 20.5 73v543
h80z" />
    <glyph glyph-name="uni01CA" unicode="&#x1ca;" horiz-adv-x="1300" 
d="M626 660v-660h-99l-276 442l-70 124h-1l4 -100v-466h-76v660h99l275 -440l71 -127h1l-4 101v466h76zM1199 660l-0.00292969 -433.999c0 -74 -19.833 -131.833 -59.5 -173.5s-94.5 -62.5 -164.5 -62.5c-49.333 0 -90 9.33301 -122 28s-54.167 45.167 -66.5 79.5
s-14.166 74.5 -5.49902 120.5l74 15c-7.33301 -56.667 -2.16602 -98.834 15.501 -126.501s51.5 -41.5 101.5 -41.5c56.667 0 95.334 15.5 116.001 46.5s31 75.833 31 134.5v414h80z" />
    <glyph glyph-name="uni01CB" unicode="&#x1cb;" horiz-adv-x="1000" 
d="M626 660v-660h-99l-276 442l-70 124h-1l4 -100v-466h-76v660h99l275 -440l71 -127h1l-4 101v466h76zM867 596c-18 0 -32.5 5.5 -43.5 16.5s-16.5 25.5 -16.5 43.5s5.5 32.5 16.5 43.5s25.5 16.5 43.5 16.5s32.5 -5.5 43.5 -16.5s16.5 -25.5 16.5 -43.5
s-5.5 -32.5 -16.5 -43.5s-25.5 -16.5 -43.5 -16.5zM907 500l-0.000976562 -550.999c0 -41.333 -8 -74 -24 -98s-35.667 -41 -59 -51s-46.333 -15 -69 -15c-20.667 0 -39.667 3.16699 -57 9.5s-31.666 14.166 -42.999 23.499l17 76c9.33301 -8.66699 21 -16 35 -22
s29.667 -9 47 -9c21.333 0 38.833 7 52.5 21s20.5 38.333 20.5 73v543h80z" />
    <glyph glyph-name="uni01CC" unicode="&#x1cc;" horiz-adv-x="885" 
d="M93 0l0.000976562 500h70l7 -112l-13 11c10.667 26.667 25 48.167 43 64.5s38.833 28.166 62.5 35.499s48.167 11 73.5 11c36 0 68.667 -6.83301 98 -20.5s52.833 -34.5 70.5 -62.5s26.5 -63.667 26.5 -107v-320h-80v292c0 55.333 -11.833 93.833 -35.5 115.5
s-52.834 32.5 -87.501 32.5c-24 0 -48 -5.66699 -72 -17s-43.833 -29.666 -59.5 -54.999s-23.5 -59.333 -23.5 -102v-266h-80zM752.001 596c-18 0 -32.5 5.5 -43.5 16.5s-16.5 25.5 -16.5 43.5s5.5 32.5 16.5 43.5s25.5 16.5 43.5 16.5s32.5 -5.5 43.5 -16.5
s16.5 -25.5 16.5 -43.5s-5.5 -32.5 -16.5 -43.5s-25.5 -16.5 -43.5 -16.5zM792.001 500l-0.000976562 -550.999c0 -41.333 -8 -74 -24 -98s-35.667 -41 -59 -51s-46.333 -15 -69 -15c-20.667 0 -39.667 3.16699 -57 9.5s-31.666 14.166 -42.999 23.499l17 76
c9.33301 -8.66699 21 -16 35 -22s29.667 -9 47 -9c21.333 0 38.833 7 52.5 21s20.5 38.333 20.5 73v543h80z" />
    <glyph glyph-name="uni01DD" unicode="&#x1dd;" horiz-adv-x="577" 
d="M281 510c48.667 0 90.668 -10.3311 126.001 -30.998s62.833 -50.5 82.5 -89.5s29.5 -85.5 29.5 -139.5s-10 -100.5 -30 -139.5s-47.667 -68.833 -83 -89.5s-76.333 -31 -123 -31s-86.667 10.667 -120 32s-59 49.166 -77 83.499s-27 71.5 -27 111.5
c0 11.333 0.5 21.833 1.5 31.5l2.5 24.5h404v-71h-369l41 8c0 -29.333 6.33301 -55.333 19 -78s30 -40.334 52 -53.001s47 -19 75 -19c32.667 0 60.667 7.5 84 22.5s41.166 36.833 53.499 65.5s18.5 62.667 18.5 102c0 40 -6 74.167 -18 102.5s-29.667 50 -53 65
s-52.333 22.5 -87 22.5c-38.667 0 -70 -8.16699 -94 -24.5s-43.667 -36.5 -59 -60.5l-63 37c12.667 22 29.167 42 49.5 60s44.333 32.167 72 42.5s58.5 15.5 92.5 15.5z" />
    <glyph glyph-name="Gcaron" unicode="&#x1e6;" horiz-adv-x="724" 
d="M374 -10c-62.667 0 -116.834 13.8311 -162.501 41.498s-81 66.834 -106 117.501s-37.5 111 -37.5 181s13.167 130.333 39.5 181s63.166 89.834 110.499 117.501s101.666 41.5 162.999 41.5c65.333 0 118.5 -12.333 159.5 -37s74.167 -62.667 99.5 -114l-73 -40
c-14.667 38 -37.834 66.833 -69.501 86.5s-70.5 29.5 -116.5 29.5c-44.667 0 -84.167 -10.5 -118.5 -31.5s-61.333 -51.333 -81 -91s-29.5 -87.167 -29.5 -142.5s8.5 -102.833 25.5 -142.5s42.333 -70 76 -91s74.834 -31.5 123.501 -31.5c27.333 0 52.833 3.5 76.5 10.5
s44.334 17.5 62.001 31.5s31.5 31.667 41.5 53s15 46.333 15 75v23h-210v75h283v-333h-63l-4 123l17 -3c-17.333 -41.333 -44.666 -73.333 -81.999 -96s-83.666 -34 -138.999 -34zM527 901.998l-110 -159h-88l-110 159h74l80 -107l80 107h74z" />
    <glyph glyph-name="gcaron" unicode="&#x1e7;" horiz-adv-x="532" 
d="M514 592l18 -70.999h-3h-4c-32.667 0 -57.834 -6.5 -75.501 -19.5s-26.5 -33.833 -26.5 -62.5l-49 25c0 26 6 48.667 18 68s28.333 34.166 49 44.499s43.334 15.5 68.001 15.5h2.5h2.5zM362 64.001c47.333 0 84.333 -10.833 111 -32.5s40 -50.5 40 -86.5
c0 -32.667 -10.833 -61 -32.5 -85s-50.667 -42.5 -87 -55.5s-77.166 -19.5 -122.499 -19.5c-78.667 0 -137.5 13.333 -176.5 40s-58.5 58.667 -58.5 96c0 26.667 8.83301 50.5 26.5 71.5s47.5 32.833 89.5 35.5l-7 -15c-22.667 6 -41.834 16.167 -57.501 30.5
s-23.5 35.166 -23.5 62.499s10.167 50.833 30.5 70.5s50.5 31.834 90.5 36.501l53 -27h-10c-32.667 -3.33301 -55.834 -11.5 -69.501 -24.5s-20.5 -27.167 -20.5 -42.5c0 -18.667 6.83301 -32.5 20.5 -41.5s32.834 -13.5 57.501 -13.5h146zM270 -147.999
c38.667 0 70.499 4 95.499 12s43.5 18.333 55.5 31s18 26.334 18 41.001c0 18 -7.16699 32.333 -21.5 43s-40.166 16 -77.499 16h-154c-21.333 0 -39.333 -5.5 -54 -16.5s-22 -26.167 -22 -45.5c0 -24.667 14.167 -44.334 42.5 -59.001s67.5 -22 117.5 -22zM262.999 510.001
c40 0 75.499 -7.16602 106.499 -21.499s55.167 -34.166 72.5 -59.499s26 -54.666 26 -87.999c0 -32.667 -8.66699 -61.834 -26 -87.501s-41.5 -45.667 -72.5 -60s-66.5 -21.5 -106.5 -21.5c-66 0 -116.667 15.833 -152 47.5s-53 72.167 -53 121.5
c0 33.333 8.83301 62.666 26.5 87.999s41.834 45.166 72.501 59.499s66 21.5 106 21.5zM262.998 445.002c-34.667 0 -63.667 -9.5 -87 -28.5s-35 -44.167 -35 -75.5c0 -30.667 11.667 -55.667 35 -75s52.333 -29 87 -29s63.667 9.66699 87 29s35 44.333 35 75
c0 31.333 -11.667 56.5 -35 75.5s-52.333 28.5 -87 28.5zM425.998 750.002l-114 -167h-90l-114 167h73l86 -115l86 115h73z" />
    <glyph glyph-name="uni01EA" unicode="&#x1ea;" horiz-adv-x="748" 
d="M374 670c62.667 0 116.834 -13.833 162.501 -41.5s81 -66.834 106 -117.501s37.5 -111 37.5 -181s-12.5 -130.333 -37.5 -181s-60.333 -89.834 -106 -117.501s-99.834 -41.5 -162.501 -41.5s-116.834 13.833 -162.501 41.5s-81 66.834 -106 117.501s-37.5 111 -37.5 181
s12.5 130.333 37.5 181s60.333 89.834 106 117.501s99.834 41.5 162.501 41.5zM374 595c-45.333 0 -84.666 -10.5 -117.999 -31.5s-59 -51.333 -77 -91s-27 -87.167 -27 -142.5s9 -102.833 27 -142.5s43.667 -70 77 -91s72.666 -31.5 117.999 -31.5
c46 0 85.5 10.5 118.5 31.5s58.5 51.333 76.5 91s27 87.167 27 142.5s-9 102.833 -27 142.5s-43.5 70 -76.5 91s-72.5 31.5 -118.5 31.5zM408 -225c-38 0 -67.167 9.49902 -87.5 28.499s-30.5 43.833 -30.5 74.5c0 37.333 11.833 67 35.5 89s60.167 42 109.5 60l44 -21
c-36.667 -13.333 -64 -26.5 -82 -39.5s-29.833 -26 -35.5 -39s-8.5 -26.5 -8.5 -40.5c0 -17.333 5.66699 -30.666 17 -39.999s26.333 -14 45 -14c10 0 19.667 1 29 3s18 4.66699 26 8l12 -53c-8.66699 -4.66699 -19.667 -8.5 -33 -11.5s-27 -4.5 -41 -4.5z" />
    <glyph glyph-name="uni01EB" unicode="&#x1eb;" horiz-adv-x="600" 
d="M300 510c47.333 0 89.166 -10.333 125.499 -31s64.833 -50.5 85.5 -89.5s31 -85.5 31 -139.5s-10.333 -100.5 -31 -139.5s-49.167 -68.833 -85.5 -89.5s-78.166 -31 -125.499 -31c-46.667 0 -88.334 10.333 -125.001 31s-65.334 50.5 -86.001 89.5s-31 85.5 -31 139.5
s10.333 100.5 31 139.5s49.334 68.833 86.001 89.5s78.334 31 125.001 31zM300 441c-34 0 -63 -7.66699 -87 -23s-42.5 -37.166 -55.5 -65.499s-19.5 -62.5 -19.5 -102.5c0 -39.333 6.5 -73.333 19.5 -102s31.5 -50.667 55.5 -66s53 -23 87 -23s63 7.66699 87 23
s42.5 37.333 55.5 66s19.5 62.667 19.5 102c0 40 -6.5 74.167 -19.5 102.5s-31.5 50.166 -55.5 65.499s-53 23 -87 23zM339 -218c-38 0 -67.167 9.49902 -87.5 28.499s-30.5 43.833 -30.5 74.5c0 37.333 11.833 67 35.5 89s60.167 42 109.5 60l44 -21
c-36.667 -13.333 -64 -26.5 -82 -39.5s-29.833 -26 -35.5 -39s-8.5 -26.5 -8.5 -40.5c0 -17.333 5.66699 -30.666 17 -39.999s26.333 -14 45 -14c10 0 19.667 1 29 3s18 4.66699 26 8l12 -53c-8.66699 -4.66699 -19.667 -8.5 -33 -11.5s-27 -4.5 -41 -4.5z" />
    <glyph glyph-name="uni01F1" unicode="&#x1f1;" horiz-adv-x="1338" 
d="M321 660c103.333 0 184.5 -28.5 243.5 -85.5s88.5 -138.5 88.5 -244.5s-29.5 -187.5 -88.5 -244.5s-140.167 -85.5 -243.5 -85.5h-213v660h213zM329 75c75.333 0 134.166 22.5 176.499 67.5s63.5 107.5 63.5 187.5s-21.167 142.5 -63.5 187.5
s-101.166 67.5 -176.499 67.5h-141v-510h141zM836 46l-14 29h461v-75h-519v71l434 543l14 -29h-438v75h496v-71z" />
    <glyph glyph-name="uni01F2" unicode="&#x1f2;" horiz-adv-x="1249" 
d="M321 660c103.333 0 184.5 -28.5 243.5 -85.5s88.5 -138.5 88.5 -244.5s-29.5 -187.5 -88.5 -244.5s-140.167 -85.5 -243.5 -85.5h-213v660h213zM329 75c75.333 0 134.166 22.5 176.499 67.5s63.5 107.5 63.5 187.5s-21.167 142.5 -63.5 187.5
s-101.166 67.5 -176.499 67.5h-141v-510h141zM772 0v61l262 307l63 65l-89 -2h-233v69h411v-61l-262 -307l-62 -65l97 2h235v-69h-422z" />
    <glyph glyph-name="uni01F3" unicode="&#x1f3;" horiz-adv-x="1161" 
d="M288 -10c-41.333 0 -79.3281 10.3311 -113.995 30.998s-62.334 50.5 -83.001 89.5s-31 85.5 -31 139.5c0 55.333 11 102.333 33 141s51 68.167 87 88.5s74.667 30.5 116 30.5s77.166 -10.667 107.499 -32s50.5 -49.666 60.5 -84.999l-10 -7v344h80v-730h-70l-7 121l11 6
c-4.66699 -29.333 -15.834 -54.166 -33.501 -74.499s-39.334 -35.833 -65.001 -46.5s-52.834 -16 -81.501 -16zM296.005 59.998c32 0 59.834 8 83.501 24s42 38.833 55 68.5s19.5 64.5 19.5 104.5c0 38 -6.5 70.667 -19.5 98s-31 48.333 -54 63s-49.833 22 -80.5 22
c-50.667 0 -90 -17.333 -118 -52s-42 -80.667 -42 -138s13.667 -103.333 41 -138s65.666 -52 114.999 -52zM684.006 -0.00195312v61l262 307l63 65l-89 -2h-233v69h411v-61l-262 -307l-62 -65l97 2h235v-69h-422z" />
    <glyph glyph-name="Aringacute" unicode="&#x1fa;" horiz-adv-x="660" 
d="M634 0h-85l-70 183h-299l-70 -183h-84l257 660h95zM209 258h241l-121 325zM328 847c37.333 0 67.5 -10.833 90.5 -32.5s34.5 -50.167 34.5 -85.5s-11.5 -64 -34.5 -86s-53.167 -33 -90.5 -33s-67.666 11 -90.999 33s-35 50.667 -35 86s11.667 63.833 35 85.5
s53.666 32.5 90.999 32.5zM328 798c-20.667 0 -37.667 -6.5 -51 -19.5s-20 -29.5 -20 -49.5s6.66699 -36.5 20 -49.5s30.333 -19.5 51 -19.5s37.667 6.5 51 19.5s20 29.5 20 49.5s-6.66699 36.5 -20 49.5s-30.333 19.5 -51 19.5zM354 1059h84l-86 -159h-64z" />
    <glyph glyph-name="aringacute" unicode="&#x1fb;" horiz-adv-x="566" 
d="M385 323c0 37.333 -10.0029 66.168 -30.0029 86.501s-48.333 30.5 -85 30.5c-34.667 0 -64 -7.5 -88 -22.5s-41.667 -39.167 -53 -72.5l-65 40c13.333 37.333 38 67.5 74 90.5s80.667 34.5 134 34.5c36 0 68.667 -6.16699 98 -18.5s52.5 -31 69.5 -56
s25.5 -57.167 25.5 -96.5v-242c0 -24 12.667 -36 38 -36c12.667 0 25 1.66699 37 5l-4 -63c-13.333 -6.66699 -30.666 -10 -51.999 -10c-19.333 0 -36.666 3.66699 -51.999 11s-27.333 18.5 -36 33.5s-13 33.833 -13 56.5v10l20 -3c-8 -26 -21.667 -47.167 -41 -63.5
s-41 -28.333 -65 -36s-47.667 -11.5 -71 -11.5c-29.333 0 -56.666 5 -81.999 15s-45.5 25.167 -60.5 45.5s-22.5 45.5 -22.5 75.5c0 37.333 12.5 68.166 37.5 92.499s59.833 40.833 104.5 49.5l198 39v-66l-161 -33c-32.667 -6.66699 -57 -16 -73 -28s-24 -28.667 -24 -50
c0 -20.667 8.16699 -37.5 24.5 -50.5s39.5 -19.5 69.5 -19.5c19.333 0 37.833 2.5 55.5 7.5s33.5 12.667 47.5 23s25 23.333 33 39s12 34.167 12 55.5v138zM272.997 812.002c37.333 0 67.5 -10.833 90.5 -32.5s34.5 -50.167 34.5 -85.5s-11.5 -64 -34.5 -86
s-53.167 -33 -90.5 -33s-67.666 11 -90.999 33s-35 50.667 -35 86s11.667 63.833 35 85.5s53.666 32.5 90.999 32.5zM272.997 763.002c-20.667 0 -37.667 -6.5 -51 -19.5s-20 -29.5 -20 -49.5s6.66699 -36.5 20 -49.5s30.333 -19.5 51 -19.5s37.667 6.5 51 19.5
s20 29.5 20 49.5s-6.66699 36.5 -20 49.5s-30.333 19.5 -51 19.5zM242.997 852.002l52 130h83l-73 -130h-62z" />
    <glyph glyph-name="AEacute" unicode="&#x1fc;" horiz-adv-x="954" 
d="M531 75h371v-75h-451v213h-236l-123 -213h-86l386 660h495v-75h-356v-213h271v-75h-271v-222zM259 288h192v297h-20zM514 902h84l-86 -159h-64z" />
    </font>
</defs>
</svg>
