<?xml version="1.0" standalone="no"?>
<!DOCTYPE svg PUBLIC "-//W3C//DTD SVG 1.1//EN" "http://www.w3.org/Graphics/SVG/1.1/DTD/svg11.dtd" >
<svg>
<metadata>
Created by FontForge 20090914 at Fri Nov 25 14:24:40 2022
 By www-data
Copyright 2019 The Work Sans Project Authors (https://github.com/weiweihuanghuang/Work-Sans)
</metadata>
<defs>
<font id="WorkSans-SemiBold" horiz-adv-x="578" >
  <font-face 
    font-family="Work Sans SemiBold"
    font-weight="600"
    font-stretch="normal"
    units-per-em="1000"
    panose-1="0 0 0 0 0 0 0 0 0 0"
    ascent="800"
    descent="-200"
    x-height="500"
    cap-height="660"
    bbox="-239 -339.003 1304 1095"
    underline-thickness="50"
    underline-position="-75"
    unicode-range="U+000D-U+FB02"
  />
<missing-glyph horiz-adv-x="500" 
d="M130 80v500h240v-500h-240zM50 0h400v660h-400v-660z" />
    <glyph glyph-name="fi" unicode="fi" horiz-adv-x="689" 
d="M295 729c23.333 0 44.499 -2.50098 63.499 -7.50098s33.167 -11.167 42.5 -18.5l-19 -91c-7.33301 4.66699 -15.666 8.33398 -24.999 11.001s-20.333 4 -33 4c-26 0 -46.667 -5.83301 -62 -17.5s-23 -31.5 -23 -59.5v-69l6 -27v-454h-137v560c0 28 4.66699 52.667 14 74
s22.333 39 39 53s36.5 24.5 59.5 31.5s47.833 10.5 74.5 10.5zM396.999 499.999v-102h-376v102h376zM547.999 571.999c-28.667 0 -50 6.16699 -64 18.5s-21 30.5 -21 54.5c0 24.667 7 43.167 21 55.5s35.333 18.5 64 18.5s50 -6.16699 64 -18.5s21 -30.833 21 -55.5
c0 -24 -7 -42.167 -21 -54.5s-35.333 -18.5 -64 -18.5zM615.999 499.999v-500h-137v500h137z" />
    <glyph glyph-name="fl" unicode="fl" horiz-adv-x="726" 
d="M295 729c23.333 0 44.499 -2.50098 63.499 -7.50098s33.167 -11.167 42.5 -18.5l-19 -91c-7.33301 4.66699 -15.666 8.33398 -24.999 11.001s-20.333 4 -33 4c-26 0 -46.667 -5.83301 -62 -17.5s-23 -31.5 -23 -59.5v-69l6 -27v-454h-137v560c0 28 4.66699 52.667 14 74
s22.333 39 39 53s36.5 24.5 59.5 31.5s47.833 10.5 74.5 10.5zM396.999 499.999v-102h-376v102h376zM613.999 718.999l0.00195312 -565c0 -23.333 4 -39.666 12 -48.999s21.333 -14 40 -14c11.333 0 20.666 0.833008 27.999 2.5s16.666 4.16699 27.999 7.5l-12 -90
c-11.333 -6.66699 -25.5 -11.834 -42.5 -15.501s-33.833 -5.5 -50.5 -5.5c-48.667 0 -84.167 11.833 -106.5 35.5s-33.5 61.5 -33.5 113.5v580h137z" />
    <glyph glyph-name="f_f" unicode="ff" horiz-adv-x="806" 
d="M295 729c23.333 0 44.499 -2.50098 63.499 -7.50098s33.167 -11.167 42.5 -18.5l-19 -91c-7.33301 4.66699 -15.666 8.33398 -24.999 11.001s-20.333 4 -33 4c-26 0 -46.667 -5.83301 -62 -17.5s-23 -31.5 -23 -59.5v-69l6 -27v-454h-137v560c0 28 4.66699 52.667 14 74
s22.333 39 39 53s36.5 24.5 59.5 31.5s47.833 10.5 74.5 10.5zM396.999 499.999v-102h-376v102h376zM693.999 728.999c23.333 0 44.499 -2.50098 63.499 -7.50098s33.167 -11.167 42.5 -18.5l-19 -91c-7.33301 4.66699 -15.666 8.33398 -24.999 11.001s-20.333 4 -33 4
c-26 0 -46.667 -5.83301 -62 -17.5s-23 -31.5 -23 -59.5v-69l6 -27v-454h-137v560c0 28 4.66699 52.667 14 74s22.333 39 39 53s36.5 24.5 59.5 31.5s47.833 10.5 74.5 10.5zM795.998 499.998v-102h-376v102h376z" />
    <glyph glyph-name="f_f_i" unicode="ffi" horiz-adv-x="1088" 
d="M295 729c23.333 0 44.499 -2.50098 63.499 -7.50098s33.167 -11.167 42.5 -18.5l-19 -91c-7.33301 4.66699 -15.666 8.33398 -24.999 11.001s-20.333 4 -33 4c-26 0 -46.667 -5.83301 -62 -17.5s-23 -31.5 -23 -59.5v-69l6 -27v-454h-137v560c0 28 4.66699 52.667 14 74
s22.333 39 39 53s36.5 24.5 59.5 31.5s47.833 10.5 74.5 10.5zM396.999 499.999v-102h-376v102h376zM693.999 728.999c23.333 0 44.499 -2.50098 63.499 -7.50098s33.167 -11.167 42.5 -18.5l-19 -91c-7.33301 4.66699 -15.666 8.33398 -24.999 11.001s-20.333 4 -33 4
c-26 0 -46.667 -5.83301 -62 -17.5s-23 -31.5 -23 -59.5v-69l6 -27v-454h-137v560c0 28 4.66699 52.667 14 74s22.333 39 39 53s36.5 24.5 59.5 31.5s47.833 10.5 74.5 10.5zM795.998 499.998v-102h-376v102h376zM946.998 571.998c-28.667 0 -50 6.16699 -64 18.5
s-21 30.5 -21 54.5c0 24.667 7 43.167 21 55.5s35.333 18.5 64 18.5s50 -6.16699 64 -18.5s21 -30.833 21 -55.5c0 -24 -7 -42.167 -21 -54.5s-35.333 -18.5 -64 -18.5zM1015 499.998v-500h-137v500h137z" />
    <glyph glyph-name="f_f_l" unicode="ffl" horiz-adv-x="1125" 
d="M295 729c23.333 0 44.499 -2.50098 63.499 -7.50098s33.167 -11.167 42.5 -18.5l-19 -91c-7.33301 4.66699 -15.666 8.33398 -24.999 11.001s-20.333 4 -33 4c-26 0 -46.667 -5.83301 -62 -17.5s-23 -31.5 -23 -59.5v-69l6 -27v-454h-137v560c0 28 4.66699 52.667 14 74
s22.333 39 39 53s36.5 24.5 59.5 31.5s47.833 10.5 74.5 10.5zM396.999 499.999v-102h-376v102h376zM693.999 728.999c23.333 0 44.499 -2.50098 63.499 -7.50098s33.167 -11.167 42.5 -18.5l-19 -91c-7.33301 4.66699 -15.666 8.33398 -24.999 11.001s-20.333 4 -33 4
c-26 0 -46.667 -5.83301 -62 -17.5s-23 -31.5 -23 -59.5v-69l6 -27v-454h-137v560c0 28 4.66699 52.667 14 74s22.333 39 39 53s36.5 24.5 59.5 31.5s47.833 10.5 74.5 10.5zM795.998 499.998v-102h-376v102h376zM1013 718.998l0.00195312 -565
c0 -23.333 4 -39.666 12 -48.999s21.333 -14 40 -14c11.333 0 20.666 0.833008 27.999 2.5s16.666 4.16699 27.999 7.5l-12 -90c-11.333 -6.66699 -25.5 -11.834 -42.5 -15.501s-33.833 -5.5 -50.5 -5.5c-48.667 0 -84.167 11.833 -106.5 35.5s-33.5 61.5 -33.5 113.5v580
h137z" />
    <glyph glyph-name=".notdef" horiz-adv-x="500" 
d="M130 80v500h240v-500h-240zM50 0h400v660h-400v-660z" />
    <glyph glyph-name="NULL" horiz-adv-x="0" 
 />
    <glyph glyph-name="NULL" horiz-adv-x="0" 
 />
    <glyph glyph-name="CR" unicode="&#xd;" horiz-adv-x="306" 
 />
    <glyph glyph-name="space" unicode=" " horiz-adv-x="306" 
 />
    <glyph glyph-name="exclam" unicode="!" horiz-adv-x="291" 
d="M217 660v-240l-17 -207h-110l-17 207v240h144zM145 145c26 0 46.667 -7 62 -21s23 -32.667 23 -56c0 -24 -7.66699 -42.833 -23 -56.5s-36 -20.5 -62 -20.5s-46.667 6.83301 -62 20.5s-23 32.5 -23 56.5c0 23.333 7.66699 42 23 56s36 21 62 21z" />
    <glyph glyph-name="quotedbl" unicode="&#x22;" horiz-adv-x="431" 
d="M379 682l-28 -266h-94v266h122zM192 682l-28 -266h-94v266h122z" />
    <glyph glyph-name="numbersign" unicode="#" horiz-adv-x="670" 
d="M555 660l-108 -660h-98l108 660h98zM603 256v-87h-579v87h579zM314 660l-108 -660h-98l107 660h99zM646 492v-87h-579v87h579z" />
    <glyph glyph-name="dollar" unicode="$" horiz-adv-x="634" 
d="M323 1c-44 0 -84.666 5.33398 -121.999 16.001s-70.5 25.334 -99.5 44.001s-53.167 40.334 -72.5 65.001l76 90c14.667 -22.667 33.667 -42.167 57 -58.5s49.666 -29 78.999 -38s59.333 -13.5 90 -13.5c40.667 0 72.667 6.66699 96 20s35 33 35 59
c0 16.667 -6.5 31 -19.5 43s-35.5 21.667 -67.5 29l-140 32c-37.333 8.66699 -69.333 20.667 -96 36s-46.834 34.166 -60.501 56.499s-20.5 48.166 -20.5 77.499c0 38.667 10.5 73 31.5 103s51 54 90 72s86.167 27 141.5 27c58 0 109 -10 153 -30s81.667 -49.667 113 -89
l-73 -83c-26.667 34 -56.167 58.833 -88.5 74.5s-69.833 23.5 -112.5 23.5c-30 0 -54.333 -3.5 -73 -10.5s-32.5 -16.5 -41.5 -28.5s-13.5 -25.667 -13.5 -41c0 -12 2.66699 -22.667 8 -32s15.5 -17.833 30.5 -25.5s36.5 -14.834 64.5 -21.501l120 -27
c62.667 -14 107.834 -34.5 135.501 -61.5s41.5 -62.833 41.5 -107.5c0 -42.667 -11 -79 -33 -109s-52.833 -52.833 -92.5 -68.5s-85.167 -23.5 -136.5 -23.5zM276.001 -91.999v844h93v-844h-93z" />
    <glyph glyph-name="percent" unicode="%" horiz-adv-x="908" 
d="M177 0l445 660h110l-445 -660h-110zM210 670c36 0 67.167 -7.66699 93.5 -23s46.666 -37 60.999 -65s21.5 -60.667 21.5 -98s-7.16699 -69.833 -21.5 -97.5s-34.666 -49.334 -60.999 -65.001s-57.5 -23.5 -93.5 -23.5c-35.333 0 -66.333 7.83301 -93 23.5
s-47.167 37.334 -61.5 65.001s-21.5 60.167 -21.5 97.5s7.16699 70 21.5 98s34.833 49.667 61.5 65s57.667 23 93 23zM210 575c-14.667 0 -27.334 -3.5 -38.001 -10.5s-18.667 -17.333 -24 -31s-8 -30.167 -8 -49.5c0 -18.667 2.66699 -34.834 8 -48.501s13.333 -24 24 -31
s23.334 -10.5 38.001 -10.5c15.333 0 28.166 3.5 38.499 10.5s18.166 17.333 23.499 31s8 29.834 8 48.501c0 19.333 -2.66699 35.833 -8 49.5s-13.166 24 -23.499 31s-23.166 10.5 -38.499 10.5zM698 362c35.333 0 66.166 -7.83301 92.499 -23.5
s46.833 -37.334 61.5 -65.001s22 -60.167 22 -97.5s-7.33301 -70 -22 -98s-35.167 -49.667 -61.5 -65s-57.166 -23 -92.499 -23s-66.333 7.66699 -93 23s-47.167 37 -61.5 65s-21.5 60.667 -21.5 98s7.16699 69.833 21.5 97.5s34.833 49.334 61.5 65.001
s57.667 23.5 93 23.5zM698 266c-15.333 0 -28.166 -3.5 -38.499 -10.5s-18.166 -17.167 -23.499 -30.5s-8 -29.666 -8 -48.999c0 -18.667 2.66699 -35 8 -49s13.166 -24.5 23.499 -31.5s23.166 -10.5 38.499 -10.5s28.166 3.5 38.499 10.5s18.166 17.5 23.499 31.5
s8 30.333 8 49c0 19.333 -2.66699 35.666 -8 48.999s-13.166 23.5 -23.499 30.5s-23.166 10.5 -38.499 10.5z" />
    <glyph glyph-name="ampersand" unicode="&#x26;" horiz-adv-x="638" 
d="M258 -10c-45.333 0 -84.8379 7.16699 -118.505 21.5s-59.667 35 -78 62s-27.5 59.5 -27.5 97.5c0 19.333 2.66699 38.666 8 57.999s14.833 37.833 28.5 55.5s32.334 33.834 56.001 48.501s53.834 26.334 90.501 35.001l35 14c27.333 16 49 30.5 65 43.5
s27.5 26.333 34.5 40s10.5 29.167 10.5 46.5c0 19.333 -6 34.5 -18 45.5s-28 16.5 -48 16.5c-22.667 0 -39.834 -6.5 -51.501 -19.5s-17.5 -29.167 -17.5 -48.5c0 -11.333 1.83301 -22.333 5.5 -33s10.834 -23.834 21.501 -39.501s26.5 -36.167 47.5 -61.5l84.5 -99l88 -98
c23.333 -25.333 43.5 -44.5 60.5 -57.5s33.333 -21.667 49 -26s33.5 -5.5 53.5 -3.5l-17 -98c-24.667 0 -46.834 2.16699 -66.501 6.5s-40.167 13.333 -61.5 27s-46.166 34.167 -74.499 61.5s-62.833 64 -103.5 110l-104.5 117c-27 31.333 -47.833 58 -62.5 80
s-25 42 -31 60s-9 37 -9 57c0 26.667 6.66699 52.334 20 77.001s34 44.834 62 60.501s64 23.5 108 23.5c39.333 0 71.833 -6.66699 97.5 -20s45 -31 58 -53s19.5 -46.667 19.5 -74s-5.66699 -53 -17 -77s-30.166 -45.667 -56.499 -65s-62.166 -37 -107.499 -53l-32 -16
c-27.333 -14 -48.666 -27.333 -63.999 -40s-26 -26.167 -32 -40.5s-9 -31.166 -9 -50.499s5.33301 -36.333 16 -51s25 -26 43 -34s38.667 -12 62 -12c33.333 0 62 5.66699 86 17s46.667 26.666 68 45.999l15 17c14 23.333 25.167 49.666 33.5 78.999s11.5 63 9.5 101l97 -4
c1.33301 -42.667 -4.5 -83.334 -17.5 -122.001s-32.833 -72.667 -59.5 -102l-24 -23c-23.333 -31.333 -53.833 -56.333 -91.5 -75s-82.167 -28 -133.5 -28z" />
    <glyph glyph-name="quotesingle" unicode="'" horiz-adv-x="244" 
d="M192 682l-28 -266h-94v266h122z" />
    <glyph glyph-name="parenleft" unicode="(" horiz-adv-x="376" 
d="M291 741l68 -65.999c-40 -36 -72.333 -74.167 -97 -114.5s-42.5 -83.833 -53.5 -130.5s-16.5 -98 -16.5 -154s5.5 -107.5 16.5 -154.5s28.833 -90.5 53.5 -130.5s57 -78.333 97 -115l-68 -67c-74 55.333 -130.167 122 -168.5 200s-57.5 167 -57.5 267
c0 99.333 19.167 188.166 57.5 266.499s94.5 144.5 168.5 198.5z" />
    <glyph glyph-name="parenright" unicode=")" horiz-adv-x="376" 
d="M85 -191l-68 66.999c40 36.667 72.333 75 97 115s42.5 83.5 53.5 130.5s16.5 98.167 16.5 153.5c0 56.667 -5.5 108.334 -16.5 155.001s-28.833 90.167 -53.5 130.5s-57 78.5 -97 114.5l68 66c74 -54 130.167 -120.167 168.5 -198.5s57.5 -167.5 57.5 -267.5
c0 -99.333 -19.167 -188 -57.5 -266s-94.5 -144.667 -168.5 -200z" />
    <glyph glyph-name="asterisk" unicode="*" horiz-adv-x="582" 
d="M314 503l83 -80l78 -105l-81 -59l-76 107l-50 103l23 17zM268 503l23 -17l23 -17l-50 -103l-76 -107l-81 59l79 105zM74 609l125 -42l101 -53l-9 -28l-9 -28l-113 17l-125 39zM341 730l-2 -131l-19 -113h-29h-29l-19 113l-3 131h101zM508 609l30 -95l-125 -39l-113 -17
l-9 28l-9 28l101 53z" />
    <glyph glyph-name="plus" unicode="+" horiz-adv-x="604" 
d="M359 580v-517h-113v517h113zM550 374v-105h-496v105h496z" />
    <glyph glyph-name="comma" unicode="," horiz-adv-x="281" 
d="M139 153c21.333 0 39.002 -5.16797 53.002 -15.501s24.667 -24 32 -41s11 -35.833 11 -56.5c0 -27.333 -5.5 -53.666 -16.5 -78.999s-26.167 -48 -45.5 -68s-41.333 -35.667 -66 -47l-60 47c18.667 7.33301 35.5 16.333 50.5 27s27.833 22.667 38.5 36
s18.334 27 23.001 41l-5 3c-3.33301 -2 -7.33301 -3.83301 -12 -5.5s-11.334 -2.5 -20.001 -2.5c-10.667 0 -21.334 2.83301 -32.001 8.5s-19.667 14 -27 25s-11 24.833 -11 41.5c0 18 4 33.333 12 46s18.667 22.5 32 29.5s27.666 10.5 42.999 10.5z" />
    <glyph glyph-name="hyphen" unicode="-" horiz-adv-x="521" 
d="M437 324v-118h-353v118h353z" />
    <glyph glyph-name="period" unicode="." horiz-adv-x="281" 
d="M141 153c26.667 0 47.834 -7.33301 63.501 -22s23.5 -34.334 23.5 -59.001c0 -25.333 -7.83301 -45.166 -23.5 -59.499s-36.834 -21.5 -63.501 -21.5s-47.834 7.16699 -63.501 21.5s-23.5 34.166 -23.5 59.499c0 24.667 7.83301 44.334 23.5 59.001s36.834 22 63.501 22z
" />
    <glyph glyph-name="slash" unicode="/" horiz-adv-x="456" 
d="M437 719l-290 -789h-127l289 789h128z" />
    <glyph glyph-name="zero" unicode="0" horiz-adv-x="636" 
d="M318 -10c-84.667 0 -149.834 28.667 -195.501 86s-68.5 142 -68.5 254s22.833 196.667 68.5 254s110.834 86 195.501 86s149.834 -28.667 195.501 -86s68.5 -142 68.5 -254s-22.833 -196.667 -68.5 -254s-110.834 -86 -195.501 -86zM318 101
c28.667 0 52.167 8.16699 70.5 24.5s32.166 41.333 41.499 75s14 76.834 14 129.501s-4.66699 95.834 -14 129.501s-23.166 58.667 -41.499 75s-41.833 24.5 -70.5 24.5s-52.334 -8.16699 -71.001 -24.5s-32.5 -41.333 -41.5 -75s-13.5 -76.834 -13.5 -129.501
s4.5 -95.834 13.5 -129.501s22.833 -58.667 41.5 -75s42.334 -24.5 71.001 -24.5z" />
    <glyph glyph-name="one" unicode="1" horiz-adv-x="416" 
d="M197 0v418.002c0 15.333 0.166992 31.166 0.5 47.499s0.833008 33.166 1.5 50.499c-22.667 -20.667 -48 -38.667 -76 -54s-56.667 -26 -86 -32l-18 116c15.333 1.33301 32.5 5.83301 51.5 13.5s38.333 17 58 28s37.667 22.667 54 35s28.833 24.833 37.5 37.5h112v-660
h-135z" />
    <glyph glyph-name="two" unicode="2" horiz-adv-x="591" 
d="M65 0v93.998c60 40 110.833 76.5 152.5 109.5s75.334 63.667 101.001 92s44.334 55.166 56.001 80.499s17.5 50.666 17.5 75.999c0 30.667 -9.33301 55.834 -28 75.501s-45 29.5 -79 29.5c-37.333 0 -66.5 -12.667 -87.5 -38s-32.5 -61.333 -34.5 -108l-119 45
c3.33301 45.333 15.5 83.833 36.5 115.5s49.667 56 86 73s78.5 25.5 126.5 25.5c40 0 74.833 -5.66699 104.5 -17s54.5 -26.833 74.5 -46.5s34.833 -42.167 44.5 -67.5s14.5 -51.666 14.5 -78.999c0 -42.667 -10.5 -83 -31.5 -121s-53.167 -75.667 -96.5 -113
s-98.333 -76.666 -165 -117.999v-1c10 0.666992 22.167 1.33398 36.5 2.00098s29.166 1.16699 44.499 1.5s28.666 0.5 39.999 0.5h182v-111h-476z" />
    <glyph glyph-name="three" unicode="3" horiz-adv-x="589" 
d="M297 -10c-66 0 -122.169 13.834 -168.502 41.501s-78.166 67.5 -95.499 119.5l130 57c4.66699 -24 12.334 -43.833 23.001 -59.5s25.167 -27.5 43.5 -35.5s40.166 -12 65.499 -12c22.667 0 41.834 4.16699 57.501 12.5s27.834 19.666 36.501 33.999s13 31.166 13 50.499
s-4 35.333 -12 48s-19.5 21.834 -34.5 27.501s-34.167 8.5 -57.5 8.5c-8.66699 0 -16.834 -0.166992 -24.501 -0.5s-16.167 -1.16602 -25.5 -2.49902v101c5.33301 -0.666992 10.833 -1.16699 16.5 -1.5s11.5 -0.5 17.5 -0.5c37.333 0 64.166 7.5 80.499 22.5
s24.5 39.167 24.5 72.5c0 27.333 -8.16699 48.5 -24.5 63.5s-39.5 22.5 -69.5 22.5c-32 0 -57.333 -7.83301 -76 -23.5s-31.667 -39.5 -39 -71.5l-123 46c8 33.333 23.5 62 46.5 86s51.5 42.5 85.5 55.5s71.667 19.5 113 19.5c49.333 0 90.5 -7.66699 123.5 -23
s58 -36.333 75 -63s25.5 -57.334 25.5 -92.001c0 -27.333 -4.16699 -50.5 -12.5 -69.5s-19 -35 -32 -48s-26.5 -22.833 -40.5 -29.5s-27 -10.667 -39 -12v-3c15.333 -0.666992 31 -3.83398 47 -9.50098s30.833 -14.167 44.5 -25.5s24.834 -25.833 33.501 -43.5
s13 -38.5 13 -62.5c0 -40 -10.5 -75.167 -31.5 -105.5s-49.5 -53.666 -85.5 -69.999s-77.333 -24.5 -124 -24.5z" />
    <glyph glyph-name="four" unicode="4" horiz-adv-x="633" 
d="M366 0l0.000976562 154.999h-322v90c3.33301 6.66699 8.16602 14.834 14.499 24.501l21.5 33.5l246 357h165v-405h107v-100h-107v-155h-125zM162.001 254.999h204.999v218c0 14 0.333008 29 1 45l2 47h-2c-7.33301 -14.667 -16.166 -30.5 -26.499 -47.5l-28.5 -45.5
l-138 -198c-2 -3.33301 -4.16699 -6.5 -6.5 -9.5s-4.5 -6.16699 -6.5 -9.5z" />
    <glyph glyph-name="five" unicode="5" horiz-adv-x="582" 
d="M286 -10c-58 0 -106.834 12 -146.501 36s-72.167 60.667 -97.5 110l124 62c8.66699 -29.333 22.334 -53 41.001 -71s46 -27 82 -27c24.667 0 45.667 4.33301 63 13s30.833 21.334 40.5 38.001s14.5 37 14.5 61s-4.5 44.167 -13.5 60.5s-21.833 28.666 -38.5 36.999
s-37.667 12.5 -63 12.5c-17.333 0 -33.5 -1.66699 -48.5 -5s-28.5 -8.5 -40.5 -15.5s-22.667 -16.167 -32 -27.5l-108 20l41 366h399v-111h-295l-20 -161l-3 -13h2c14 16 33.167 28.333 57.5 37s52.166 13 83.499 13c43.333 0 80.333 -8.66699 111 -26
s54.334 -41.5 71.001 -72.5s25 -66.5 25 -106.5c0 -38 -6.33301 -71.5 -19 -100.5s-30.5 -53 -53.5 -72s-49.5 -33.333 -79.5 -43s-62.333 -14.5 -97 -14.5z" />
    <glyph glyph-name="six" unicode="6" horiz-adv-x="613" 
d="M335 670c35.333 0 67.3359 -4.8291 96.0029 -14.4961s53.834 -25 75.501 -46s38.5 -48.833 50.5 -83.5l-116 -54c-8 26 -21.167 46.5 -39.5 61.5s-43.5 22.5 -75.5 22.5c-22.667 0 -42.834 -5.5 -60.501 -16.5s-32.834 -26.333 -45.501 -46
s-22.334 -43.334 -29.001 -71.001s-10 -58.167 -10 -91.5v-6.5v-10.5l3 -4c7.33301 23.333 20.166 42.666 38.499 57.999s39 26.666 62 33.999s45.833 11 68.5 11c42 0 79.167 -8.16699 111.5 -24.5s57.666 -39.833 75.999 -70.5s27.5 -67.334 27.5 -110.001
c0 -44 -9.83301 -82.5 -29.5 -115.5s-47.334 -58.333 -83.001 -76s-78.167 -26.5 -127.5 -26.5c-56 0 -104.5 13.333 -145.5 40s-72.667 65 -95 115s-33.5 110.333 -33.5 181c0 76.667 12.333 140.5 37 191.5s58.334 89.167 101.001 114.5s90.334 38 143.001 38z
M326.003 312.004c-22 0 -41.332 -4.49902 -57.999 -13.499s-30 -21.333 -40 -37s-15 -33.834 -15 -54.501s5.16699 -39 15.5 -55s24 -28.667 41 -38s35.833 -14 56.5 -14c35.333 0 62.833 9.33301 82.5 28s29.5 45 29.5 79c0 21.333 -4.33301 40 -13 56
s-21.334 28.167 -38.001 36.5s-37 12.5 -61 12.5z" />
    <glyph glyph-name="seven" unicode="7" horiz-adv-x="591" 
d="M35 660l523.002 -0.00195312v-105c-55.333 -55.333 -99.333 -112.333 -132 -171s-56.167 -119.667 -70.5 -183s-21.5 -130.333 -21.5 -201h-137c0 73.333 9.16699 143.833 27.5 211.5s46.666 132.334 84.999 194.001s87.166 120.834 146.499 177.501l28 -36h-449v113z
" />
    <glyph glyph-name="eight" unicode="8" horiz-adv-x="623" 
d="M311 668c47.333 0 88.499 -7.16895 123.499 -21.502s62 -34.666 81 -60.999s28.5 -58.166 28.5 -95.499c0 -34.667 -8.5 -64.667 -25.5 -90s-41.5 -44.666 -73.5 -57.999v-1c38.667 -14 69 -34.333 91 -61s33 -60.334 33 -101.001c0 -38.667 -10.5 -72 -31.5 -100
s-50.667 -49.833 -89 -65.5s-84.166 -23.5 -137.499 -23.5c-52.667 0 -98.167 7.83301 -136.5 23.5s-68 37.5 -89 65.5s-31.5 61.333 -31.5 100c0 40 11 73.5 33 100.5s52.667 47.5 92 61.5v1c-32 12.667 -56.667 31.834 -74 57.501s-26 55.834 -26 90.501
c0 37.333 9.5 69.166 28.5 95.499s46.167 46.666 81.5 60.999s76 21.5 122 21.5zM311.999 561.998c-31.333 0 -56.166 -7.66699 -74.499 -23s-27.5 -36.666 -27.5 -63.999s9.16699 -48.666 27.5 -63.999s43.166 -23 74.499 -23c30.667 0 55.167 7.66699 73.5 23
s27.5 36.666 27.5 63.999s-9 48.666 -27 63.999s-42.667 23 -74 23zM311.999 96.998c25.333 0 47.002 3.66699 65.002 11s31.833 18.333 41.5 33s14.5 32 14.5 52s-4.83301 37.333 -14.5 52s-23.667 25.834 -42 33.501s-39.833 11.5 -64.5 11.5
s-46.334 -3.83301 -65.001 -11.5s-33 -18.834 -43 -33.501s-15 -32 -15 -52s5 -37.333 15 -52s24.167 -25.667 42.5 -33s40.166 -11 65.499 -11z" />
    <glyph glyph-name="nine" unicode="9" horiz-adv-x="617" 
d="M294 670c58.667 0 108.003 -13.501 148.003 -40.501s70.167 -65.667 90.5 -116s30.5 -110.833 30.5 -181.5c0 -78 -11 -142.167 -33 -192.5s-53.167 -87.833 -93.5 -112.5s-87.5 -37 -141.5 -37c-56.667 0 -105.5 12 -146.5 36s-71.833 60.667 -92.5 110l127 54
c7.33301 -27.333 20.166 -49.166 38.499 -65.499s43.833 -24.5 76.5 -24.5c26 0 48 5.16699 66 15.5s32.5 25.166 43.5 44.499s19 43 24 71s7.5 59.333 7.5 94v7v7h-4c-7.33301 -23.333 -19.833 -42.5 -37.5 -57.5s-37.834 -26 -60.501 -33s-46 -10.5 -70 -10.5
c-42 0 -79.167 8.5 -111.5 25.5s-57.833 41 -76.5 72s-28 67.167 -28 108.5c0 46.667 10 86.834 30 120.501s48.167 59.667 84.5 78s79.166 27.5 128.499 27.5zM295.003 557.999c-35.333 0 -62.833 -9.83301 -82.5 -29.5s-29.5 -47.167 -29.5 -82.5
c0 -31.333 10.167 -55.833 30.5 -73.5s47.5 -26.5 81.5 -26.5c22 0 41.5 4.33301 58.5 13s30.167 21 39.5 37s14 34.333 14 55c0 22 -4.66699 41 -14 57s-22.5 28.333 -39.5 37s-36.5 13 -58.5 13z" />
    <glyph glyph-name="colon" unicode=":" horiz-adv-x="300" 
d="M150 510c26.667 0 47.834 -7.33301 63.501 -22s23.5 -34.334 23.5 -59.001c0 -25.333 -7.83301 -45.166 -23.5 -59.499s-36.834 -21.5 -63.501 -21.5s-47.834 7.16699 -63.501 21.5s-23.5 34.166 -23.5 59.499c0 24.667 7.83301 44.334 23.5 59.001s36.834 22 63.501 22z
M150 153c26.667 0 47.834 -7.33301 63.501 -22s23.5 -34.334 23.5 -59.001c0 -25.333 -7.83301 -45.166 -23.5 -59.499s-36.834 -21.5 -63.501 -21.5s-47.834 7.16699 -63.501 21.5s-23.5 34.166 -23.5 59.499c0 24.667 7.83301 44.334 23.5 59.001s36.834 22 63.501 22z
" />
    <glyph glyph-name="semicolon" unicode=";" horiz-adv-x="300" 
d="M148 153c21.333 0 39.002 -5.16797 53.002 -15.501s24.667 -24 32 -41s11 -35.833 11 -56.5c0 -27.333 -5.5 -53.666 -16.5 -78.999s-26.167 -48 -45.5 -68s-41.333 -35.667 -66 -47l-60 47c18.667 7.33301 35.5 16.333 50.5 27s27.833 22.667 38.5 36
s18.334 27 23.001 41l-5 3c-3.33301 -2 -7.33301 -3.83301 -12 -5.5s-11.334 -2.5 -20.001 -2.5c-10.667 0 -21.334 2.83301 -32.001 8.5s-19.667 14 -27 25s-11 24.833 -11 41.5c0 18 4 33.333 12 46s18.667 22.5 32 29.5s27.666 10.5 42.999 10.5zM150.002 509.999
c26.667 0 47.834 -7.33301 63.501 -22s23.5 -34.334 23.5 -59.001c0 -25.333 -7.83301 -45.166 -23.5 -59.499s-36.834 -21.5 -63.501 -21.5s-47.834 7.16699 -63.501 21.5s-23.5 34.166 -23.5 59.499c0 24.667 7.83301 44.334 23.5 59.001s36.834 22 63.501 22z" />
    <glyph glyph-name="less" unicode="&#x3c;" horiz-adv-x="604" 
d="M551 14l-485 220v127l485 221v-132l-378 -151l378 -152v-133z" />
    <glyph glyph-name="equal" unicode="=" horiz-adv-x="604" 
d="M540 468v-102h-476v102h476zM540 257v-101h-476v101h476z" />
    <glyph glyph-name="greater" unicode="&#x3e;" horiz-adv-x="604" 
d="M53 582l485 -221v-127l-485 -220v131l378 151l-378 153v133z" />
    <glyph glyph-name="question" unicode="?" horiz-adv-x="583" 
d="M295 670c47.333 0 89.3359 -7.00195 126.003 -21.002s65.334 -34.5 86.001 -61.5s31 -60.167 31 -99.5c0 -40 -8.5 -72.833 -25.5 -98.5s-39.833 -45.167 -68.5 -58.5s-60.334 -22 -95.001 -26l-7 -93h-125l1 151c44 5.33301 78.667 12.5 104 21.5
s43.166 20.5 53.499 34.5s15.5 30.667 15.5 50c0 18.667 -3.83301 34.334 -11.5 47.001s-19.167 22.334 -34.5 29.001s-35 10 -59 10c-34.667 0 -62.334 -9.83301 -83.001 -29.5s-33.334 -47.5 -38.001 -83.5l-130 50c8 34.667 22.667 65.5 44 92.5s49.833 48 85.5 63
s79.167 22.5 130.5 22.5zM281.003 144.998c26 0 46.667 -7 62 -21s23 -32.667 23 -56c0 -24 -7.66699 -42.833 -23 -56.5s-36 -20.5 -62 -20.5s-46.667 6.83301 -62 20.5s-23 32.5 -23 56.5c0 23.333 7.66699 42 23 56s36 21 62 21z" />
    <glyph glyph-name="at" unicode="@" horiz-adv-x="941" 
d="M473 -189c-62 0 -118.83 9.49805 -170.497 28.498s-96.334 46.333 -134.001 82s-66.834 79.167 -87.501 130.5s-31 109.666 -31 174.999c0 64 11 122.667 33 176s53 99.5 93 138.5s87 69 141 90s113 31.5 177 31.5c60.667 0 115.334 -9.5 164.001 -28.5
s90.334 -45.833 125.001 -80.5s61.167 -75.5 79.5 -122.5s27.5 -98.167 27.5 -153.5c0 -48.667 -6.16699 -91 -18.5 -127s-29 -65.667 -50 -89s-44.167 -40.666 -69.5 -51.999s-50.666 -17 -75.999 -17c-42.667 0 -74.5 10.667 -95.5 32s-30.5 49 -28.5 83
c-14.667 -32 -36.334 -57.167 -65.001 -75.5s-59 -27.5 -91 -27.5c-31.333 0 -59.166 7.83301 -83.499 23.5s-43.333 37.834 -57 66.501s-20.5 62.667 -20.5 102c0 35.333 5.33301 69 16 101s25.667 60.5 45 85.5s42.5 44.833 69.5 59.5s57.167 22 90.5 22
c22 0 42.333 -4 61 -12s34.667 -19.667 48 -35s22.333 -34.666 27 -57.999l23 96h119l-70 -301l-4 -21c-1.33301 -6.66699 -2 -13 -2 -19c0 -18 4.5 -30.5 13.5 -37.5s20.167 -10.5 33.5 -10.5c20.667 0 39.667 7.5 57 22.5s31.5 37.833 42.5 68.5s16.5 69.667 16.5 117
s-7.83301 90.833 -23.5 130.5s-37.834 73.5 -66.501 101.5s-62.834 49.667 -102.501 65s-83.834 23 -132.501 23c-54 0 -103.333 -8.66699 -148 -26s-83.334 -42 -116.001 -74s-57.834 -70.667 -75.501 -116s-26.5 -96 -26.5 -152c0 -56.667 8.83301 -106.5 26.5 -149.5
s42.5 -79.167 74.5 -108.5s69 -51.5 111 -66.5s87 -22.5 135 -22.5c50.667 0 91.5 6.33301 122.5 19s58.167 26.667 81.5 42l35 -58c-18 -12.667 -38.167 -24.5 -60.5 -35.5s-48.166 -19.833 -77.499 -26.5s-64.333 -10 -105 -10zM446.003 95.998
c23.333 0 43.999 8.49805 61.999 25.498s32 39 42 66s15 55.5 15 85.5c0 20.667 -3.33301 38.334 -10 53.001s-16.5 26 -29.5 34s-28.5 12 -46.5 12c-19.333 0 -36.666 -4.83301 -51.999 -14.5s-28.5 -22.834 -39.5 -39.501s-19.333 -35.167 -25 -55.5
s-8.5 -41.166 -8.5 -62.499c0 -22 3.5 -40.667 10.5 -56s17.5 -27.166 31.5 -35.499s30.667 -12.5 50 -12.5z" />
    <glyph glyph-name="A" unicode="A" horiz-adv-x="671" 
d="M659 0h-143l-55 161h-253l-55 -161h-141l241 660h165zM239 263h191l-96 288z" />
    <glyph glyph-name="B" unicode="B" horiz-adv-x="672" 
d="M86 0l-0.000976562 659.997h289c80 0 139 -15.667 177 -47s57 -75.666 57 -132.999c0 -35.333 -10.667 -66.666 -32 -93.999s-52.666 -44.666 -93.999 -51.999v-1c46 -6.66699 81.333 -24 106 -52s37 -61.333 37 -100c0 -56.667 -20.5 -101 -61.5 -133
s-100.833 -48 -179.5 -48h-299zM219.999 103.997l153 0.000976562c37.333 0 65 7.66699 83 23s27 36.666 27 63.999c0 28 -9 49.333 -27 64s-45.667 22 -83 22h-153v-173zM219.999 382.998h137c72.667 0 109 28.333 109 85s-36.333 85 -109 85h-137v-170z" />
    <glyph glyph-name="C" unicode="C" horiz-adv-x="683" 
d="M651 182c-12.667 -42.667 -32.6719 -78.334 -60.0049 -107.001s-59.666 -50 -96.999 -64s-78.333 -21 -123 -21c-65.333 0 -121.833 13.667 -169.5 41s-84.334 66.333 -110.001 117s-38.5 111.334 -38.5 182.001s12.833 131.334 38.5 182.001s62.334 89.667 110.001 117
s103.5 41 167.5 41c45.333 0 86.333 -6.16699 123 -18.5s67.834 -31.333 93.501 -57s44.5 -57.5 56.5 -95.5l-125 -53c-11.333 40 -28.666 68.5 -51.999 85.5s-53.333 25.5 -90 25.5c-36 0 -67.5 -8.66699 -94.5 -26s-47.833 -42.833 -62.5 -76.5s-22 -75.167 -22 -124.5
c0 -48.667 6.83301 -90 20.5 -124s33.834 -59.667 60.501 -77s59.334 -26 98.001 -26c36 0 67.167 9.66699 93.5 29s44.833 48.666 55.5 87.999z" />
    <glyph glyph-name="D" unicode="D" horiz-adv-x="719" 
d="M341 660c103.333 0 183.333 -28.501 240 -85.501s85 -138.5 85 -244.5c0 -105.333 -28.333 -186.666 -85 -243.999s-136.667 -86 -240 -86h-255v660h255zM334 109.999c62.667 0 109.834 18.833 141.501 56.5s47.5 92.167 47.5 163.5s-15.833 125.833 -47.5 163.5
s-78.834 56.5 -141.501 56.5h-110v-440h110z" />
    <glyph glyph-name="E" unicode="E" horiz-adv-x="633" 
d="M86 0v660h495v-111h-357v-164h281v-106h-281v-168h371v-111h-509z" />
    <glyph glyph-name="F" unicode="F" horiz-adv-x="612" 
d="M580 549h-356v-167h281v-112h-281v-270h-138v660h494v-111z" />
    <glyph glyph-name="G" unicode="G" horiz-adv-x="723" 
d="M357 -10c-60.667 0 -113.835 13.332 -159.502 39.999s-81.167 65.334 -106.5 116.001s-38 111.667 -38 183c0 70.667 13.333 131.5 40 182.5s64.334 90.167 113.001 117.5s105.667 41 171 41c71.333 0 129 -13.167 173 -39.5s79 -67.166 105 -122.499l-128 -55
c-10.667 35.333 -28.834 61.5 -54.501 78.5s-57.167 25.5 -94.5 25.5s-69.666 -8.83301 -96.999 -26.5s-48.333 -43.334 -63 -77.001s-22 -74.834 -22 -123.501c0 -50 7 -92.167 21 -126.5s34.833 -60 62.5 -77s61.834 -25.5 102.501 -25.5c22 0 42.5 2.66699 61.5 8
s35.5 13.333 49.5 24s25 24.334 33 41.001s12 36 12 58v15h-173v101h292v-348h-97l-10 144l24 -17c-14.667 -44 -40.5 -77.833 -77.5 -101.5s-83.5 -35.5 -139.5 -35.5z" />
    <glyph glyph-name="H" unicode="H" horiz-adv-x="739" 
d="M653 660v-660h-138v660h138zM224 660v-660h-138v660h138zM587 389v-111h-432v111h432z" />
    <glyph glyph-name="I" unicode="I" horiz-adv-x="310" 
d="M224 660v-660h-138v660h138z" />
    <glyph glyph-name="J" unicode="J" horiz-adv-x="599" 
d="M523 660l0.00195312 -417.001c0 -79.333 -22.333 -141.333 -67 -186s-108 -67 -190 -67c-58.667 0 -106.334 10.667 -143.001 32s-62 51.333 -76 90s-16.667 83 -8 133l134 24c-8 -58.667 -4.33301 -101 11 -127s43.666 -39 84.999 -39c43.333 0 73.5 13.333 90.5 40
s25.5 66.334 25.5 119.001v398h138z" />
    <glyph glyph-name="K" unicode="K" horiz-adv-x="679" 
d="M655 660l-302 -343l-11 11l-165 -187l-21 128l339 391h160zM224 660v-660h-138v660h138zM391 432l272 -432h-158l-220 355z" />
    <glyph glyph-name="L" unicode="L" horiz-adv-x="601" 
d="M224 111h348v-111h-486v660h138v-549z" />
    <glyph glyph-name="M" unicode="M" horiz-adv-x="890" 
d="M804 660v-660h-124v344l6 193h-2l-183 -537h-113l-182 537h-2l7 -193v-344h-125v660h200l119 -360l42 -149h2l43 148l118 361h194z" />
    <glyph glyph-name="N" unicode="N" horiz-adv-x="739" 
d="M653 660v-660h-158l-231 388l-57 108h-1l4 -114v-382h-124v660h157l231 -387l57 -109h2l-4 114v382h124z" />
    <glyph glyph-name="O" unicode="O" horiz-adv-x="741" 
d="M371 670c65.333 0 121.666 -13.667 168.999 -41s83.833 -66.333 109.5 -117s38.5 -111.334 38.5 -182.001s-12.833 -131.334 -38.5 -182.001s-62.167 -89.667 -109.5 -117s-103.666 -41 -168.999 -41s-121.833 13.667 -169.5 41s-84.334 66.333 -110.001 117
s-38.5 111.334 -38.5 182.001s12.833 131.334 38.5 182.001s62.334 89.667 110.001 117s104.167 41 169.5 41zM371 557c-36.667 0 -68.167 -8.66699 -94.5 -26s-46.333 -43 -60 -77s-20.5 -75.333 -20.5 -124s6.83301 -90 20.5 -124s33.667 -59.667 60 -77
s57.833 -26 94.5 -26s68 8.66699 94 26s45.833 43 59.5 77s20.5 75.333 20.5 124s-6.83301 90 -20.5 124s-33.5 59.667 -59.5 77s-57.333 26 -94 26z" />
    <glyph glyph-name="P" unicode="P" horiz-adv-x="646" 
d="M363 660c50.667 0 94 -8.49805 130 -25.498s63.833 -41.333 83.5 -73s29.5 -69.834 29.5 -114.501s-9.83301 -82.834 -29.5 -114.501s-47.5 -56 -83.5 -73s-79.333 -25.5 -130 -25.5h-139v-234h-138v660h277zM342 343.002c41.333 0 72.333 8.83301 93 26.5
s31 43.5 31 77.5c0 34.667 -10.333 60.667 -31 78s-51.667 26 -93 26h-118v-208h118z" />
    <glyph glyph-name="Q" unicode="Q" horiz-adv-x="741" 
d="M535 -200c-40 0 -76.166 6.83398 -108.499 20.501s-57.833 35.167 -76.5 64.5s-28 66.666 -28 111.999c0 10.667 1.16699 22 3.5 34s6.16602 23.667 11.499 35l90 14c-4.66699 -12 -8.16699 -22.833 -10.5 -32.5s-3.5 -18.5 -3.5 -26.5c0 -30.667 5.66699 -54 17 -70
s26.333 -27 45 -33s39.334 -9 62.001 -9c27.333 0 50.833 3.16699 70.5 9.5s36.167 15.166 49.5 26.499l25 -103c-16.667 -13.333 -38.834 -23.666 -66.501 -30.999s-54.5 -11 -80.5 -11zM371.001 670.001c65.333 0 121.666 -13.667 168.999 -41s83.833 -66.333 109.5 -117
s38.5 -111.334 38.5 -182.001s-12.833 -131.334 -38.5 -182.001s-62.167 -89.667 -109.5 -117s-103.666 -41 -168.999 -41s-121.833 13.667 -169.5 41s-84.334 66.333 -110.001 117s-38.5 111.334 -38.5 182.001s12.833 131.334 38.5 182.001s62.334 89.667 110.001 117
s104.167 41 169.5 41zM371.001 557.001c-36.667 0 -68.167 -8.66699 -94.5 -26s-46.333 -43 -60 -77s-20.5 -75.333 -20.5 -124s6.83301 -90 20.5 -124s33.667 -59.667 60 -77s57.833 -26 94.5 -26s68 8.66699 94 26s45.833 43 59.5 77s20.5 75.333 20.5 124
s-6.83301 90 -20.5 124s-33.5 59.667 -59.5 77s-57.333 26 -94 26z" />
    <glyph glyph-name="R" unicode="R" horiz-adv-x="680" 
d="M377 660c74.667 0 133.333 -18 176 -54s64 -84.333 64 -145c0 -64.667 -21.333 -114.167 -64 -148.5s-101 -51.5 -175 -51.5l-14 -8h-142v-253h-136v660h291zM360.999 358c38.667 0 67.5 7.83105 86.5 23.498s28.5 39.834 28.5 72.501s-9.5 56.834 -28.5 72.501
s-47.833 23.5 -86.5 23.5h-139v-192h139zM441.999 328.998l214 -329h-155l-177 289z" />
    <glyph glyph-name="S" unicode="S" horiz-adv-x="644" 
d="M327 670c60 0 112.67 -10.3291 158.003 -30.9961s84 -51.334 116 -92.001l-77 -89c-27.333 34.667 -57.166 60.167 -89.499 76.5s-69.833 24.5 -112.5 24.5c-28 0 -51.167 -3.66699 -69.5 -11s-31.666 -17 -39.999 -29s-12.5 -25.333 -12.5 -40c0 -18 7 -33.167 21 -45.5
s38 -22.5 72 -30.5l123 -28c65.333 -14.667 112.166 -36.5 140.499 -65.5s42.5 -66.5 42.5 -112.5c0 -43.333 -11.333 -80.5 -34 -111.5s-54.334 -54.667 -95.001 -71s-87.334 -24.5 -140.001 -24.5c-46 0 -88.167 5.5 -126.5 16.5s-72.5 26.167 -102.5 45.5
s-55 41.666 -75 66.999l78 93c15.333 -21.333 34.333 -40.333 57 -57s48.5 -29.834 77.5 -39.501s59.5 -14.5 91.5 -14.5c27.333 0 50.5 3.16699 69.5 9.5s33.333 15.333 43 27s14.5 25.834 14.5 42.501c0 17.333 -5.83301 32.166 -17.5 44.499s-33.167 21.833 -64.5 28.5
l-134 30c-38.667 9.33301 -71.834 21.5 -99.501 36.5s-48.667 34.333 -63 58s-21.5 51.834 -21.5 84.501c0 39.333 10.667 74.666 32 105.999s52.166 56.166 92.499 74.499s88.833 27.5 145.5 27.5z" />
    <glyph glyph-name="T" unicode="T" horiz-adv-x="635" 
d="M608 660v-111h-221v-549h-138v549h-222v111h581z" />
    <glyph glyph-name="U" unicode="U" horiz-adv-x="710" 
d="M637 660l-0.000976562 -400c0 -90 -24 -157.5 -72 -202.5s-118 -67.5 -210 -67.5s-162 22.5 -210 67.5s-72 112.5 -72 202.5v400h138v-394c0 -55.333 11.833 -96.333 35.5 -123s59.834 -40 108.501 -40s84.667 13.333 108 40s35 67.667 35 123v394h139z" />
    <glyph glyph-name="V" unicode="V" horiz-adv-x="670" 
d="M656 660l-240 -660h-161l-241 660h146l139 -420l38 -130l37 129l140 421h142z" />
    <glyph glyph-name="W" unicode="W" horiz-adv-x="984" 
d="M211 0l-192 660h147l130 -545l132 545h132l134 -545l129 545h141l-192 -660h-155l-92 360l-31 156h-2l-31 -156l-91 -360h-159z" />
    <glyph glyph-name="X" unicode="X" horiz-adv-x="640" 
d="M624 0h-164l-144 234l-142 -234h-158l227 333l-211 327h162l133 -222l135 222h150l-212 -322z" />
    <glyph glyph-name="Y" unicode="Y" horiz-adv-x="626" 
d="M616 660l-234 -413v-247h-138v247l-234 413h147l106 -197l50 -104l51 104l106 197h146z" />
    <glyph glyph-name="Z" unicode="Z" horiz-adv-x="633" 
d="M156 62l-25 48h462v-110h-549v104l426 494l24 -48h-442v110h529v-104z" />
    <glyph glyph-name="bracketleft" unicode="[" horiz-adv-x="375" 
d="M347 618h-141v-685h141v-101h-261v887h261v-101z" />
    <glyph glyph-name="backslash" unicode="\" horiz-adv-x="456" 
d="M20 719h127l290 -789h-128z" />
    <glyph glyph-name="bracketright" unicode="]" horiz-adv-x="375" 
d="M28 -67h141v685h-141v101h262v-887h-262v101z" />
    <glyph glyph-name="asciicircum" unicode="^" horiz-adv-x="593" 
d="M25 355l212 371h119l212 -371h-125l-146 275l-147 -275h-125z" />
    <glyph glyph-name="underscore" unicode="_" horiz-adv-x="539" 
d="M539 -77v-113h-539v113h539z" />
    <glyph glyph-name="grave" unicode="`" horiz-adv-x="500" 
d="M282 742l70 -170h-102l-100 170h132z" />
    <glyph glyph-name="a" unicode="a" horiz-adv-x="574" 
d="M357 319c0 28.667 -8.16113 51.001 -24.4941 67.001s-37.833 24 -64.5 24c-24.667 0 -46.334 -6.33301 -65.001 -19s-32.334 -33.667 -41.001 -63l-117 36c11.333 44 36.166 79.333 74.499 106s89.833 40 154.5 40c44 0 82.333 -6.83301 115 -20.5
s58.167 -34.167 76.5 -61.5s27.5 -61.666 27.5 -102.999v-203c0 -25.333 12 -38 36 -38c11.333 0 22 1.66699 32 5l-8 -85c-17.333 -8.66699 -39 -13 -65 -13c-23.333 0 -44.333 4 -63 12s-33.334 20.167 -44.001 36.5s-16 36.833 -16 61.5v4l24 4
c-4 -25.333 -15 -46.833 -33 -64.5s-39.833 -31.167 -65.5 -40.5s-52.167 -14 -79.5 -14c-34 0 -63.333 5.16699 -88 15.5s-43.667 25.5 -57 45.5s-20 44.667 -20 74c0 37.333 12 67.833 36 91.5s58.333 39.834 103 48.501l188 38l-1 -85l-120 -24
c-22.667 -4.66699 -39.834 -10.834 -51.501 -18.501s-17.5 -20.167 -17.5 -37.5c0 -16.667 6.16699 -29.334 18.5 -38.001s27.166 -13 44.499 -13c14 0 27.667 1.66699 41 5s25.333 8.66602 36 15.999s19 17.333 25 30s9 28 9 46v135z" />
    <glyph glyph-name="b" unicode="b" horiz-adv-x="627" 
d="M366 -10c-30.667 0 -58.502 6.50195 -83.502 19.502s-45.667 31 -62 54s-27.5 48.833 -33.5 77.5l14 18l-8 -159h-121v719h137v-360l-13 21c10.667 37.333 31 68.333 61 93s67.667 37 113 37c40 0 75.833 -10.333 107.5 -31s56.667 -50.334 75 -89.001
s27.5 -85.667 27.5 -141c0 -54 -9.16699 -100.333 -27.5 -139s-43.666 -68.334 -75.999 -89.001s-69.166 -31 -110.499 -31zM324.998 95.002c36.667 0 65.499 13.167 86.499 39.5s31.5 64.833 31.5 115.5s-10.333 89.167 -31 115.5s-49.334 39.5 -86.001 39.5
c-24 0 -44.667 -6.33301 -62 -19s-30.833 -30.667 -40.5 -54s-14.5 -51 -14.5 -83s4.83301 -59.667 14.5 -83s23.334 -41 41.001 -53s37.834 -18 60.501 -18z" />
    <glyph glyph-name="c" unicode="c" horiz-adv-x="564" 
d="M299 510c44.667 0 82.4971 -6.50488 113.497 -19.5049s56 -30.667 75 -53s32.5 -47.166 40.5 -74.499l-128 -46c-6.66699 30 -18 52.667 -34 68s-37.667 23 -65 23c-25.333 0 -47 -5.83301 -65 -17.5s-31.667 -29.334 -41 -53.001s-14 -53.167 -14 -88.5
s4.83301 -64.666 14.5 -87.999s23.667 -40.666 42 -51.999s39.833 -17 64.5 -17c20 0 37 3.5 51 10.5s25.5 17.167 34.5 30.5s15.167 29.333 18.5 48l124 -40c-7.33301 -30 -21 -56.333 -41 -79s-45.667 -40.334 -77 -53.001s-67.666 -19 -108.999 -19
c-51.333 0 -96.666 10.333 -135.999 31s-69.666 50.334 -90.999 89.001s-32 85.334 -32 140.001s10.667 101.334 32 140.001s51.333 68.334 90 89.001s83 31 133 31z" />
    <glyph glyph-name="d" unicode="d" horiz-adv-x="627" 
d="M261 -10c-41.333 0 -78.1689 10.332 -110.502 30.999s-57.666 50.334 -75.999 89.001s-27.5 85 -27.5 139c0 55.333 9.66699 102.5 29 141.5s45.5 68.667 78.5 89s70.167 30.5 111.5 30.5c44 0 80.333 -12.667 109 -38s47.334 -58 56.001 -98l-13 -16v361h137v-719h-123
l-9 152l16 -8c-4 -31.333 -14.333 -58.5 -31 -81.5s-37.667 -40.833 -63 -53.5s-53.333 -19 -84 -19zM300.997 94.999c24 0 44.6641 6.16699 61.9971 18.5s30.833 30.5 40.5 54.5s14.5 52.667 14.5 86c0 32 -4.66699 59.167 -14 81.5s-22.666 39.5 -39.999 51.5
s-37.666 18 -60.999 18c-37.333 0 -66.5 -13.167 -87.5 -39.5s-31.5 -64.833 -31.5 -115.5s10.333 -89.167 31 -115.5s49.334 -39.5 86.001 -39.5z" />
    <glyph glyph-name="e" unicode="e" horiz-adv-x="579" 
d="M304 -10c-52.667 0 -98.498 10.3301 -137.498 30.9971s-69.167 50.334 -90.5 89.001s-32 85.334 -32 140.001s10.667 101.334 32 140.001s51.166 68.334 89.499 89.001s82.166 31 131.499 31c50.667 0 93.667 -10.167 129 -30.5s62.333 -48 81 -83s28 -74.833 28 -119.5
c0 -13.333 -0.333008 -26 -1 -38s-1.66699 -22.667 -3 -32h-399v95h339l-66 -24c0 42 -9.5 74.333 -28.5 97s-45.833 34 -80.5 34c-25.333 0 -47.166 -6 -65.499 -18s-32.166 -29.833 -41.499 -53.5s-14 -53.5 -14 -89.5c0 -35.333 5.16699 -64.5 15.5 -87.5
s25 -40.167 44 -51.5s41.833 -17 68.5 -17c29.333 0 53 5.66699 71 17s32 27 42 47l109 -42c-10.667 -26 -26.834 -48.333 -48.501 -67s-47.334 -32.834 -77.001 -42.501s-61.5 -14.5 -95.5 -14.5z" />
    <glyph glyph-name="f" unicode="f" horiz-adv-x="407" 
d="M295 729c23.333 0 44.499 -2.50098 63.499 -7.50098s33.167 -11.167 42.5 -18.5l-19 -91c-7.33301 4.66699 -15.666 8.33398 -24.999 11.001s-20.333 4 -33 4c-26 0 -46.667 -5.83301 -62 -17.5s-23 -31.5 -23 -59.5v-69l6 -27v-454h-137v560c0 28 4.66699 52.667 14 74
s22.333 39 39 53s36.5 24.5 59.5 31.5s47.833 10.5 74.5 10.5zM396.999 499.999v-102h-376v102h376z" />
    <glyph glyph-name="g" unicode="g" horiz-adv-x="549" 
d="M533 619l16 -98c-2.66699 0 -5.5 0.166992 -8.5 0.5s-6.16699 0.5 -9.5 0.5c-30 0 -52.833 -6.83301 -68.5 -20.5s-23.5 -32.5 -23.5 -56.5l-56 23c0 26.667 5.33301 51.5 16 74.5s26.5 41.5 47.5 55.5s46.167 21 75.5 21h5h6zM369 94c54 0 95.667 -11.6689 125 -35.002
s44 -56 44 -98c0 -38 -11 -70.167 -33 -96.5s-52.833 -46.166 -92.5 -59.499s-85.5 -20 -137.5 -20c-86 0 -148.833 12 -188.5 36s-59.5 55.333 -59.5 94c0 27.333 10.5 50.333 31.5 69s55.833 29 104.5 31l-5 -16c-34.667 6 -61.167 17.5 -79.5 34.5s-27.5 40.5 -27.5 70.5
c0 30.667 11.833 55.834 35.5 75.501s55.834 31.167 96.501 34.5l60 -28h-14c-28.667 -2 -48.834 -7.83301 -60.501 -17.5s-17.5 -20.5 -17.5 -32.5c0 -14 5.5 -24.5 16.5 -31.5s26.833 -10.5 47.5 -10.5h154zM276 -121.002c34.667 0 63.167 3.00098 85.5 9.00098
s39 13.667 50 23s16.5 19.666 16.5 30.999c0 12.667 -5 22.834 -15 30.501s-28 11.5 -54 11.5h-169c-16 0 -29.167 -4 -39.5 -12s-15.5 -19 -15.5 -33c0 -18.667 12.5 -33.334 37.5 -44.001s59.5 -16 103.5 -16zM277 509.999c46.667 0 87.167 -6.83301 121.5 -20.5
s60.666 -33.167 78.999 -58.5s27.5 -55.666 27.5 -90.999c0 -34.667 -9.16699 -64.667 -27.5 -90s-44.666 -44.833 -78.999 -58.5s-74.833 -20.5 -121.5 -20.5c-74 0 -130.667 15.167 -170 45.5s-59 71.5 -59 123.5c0 35.333 9.33301 65.666 28 90.999s45 44.833 79 58.5
s74.667 20.5 122 20.5zM277 423.999c-26.667 0 -48.667 -7.33301 -66 -22s-26 -35 -26 -61s8.66699 -46.5 26 -61.5s39.333 -22.5 66 -22.5s48.5 7.5 65.5 22.5s25.5 35.5 25.5 61.5s-8.5 46.333 -25.5 61s-38.833 22 -65.5 22z" />
    <glyph glyph-name="h" unicode="h" horiz-adv-x="619" 
d="M72 0v719h137v-304c16 32 38 55.833 66 71.5s59.667 23.5 95 23.5c34.667 0 65.5 -6.66699 92.5 -20s48.333 -33.5 64 -60.5s23.5 -60.833 23.5 -101.5v-328h-137v288c0 43.333 -8.33301 73.166 -25 89.499s-38 24.5 -64 24.5c-19.333 0 -37.833 -4.5 -55.5 -13.5
s-32 -23.667 -43 -44s-16.5 -47.166 -16.5 -80.499v-264h-137z" />
    <glyph glyph-name="i" unicode="i" horiz-adv-x="282" 
d="M141 572c-28.667 0 -50 6.16699 -64 18.5s-21 30.5 -21 54.5c0 24.667 7 43.167 21 55.5s35.333 18.5 64 18.5s50 -6.16699 64 -18.5s21 -30.833 21 -55.5c0 -24 -7 -42.167 -21 -54.5s-35.333 -18.5 -64 -18.5zM209 500v-500h-137v500h137z" />
    <glyph glyph-name="j" unicode="j" horiz-adv-x="282" 
d="M141 572c-28.667 0 -50 6.16699 -64 18.5s-21 30.5 -21 54.5c0 24.667 7 43.167 21 55.5s35.333 18.5 64 18.5s50 -6.16699 64 -18.5s21 -30.833 21 -55.5c0 -24 -7 -42.167 -21 -54.5s-35.333 -18.5 -64 -18.5zM209 500v-536.999c0 -43.333 -7.83301 -78 -23.5 -104
s-36.834 -44.833 -63.501 -56.5s-57 -17.5 -91 -17.5c-24.667 0 -47 2.83301 -67 8.5s-37.667 13.5 -53 23.5l22 98c8 -6.66699 18 -12.167 30 -16.5s25.333 -6.5 40 -6.5c20.667 0 37.334 6.16699 50.001 18.5s19 34.166 19 65.499v524h137z" />
    <glyph glyph-name="k" unicode="k" horiz-adv-x="602" 
d="M581 500l-231 -241l-27 -13l-150 -161l-2 146l254 269h156zM209 719v-719h-137v719h137zM369 341l224 -341h-155l-163 261z" />
    <glyph glyph-name="l" unicode="l" horiz-adv-x="319" 
d="M207 719l0.00195312 -565c0 -23.333 4 -39.666 12 -48.999s21.333 -14 40 -14c11.333 0 20.666 0.833008 27.999 2.5s16.666 4.16699 27.999 7.5l-12 -90c-11.333 -6.66699 -25.5 -11.834 -42.5 -15.501s-33.833 -5.5 -50.5 -5.5c-48.667 0 -84.167 11.833 -106.5 35.5
s-33.5 61.5 -33.5 113.5v580h137z" />
    <glyph glyph-name="m" unicode="m" horiz-adv-x="945" 
d="M72 0l-0.000976562 500.001h123l5 -90c16.667 33.333 39.5 58.333 68.5 75s61.167 25 96.5 25c36 0 68.5 -8.33301 97.5 -25s50.833 -41.334 65.5 -74.001c10.667 22 25 40.333 43 55s38 25.667 60 33s44.333 11 67 11c32.667 0 62.5 -6.66699 89.5 -20
s48.5 -33.333 64.5 -60s24 -60.667 24 -102v-328h-137v301c0 36.667 -8 62.667 -24 78s-36.667 23 -62 23c-20 0 -38.5 -5 -55.5 -15s-30.333 -24.833 -40 -44.5s-14.5 -44.167 -14.5 -73.5v-269h-137v301c0 36.667 -8.16699 62.667 -24.5 78s-37.166 23 -62.499 23
c-17.333 0 -34.5 -4.66699 -51.5 -14s-31 -24 -42 -44s-16.5 -46.333 -16.5 -79v-265h-137z" />
    <glyph glyph-name="n" unicode="n" horiz-adv-x="619" 
d="M72 0l0.00195312 500h123l8 -150l-17 16c8 32.667 20.667 59.5 38 80.5s38.5 36.833 63.5 47.5s52.5 16 82.5 16c34.667 0 65.5 -6.66699 92.5 -20s48.333 -33.5 64 -60.5s23.5 -60.833 23.5 -101.5v-328h-137v289c0 42.667 -8.33301 72.167 -25 88.5
s-38.334 24.5 -65.001 24.5c-18.667 0 -36.834 -4.5 -54.501 -13.5s-32 -23.5 -43 -43.5s-16.5 -46.667 -16.5 -80v-265h-137z" />
    <glyph glyph-name="o" unicode="o" horiz-adv-x="599" 
d="M300 510c50.667 0 95.167 -10.333 133.5 -31s68.333 -50.334 90 -89.001s32.5 -85.334 32.5 -140.001c0 -54 -10.833 -100.5 -32.5 -139.5s-51.667 -68.833 -90 -89.5s-82.833 -31 -133.5 -31c-50 0 -94.333 10.333 -133 31s-68.834 50.5 -90.501 89.5
s-32.5 85.5 -32.5 139.5c0 54.667 10.833 101.334 32.5 140.001s51.834 68.334 90.501 89.001s83 31 133 31zM300 408c-25.333 0 -46.833 -5.83301 -64.5 -17.5s-31.167 -29.167 -40.5 -52.5s-14 -52.666 -14 -87.999s4.66699 -64.666 14 -87.999s22.833 -40.833 40.5 -52.5
s39.167 -17.5 64.5 -17.5c24.667 0 45.834 5.83301 63.501 17.5s31.167 29.167 40.5 52.5s14 52.666 14 87.999s-4.66699 64.666 -14 87.999s-22.833 40.833 -40.5 52.5s-38.834 17.5 -63.501 17.5z" />
    <glyph glyph-name="p" unicode="p" horiz-adv-x="627" 
d="M72 -210l0.000976562 710h123l9 -159l-17 18c6 29.333 17.167 55.333 33.5 78s37.166 40.5 62.499 53.5s53.666 19.5 84.999 19.5c40.667 0 77 -10.333 109 -31s57.167 -50.167 75.5 -88.5s27.5 -84.833 27.5 -139.5s-9.33301 -101.5 -28 -140.5
s-44.167 -68.833 -76.5 -89.5s-69.166 -31 -110.499 -31c-44 0 -80.5 12.333 -109.5 37s-48.833 55.667 -59.5 93l13 21v-351h-137zM325.001 95c36.667 0 65.5 13.167 86.5 39.5s31.5 64.833 31.5 115.5s-10.167 89.167 -30.5 115.5s-48.833 39.5 -85.5 39.5
c-23.333 0 -43.833 -6.16699 -61.5 -18.5s-31.5 -30 -41.5 -53s-15 -50.833 -15 -83.5c0 -31.333 4.66699 -58.833 14 -82.5s22.833 -41.667 40.5 -54s38.167 -18.5 61.5 -18.5z" />
    <glyph glyph-name="q" unicode="q" horiz-adv-x="627" 
d="M418 -210l-0.00195312 366.003l16 -18c-4.66699 -30 -15 -56 -31 -78s-36.167 -39.167 -60.5 -51.5s-51.5 -18.5 -81.5 -18.5c-41.333 0 -78.166 10.333 -110.499 31s-57.666 50.5 -75.999 89.5s-27.5 85.833 -27.5 140.5c0 55.333 9.5 102.166 28.5 140.499
s45.167 67.666 78.5 87.999s70.666 30.5 111.999 30.5c30.667 0 58.334 -6.5 83.001 -19.5s45 -31.333 61 -55s26 -50.834 30 -81.501l-17 -10l9 156h123v-710h-137zM300.998 95.0029c24 0 44.665 6.16504 61.998 18.498s30.833 30.333 40.5 54s14.5 51.834 14.5 84.501
c0 33.333 -4.83301 61.333 -14.5 84s-23.167 39.834 -40.5 51.501s-37.666 17.5 -60.999 17.5c-36.667 0 -65.5 -13.167 -86.5 -39.5s-31.5 -64.833 -31.5 -115.5s10.333 -89.167 31 -115.5s49.334 -39.5 86.001 -39.5z" />
    <glyph glyph-name="r" unicode="r" horiz-adv-x="422" 
d="M72 0l0.000976562 500h119l9 -98c13.333 34.667 32.833 61.334 58.5 80.001s57.834 28 96.501 28c11.333 0 21.666 -1 30.999 -3s17 -4.66699 23 -8l-16 -115c-6.66699 2.66699 -14.834 4.66699 -24.501 6s-22.167 2 -37.5 2c-20 0 -39.333 -4.83301 -58 -14.5
s-34 -24.334 -46 -44.001s-18 -44.5 -18 -74.5v-259h-137z" />
    <glyph glyph-name="s" unicode="s" horiz-adv-x="531" 
d="M272 -10c-50.667 0 -96.833 9 -138.5 27s-75.5 43.333 -101.5 76l79 80c16 -24 37.333 -43.667 64 -59s58.334 -23 95.001 -23c26 0 46.833 3.83301 62.5 11.5s23.5 19.834 23.5 36.501c0 10.667 -3.66699 19.834 -11 27.501s-22 13.834 -44 18.501l-88 18
c-58 12 -99.167 30.167 -123.5 54.5s-36.5 55.833 -36.5 94.5c0 27.333 8.16699 53 24.5 77s40.833 43.5 73.5 58.5s73.334 22.5 122.001 22.5c50 0 93.5 -7.83301 130.5 -23.5s66.167 -38.834 87.5 -69.501l-82 -80c-14.667 23.333 -33.834 41.166 -57.501 53.499
s-48.5 18.5 -74.5 18.5c-18.667 0 -34.667 -2 -48 -6s-23.333 -9.5 -30 -16.5s-10 -15.833 -10 -26.5s4.66699 -19.834 14 -27.501s26.333 -14.167 51 -19.5l102 -21c49.333 -10 84.666 -26.833 105.999 -50.5s32 -52.167 32 -85.5c0 -32 -8.5 -60.5 -25.5 -85.5
s-42 -44.667 -75 -59s-73.5 -21.5 -121.5 -21.5z" />
    <glyph glyph-name="t" unicode="t" horiz-adv-x="430" 
d="M249 653l0.00195312 -490c0 -24 6.16699 -41.5 18.5 -52.5s29.166 -16.5 50.499 -16.5c17.333 0 32.166 2.5 44.499 7.5s23.5 11.833 33.5 20.5l22 -91c-16 -12.667 -36 -22.667 -60 -30s-49.333 -11 -76 -11c-33.333 0 -62.833 5 -88.5 15s-45.667 26 -60 48
s-21.5 51.333 -21.5 88v474zM409.002 500v-102h-389v102h389z" />
    <glyph glyph-name="u" unicode="u" horiz-adv-x="618" 
d="M246 -10c-33.333 0 -63.3311 6 -89.998 18s-47.834 31.167 -63.501 57.5s-23.5 60.5 -23.5 102.5v332h137v-299c0 -38.667 8 -65.5 24 -80.5s39 -22.5 69 -22.5c14 0 27.667 2.5 41 7.5s25.166 12.833 35.499 23.5s18.5 24.5 24.5 41.5s9 37.167 9 60.5v269h137v-500
h-122l-5 87c-16.667 -33.333 -39.5 -57.833 -68.5 -73.5s-63.833 -23.5 -104.5 -23.5z" />
    <glyph glyph-name="v" unicode="v" horiz-adv-x="546" 
d="M400 500h142l-190 -500h-158l-190 500h147l123 -395z" />
    <glyph glyph-name="w" unicode="w" horiz-adv-x="876" 
d="M717 500h146l-160 -500h-158l-109 340l-105 -340h-158l-160 500h146l100 -383l111 383h136l112 -383z" />
    <glyph glyph-name="x" unicode="x" horiz-adv-x="569" 
d="M183 500l132 -219l37 1l200 -282h-159l-136 224l-41 4l-193 272h160zM549 500l-193 -269l-41 3l-146 -234h-155l207 284l39 -5l133 221h156z" />
    <glyph glyph-name="y" unicode="y" horiz-adv-x="546" 
d="M542 500l-202 -531c-16 -45.333 -33.833 -81.333 -53.5 -108s-42.334 -46 -68.001 -58s-56.167 -18 -91.5 -18c-26 0 -49.833 3.16699 -71.5 9.5s-40.5 14.5 -56.5 24.5l29 99c12.667 -10 26 -17.167 40 -21.5s30 -6.5 48 -6.5c18.667 0 34.834 4 48.501 12
s25.167 24 34.5 48l17 43l-55 130l-153 377h152l95 -300l26 -100l31 106l91 294h139z" />
    <glyph glyph-name="z" unicode="z" horiz-adv-x="523" 
d="M43 0v88l222 256l57 57l-83 -2h-194v101h429v-88l-221 -255l-57 -58l91 2h195v-101h-439z" />
    <glyph glyph-name="braceleft" unicode="{" horiz-adv-x="395" 
d="M361 -191c-51.333 0 -92.5 5.50098 -123.5 16.501s-53.667 27.833 -68 50.5s-21.5 51.667 -21.5 87v161c0 37.333 -8.5 64 -25.5 80s-45.833 24 -86.5 24v95c40.667 0 69.5 8 86.5 24s25.5 42.667 25.5 80v162c0 35.333 7.16699 64.166 21.5 86.499s37 38.833 68 49.5
s72.167 16 123.5 16v-92c-35.333 0 -60.666 -5.66699 -75.999 -17s-23 -29.333 -23 -54v-176c0 -34 -8.83301 -61.5 -26.5 -82.5s-43.5 -35.5 -77.5 -43.5c34 -8.66699 59.833 -23.5 77.5 -44.5s26.5 -48.5 26.5 -82.5v-176c0 -24.667 7.66699 -42.667 23 -54
s40.666 -17 75.999 -17v-93z" />
    <glyph glyph-name="bar" unicode="|" horiz-adv-x="292" 
d="M206 719v-887h-120v887h120z" />
    <glyph glyph-name="braceright" unicode="}" horiz-adv-x="395" 
d="M34 741c51.333 0 92.5 -5.33398 123.5 -16.001s53.5 -27.167 67.5 -49.5s21 -51.5 21 -87.5v-161c0 -37.333 8.5 -64 25.5 -80s45.833 -24 86.5 -24v-95c-40.667 0 -69.5 -8 -86.5 -24s-25.5 -42.667 -25.5 -80v-162c0 -35.333 -7 -64.166 -21 -86.499
s-36.5 -39 -67.5 -50s-72.167 -16.5 -123.5 -16.5v93c35.333 0 60.666 5.66699 75.999 17s23 29.333 23 54v176c0 34 8.83301 61.5 26.5 82.5s43.167 35.5 76.5 43.5c-33.333 8.66699 -58.833 23.5 -76.5 44.5s-26.5 48.5 -26.5 82.5v176c0 24.667 -7.66699 42.667 -23 54
s-40.666 17 -75.999 17v92z" />
    <glyph glyph-name="asciitilde" unicode="~" horiz-adv-x="576" 
d="M533 410c-3.33301 -58 -17.5068 -102.167 -42.5068 -132.5s-60.5 -45.5 -106.5 -45.5c-23.333 0 -43.166 3.33301 -59.499 10s-30.666 14.667 -42.999 24s-24.333 17.333 -36 24s-24.167 10 -37.5 10c-15.333 0 -27.166 -5.5 -35.499 -16.5
s-14.166 -27.167 -17.499 -48.5h-112c3.33301 58.667 17.5 103 42.5 133s60.833 45 107.5 45c22.667 0 42.167 -3.33301 58.5 -10s30.833 -14.667 43.5 -24s24.834 -17.333 36.501 -24s24.167 -10 37.5 -10c14.667 0 26.334 5.66699 35.001 17s14.334 27.333 17.001 48h112z
" />
    <glyph glyph-name="uni00A0" unicode="&#xa0;" horiz-adv-x="306" 
 />
    <glyph glyph-name="exclamdown" unicode="&#xa1;" horiz-adv-x="286" 
d="M71 -160v240l17 207h110l17 -207v-240h-144zM143 355c-26 0 -46.667 7 -62 21s-23 32.667 -23 56c0 24 7.66699 42.833 23 56.5s36 20.5 62 20.5s46.667 -6.83301 62 -20.5s23 -32.5 23 -56.5c0 -23.333 -7.66699 -42 -23 -56s-36 -21 -62 -21z" />
    <glyph glyph-name="cent" unicode="&#xa2;" horiz-adv-x="572" 
d="M312 -10c-52.667 0 -98.6699 10.3301 -138.003 30.9971s-69.666 50.334 -90.999 89.001s-32 85.334 -32 140.001s10.667 101.334 32 140.001s51.333 68.334 90 89.001s83.667 31 135 31c44.667 0 82.167 -6.33301 112.5 -19s54.833 -30.167 73.5 -52.5
s32.334 -47.5 41.001 -75.5l-109 -43c-7.33301 32.667 -20.666 57.334 -39.999 74.001s-43.666 25 -72.999 25c-42 0 -76 -14 -102 -42s-39 -70.667 -39 -128c0 -38.667 6.16699 -70.334 18.5 -95.001s29.166 -43 50.499 -55s45.333 -18 72 -18c21.333 0 40 3.66699 56 11
s29.333 18.333 40 33s18.334 32.334 23.001 53.001l105 -36c-8 -30.667 -22 -57.334 -42 -80.001s-45.333 -40.334 -76 -53.001s-66.334 -19 -107.001 -19zM260.997 -100.003v700h91v-700h-91z" />
    <glyph glyph-name="sterling" unicode="&#xa3;" horiz-adv-x="621" 
d="M62 273v73h415v-73h-415zM153 -10c-34.667 0 -62.833 8.16211 -84.5 24.4951s-32.5 38.166 -32.5 65.499c0 18.667 5.33301 34.834 16 48.501s25.334 24.334 44.001 32.001s40.667 11.5 66 11.5c28 0 52.167 -2.83301 72.5 -8.5s38.333 -12.667 54 -21s30.5 -17 44.5 -26
s28.5 -16.333 43.5 -22s32.167 -8.5 51.5 -8.5c24.667 0 42.834 7.16699 54.501 21.5s17.167 36.833 16.5 67.5l92 -8c2.66699 -36 -1.33301 -67.333 -12 -94s-27 -47.167 -49 -61.5s-48.333 -21.5 -79 -21.5c-26 0 -49.667 4 -71 12s-41.166 17.833 -59.499 29.5
s-36 23.5 -53 35.5s-34.333 22 -52 30s-36.5 12 -56.5 12c-14.667 0 -25.334 -2.5 -32.001 -7.5s-10 -11.833 -10 -20.5c0 -10 4 -17.667 12 -23s18 -8 30 -8c21.333 0 37.166 4.66699 47.499 14s17.333 22.5 21 39.5s5.5 36.167 5.5 57.5
c0 28.667 -4.83301 54.5 -14.5 77.5s-25.167 50.833 -46.5 83.5c-12.667 22 -23 41.5 -31 58.5s-13.667 33 -17 48s-5 30.5 -5 46.5c0 38.667 9.5 72.667 28.5 102s45.5 52.166 79.5 68.499s73.667 24.5 119 24.5c59.333 0 107.333 -13.833 144 -41.5
s61.667 -69.834 75 -126.501l-112 -48c-8.66699 36.667 -21.5 64.334 -38.5 83.001s-41.5 28 -73.5 28c-31.333 0 -56.5 -8.16699 -75.5 -24.5s-28.5 -39.833 -28.5 -70.5c0 -11.333 1.16699 -22.166 3.5 -32.499s6.5 -21.833 12.5 -34.5s14 -28.667 24 -48
c15.333 -29.333 27.833 -58.166 37.5 -86.499s14.5 -55.166 14.5 -80.499c0 -23.333 -3.33301 -46.666 -10 -69.999s-17 -44.666 -31 -63.999s-32.333 -34.833 -55 -46.5s-49.334 -17.5 -80.001 -17.5z" />
    <glyph glyph-name="currency" unicode="&#xa4;" horiz-adv-x="653" 
d="M327 538c41.333 0 78 -8.83301 110 -26.5s57 -42.167 75 -73.5s27 -67.666 27 -108.999c0 -40.667 -9 -76.667 -27 -108s-43 -56 -75 -74s-68.667 -27 -110 -27s-78 9 -110 27s-57.167 42.667 -75.5 74s-27.5 67.333 -27.5 108c0 41.333 9.16699 77.666 27.5 108.999
s43.5 55.833 75.5 73.5s68.667 26.5 110 26.5zM327 435c-30 0 -54.333 -9.83301 -73 -29.5s-28 -45.167 -28 -76.5s9.33301 -56.833 28 -76.5s43 -29.5 73 -29.5c29.333 0 53.333 9.83301 72 29.5s28 45.167 28 76.5s-9.33301 56.833 -28 76.5s-42.667 29.5 -72 29.5z
M129 607l127 -136l-70 -70l-137 125zM184 258l70 -70l-125 -137l-80 81zM470 255l135 -123l-82 -81l-124 133zM523 607l82 -81l-133 -125l-71 71z" />
    <glyph glyph-name="yen" unicode="&#xa5;" horiz-adv-x="649" 
d="M260 0v116h-192v57h192v69h-192v60h122l54 -4l-220 362h146l108 -214l46 -101h2l45 102l108 213h146l-220 -362l54 4h123v-60h-193v-69h193v-57h-193v-116h-129z" />
    <glyph glyph-name="brokenbar" unicode="&#xa6;" horiz-adv-x="292" 
d="M206 719v-374h-120v374h120zM206 206v-374h-120v374h120z" />
    <glyph glyph-name="section" unicode="&#xa7;" horiz-adv-x="614" 
d="M420 113l-54.9961 63.001c26.667 2.66699 48.667 7.16699 66 13.5s30.166 14.666 38.499 24.999s12.5 22.166 12.5 35.499c0 16.667 -6.33301 30.834 -19 42.501s-34.667 20.167 -66 25.5l-162 30c-32 6 -59 16 -81 30s-38.333 31.167 -49 51.5s-16 42.166 -16 65.499
c0 34.667 9.33301 65.167 28 91.5s45.167 46.833 79.5 61.5s74.5 22 120.5 22c51.333 0 95 -8.33301 131 -25s66.667 -41 92 -73l-79 -68c-18.667 24.667 -40.5 42.834 -65.5 54.501s-53.167 17.5 -84.5 17.5c-37.333 0 -65.333 -6.33301 -84 -19s-28 -28.667 -28 -48
c0 -10 2.5 -19.333 7.5 -28s14.167 -16.167 27.5 -22.5s32.666 -11.833 57.999 -16.5l114 -20c44.667 -8 80.167 -18.667 106.5 -32s45.166 -29.5 56.499 -48.5s17 -41.167 17 -66.5c0 -28.667 -6.33301 -54.334 -19 -77.001s-31.334 -41.167 -56.001 -55.5
s-55 -24.166 -91 -29.499zM297.004 -109.999c-57.333 0 -106.666 9.00488 -147.999 27.0049s-73.333 42.333 -96 73l80 70c15.333 -23.333 37.5 -42.166 66.5 -56.499s62.5 -21.5 100.5 -21.5c36 0 64.833 6 86.5 18s32.5 29 32.5 51c0 14 -5.66699 25.333 -17 34
s-30.666 15.667 -57.999 21l-158 32c-36 7.33301 -65.833 17.666 -89.5 30.999s-41.334 30.166 -53.001 50.499s-17.5 44.166 -17.5 71.499c0 28 6.5 52 19.5 72s31 36.333 54 49s49.167 21.334 78.5 26.001l47 -60c-21.333 -4.66699 -39 -10.334 -53 -17.001
s-24.667 -14.334 -32 -23.001s-11 -19.334 -11 -32.001c0 -16.667 7.16699 -30.834 21.5 -42.501s38.166 -20.5 71.499 -26.5l155 -29c51.333 -9.33301 88.833 -26.333 112.5 -51s35.5 -56 35.5 -94c0 -34.667 -9.16699 -65 -27.5 -91s-44.5 -46.167 -78.5 -60.5
s-74.667 -21.5 -122 -21.5z" />
    <glyph glyph-name="dieresis" unicode="&#xa8;" horiz-adv-x="500" 
d="M144 705c23.333 0 41.833 -6.16699 55.5 -18.5s20.5 -29.5 20.5 -51.5c0 -21.333 -6.83301 -38.333 -20.5 -51s-32.167 -19 -55.5 -19c-22.667 0 -40.667 6.33301 -54 19s-20 29.667 -20 51c0 22 6.66699 39.167 20 51.5s31.333 18.5 54 18.5zM354 705
c24 0 42.667 -6.16699 56 -18.5s20 -29.5 20 -51.5c0 -21.333 -6.66699 -38.333 -20 -51s-32 -19 -56 -19c-22.667 0 -40.667 6.33301 -54 19s-20 29.667 -20 51c0 22 6.66699 39.167 20 51.5s31.333 18.5 54 18.5z" />
    <glyph glyph-name="copyright" unicode="&#xa9;" horiz-adv-x="790" 
d="M395 -10c-67.333 0 -126.833 14.667 -178.5 44s-92.167 69.666 -121.5 120.999s-44 109.666 -44 174.999c0 66 14.667 124.5 44 175.5s69.833 91.167 121.5 120.5s111.167 44 178.5 44s126.833 -14.667 178.5 -44s92 -69.5 121 -120.5s43.5 -109.5 43.5 -175.5
c0 -65.333 -14.5 -123.666 -43.5 -174.999s-69.333 -91.666 -121 -120.999s-111.167 -44 -178.5 -44zM395 67c52 0 97.667 11.333 137 34s70 54 92 94s33 85 33 135c0 50.667 -11 95.834 -33 135.501s-52.667 70.834 -92 93.501s-85 34 -137 34s-97.667 -11.333 -137 -34
s-70 -53.834 -92 -93.501s-33 -84.834 -33 -135.501c0 -50 11 -95 33 -135s52.667 -71.333 92 -94s85 -34 137 -34zM401 140c-58.667 0 -104.666 16.999 -137.999 50.999s-50 80 -50 138s16.667 104 50 138s79.333 51 138 51c43.333 0 79 -9.5 107 -28.5s48 -44.5 60 -76.5
l-84 -41c-7.33301 18 -17.5 30.833 -30.5 38.5s-29.5 11.5 -49.5 11.5c-27.333 0 -49 -8.16699 -65 -24.5s-24 -39.166 -24 -68.499c0 -30 8 -53.167 24 -69.5s37.667 -24.5 65 -24.5c20.667 0 38.167 4 52.5 12s25.166 21.667 32.499 41l80 -36
c-14.667 -37.333 -35.5 -65.333 -62.5 -84s-62.167 -28 -105.5 -28z" />
    <glyph glyph-name="ordfeminine" unicode="&#xaa;" horiz-adv-x="418" 
d="M141 314c-36.667 0 -64.833 8.33398 -84.5 25.001s-29.5 38.334 -29.5 65.001c0 28 8.66699 49.5 26 64.5s46.333 26.167 87 33.5l112 22v-49l-72 -16c-18.667 -4 -31.834 -9.33301 -39.501 -16s-11.5 -16 -11.5 -28c0 -10.667 3.83301 -19 11.5 -25s17.834 -9 30.501 -9
c10.667 0 21.334 1.83301 32.001 5.5s19.5 10 26.5 19s10.5 21.5 10.5 37.5v92c0 17.333 -4.83301 30.666 -14.5 39.999s-22.834 14 -39.501 14s-31.667 -4 -45 -12s-23.333 -22.667 -30 -44l-83 26c7.33301 30.667 24.5 55.667 51.5 75s63.167 29 108.5 29
c51.333 0 90.333 -10.667 117 -32s40 -53.666 40 -96.999v-124c0 -10.667 2.66699 -18.334 8 -23.001s12 -7 20 -7c10 0 17.333 1 22 3l-8 -58c-6.66699 -4 -14 -6.83301 -22 -8.5s-17 -2.5 -27 -2.5c-25.333 0 -45.5 6.66699 -60.5 20s-22.5 33 -22.5 59v18l14 -7
c-4 -16.667 -11.667 -31.834 -23 -45.501s-26 -24.5 -44 -32.5s-38.333 -12 -61 -12zM31.001 169.001v76h349v-76h-349z" />
    <glyph glyph-name="guillemotleft" unicode="&#xab;" horiz-adv-x="552" 
d="M292 461l-124 -196l124 -196h-126l-125 196l125 196h126zM510 461l-124 -196l124 -196h-126l-125 196l125 196h126z" />
    <glyph glyph-name="logicalnot" unicode="&#xac;" horiz-adv-x="604" 
d="M545 316v-206h-116v206h116zM545 374v-105h-486v105h486z" />
    <glyph glyph-name="uni00AD" unicode="&#xad;" horiz-adv-x="521" 
d="M437 324v-118h-353v118h353z" />
    <glyph glyph-name="registered" unicode="&#xae;" horiz-adv-x="790" 
d="M395 -10c-67.333 0 -126.833 14.667 -178.5 44s-92.167 69.666 -121.5 120.999s-44 109.666 -44 174.999c0 66 14.667 124.5 44 175.5s69.833 91.167 121.5 120.5s111.167 44 178.5 44s126.833 -14.5 178.5 -43.5s92 -69.167 121 -120.5s43.5 -110 43.5 -176
c0 -65.333 -14.5 -123.666 -43.5 -174.999s-69.333 -91.666 -121 -120.999s-111.167 -44 -178.5 -44zM454 148l-84 147l76 23l113 -170h-105zM395 67c52 0 97.667 11.333 137 34s70 54 92 94s33 85 33 135c0 50.667 -11 95.834 -33 135.501s-52.667 70.834 -92 93.501
s-85 34 -137 34s-97.667 -11.333 -137 -34s-70 -53.834 -92 -93.501s-33 -84.834 -33 -135.501c0 -50 11 -95 33 -135s52.667 -71.333 92 -94s85 -34 137 -34zM250 148v366.999h166c26.667 0 50 -5.16699 70 -15.5s35.833 -24.166 47.5 -41.499s17.5 -38.333 17.5 -63
c0 -37.333 -13 -66.5 -39 -87.5s-60.333 -31.5 -103 -31.5h-71v-128h-88zM338 338.999h63c18.667 0 33.334 4.16699 44.001 12.5s16 21.5 16 39.5s-5.33301 31.167 -16 39.5s-25.334 12.5 -44.001 12.5h-63v-104z" />
    <glyph glyph-name="macron" unicode="&#xaf;" horiz-adv-x="500" 
d="M425 670v-91h-350v91h350z" />
    <glyph glyph-name="degree" unicode="&#xb0;" horiz-adv-x="482" 
d="M241 313c-38 0 -71.167 7.5 -99.5 22.5s-50.5 35.833 -66.5 62.5s-24 58 -24 94c0 35.333 8 66.5 24 93.5s38.167 47.833 66.5 62.5s61.5 22 99.5 22c38.667 0 72.167 -7.33301 100.5 -22s50.5 -35.5 66.5 -62.5s24 -58.167 24 -93.5c0 -36 -8 -67.333 -24 -94
s-38.167 -47.5 -66.5 -62.5s-61.833 -22.5 -100.5 -22.5zM241 406c26 0 47 8.16699 63 24.5s24 36.833 24 61.5c0 25.333 -8 46 -24 62s-37 24 -63 24c-24.667 0 -45.167 -8 -61.5 -24s-24.5 -36.667 -24.5 -62c0 -24.667 8.16699 -45.167 24.5 -61.5
s36.833 -24.5 61.5 -24.5z" />
    <glyph glyph-name="plusminus" unicode="&#xb1;" horiz-adv-x="604" 
d="M355 648v-474h-105v474h105zM550 461v-102h-496v102h496zM550 100v-100h-496v100h496z" />
    <glyph glyph-name="uni00B2" unicode="&#xb2;" horiz-adv-x="382" 
d="M33 333v67.0029l45.5 28l44.5 29c29.333 21.333 52.833 40.166 70.5 56.499s30.167 31.166 37.5 44.499s11 26.666 11 39.999c0 16.667 -4.83301 30.167 -14.5 40.5s-24.167 15.5 -43.5 15.5c-20.667 0 -36.667 -7.16699 -48 -21.5s-17.333 -34.833 -18 -61.5l-98 24
c1.33301 43.333 17 77.5 47 102.5s70 37.5 120 37.5c38.667 0 70 -6.33301 94 -19s41.667 -28.834 53 -48.501s17 -40.167 17 -61.5c0 -18 -4.16699 -35.5 -12.5 -52.5s-21 -34 -38 -51s-38.5 -34.5 -64.5 -52.5c-10 -6.66699 -20.667 -13 -32 -19s-23.333 -12 -36 -18v-1
c9.33301 0.666992 22.333 1.33398 39 2.00098s31 1 43 1h107v-82h-324z" />
    <glyph glyph-name="uni00B3" unicode="&#xb3;" horiz-adv-x="373" 
d="M189 735c46.667 0 82.999 -10.001 108.999 -30.001s39 -47 39 -81c0 -18.667 -3.83301 -34.667 -11.5 -48s-17.667 -23.666 -30 -30.999s-25.833 -11.333 -40.5 -12v-3c16.667 0 31.834 -3.33301 45.501 -10s24.5 -16.334 32.5 -29.001s12 -28.667 12 -48
c0 -23.333 -7.16699 -43.666 -21.5 -60.999s-33.833 -30.833 -58.5 -40.5s-53 -14.5 -85 -14.5c-46 0 -82.667 8.83301 -110 26.5s-46 43.167 -56 76.5l97 33c3.33301 -20 10.666 -34.667 21.999 -44s27.333 -14 48 -14c18.667 0 33.334 4.5 44.001 13.5s16 21.5 16 37.5
s-5.66699 27.333 -17 34s-27.666 10 -48.999 10h-8c-2.66699 0 -5.66699 -0.333008 -9 -1v60c2.66699 -0.666992 5.16699 -1 7.5 -1h6.5c20 0 35.167 4 45.5 12s15.5 20 15.5 36s-4.66699 28 -14 36s-22.333 12 -39 12s-30.334 -4.33301 -41.001 -13s-17.667 -22 -21 -40
l-93 28c7.33301 35.333 26 61.833 56 79.5s66 26.5 108 26.5z" />
    <glyph glyph-name="acute" unicode="&#xb4;" horiz-adv-x="562" 
d="M250 742h132l-100 -170h-101z" />
    <glyph glyph-name="uni00B5" unicode="&#xb5;" horiz-adv-x="622" 
d="M72 -210l-0.000976562 710h137v-296c0 -38 8 -65.167 24 -81.5s39 -24.5 69 -24.5c20.667 0 39.167 4.66699 55.5 14s29.5 24.333 39.5 45s15 47.667 15 81v262h137v-500h-119l-6 87c-14.667 -32 -35.167 -56.167 -61.5 -72.5s-56.166 -24.5 -89.499 -24.5
c-18 0 -34.833 2.66699 -50.5 8s-29.167 14 -40.5 26l27 38v-272h-137z" />
    <glyph glyph-name="paragraph" unicode="&#xb6;" horiz-adv-x="715" 
d="M296 -100l0.00195312 281.998c-50.667 0.666992 -95.5 10.334 -134.5 29.001s-69.5 45.834 -91.5 81.501s-33 78.167 -33 127.5c0 50.667 11.667 94 35 130s56.166 63.333 98.499 82s91.166 28 146.499 28h322v-760h-113v653h-115v-653h-115zM294.002 288.998v264.001
c-30.667 0 -56.667 -5.33301 -78 -16s-37.5 -26 -48.5 -46s-16.5 -43.333 -16.5 -70c0 -27.333 5.5 -50.833 16.5 -70.5s27.167 -34.834 48.5 -45.501s47.333 -16 78 -16z" />
    <glyph glyph-name="periodcentered" unicode="&#xb7;" horiz-adv-x="256" 
d="M129 435c26.667 0 47.834 -7.33301 63.501 -22s23.5 -34.334 23.5 -59.001c0 -25.333 -7.83301 -45.166 -23.5 -59.499s-36.834 -21.5 -63.501 -21.5s-47.834 7.16699 -63.501 21.5s-23.5 34.166 -23.5 59.499c0 24.667 7.83301 44.334 23.5 59.001s36.834 22 63.501 22z
" />
    <glyph glyph-name="cedilla" unicode="&#xb8;" horiz-adv-x="500" 
d="M189 8l41 25.999c48 -9.33301 82.833 -24.666 104.5 -45.999s32.5 -48.333 32.5 -81c0 -36 -12.167 -65.333 -36.5 -88s-56.833 -34 -97.5 -34c-23.333 0 -42.833 2.83301 -58.5 8.5s-29.167 12.5 -40.5 20.5l24 73c8.66699 -5.33301 17.834 -10 27.501 -14
s21.5 -6 35.5 -6c17.333 0 31.666 5.33301 42.999 16s17 26 17 46c0 16 -6.83301 30 -20.5 42s-37.5 24.333 -71.5 37z" />
    <glyph glyph-name="uni00B9" unicode="&#xb9;" horiz-adv-x="277" 
d="M143 730l89 -0.00292969v-397h-104v229c0 8.66699 0.333008 19 1 31l2 36c-16 -12.667 -33.667 -23.667 -53 -33s-40 -15.666 -62 -18.999v86c13.333 2.66699 28.5 7.33398 45.5 14.001s33 14.834 48 24.501s26.167 19.167 33.5 28.5z" />
    <glyph glyph-name="ordmasculine" unicode="&#xba;" horiz-adv-x="400" 
d="M200 314c-52 0 -93.833 15.333 -125.5 46s-47.5 73.334 -47.5 128.001c0 55.333 15.833 98.333 47.5 129s73.5 46 125.5 46s93.667 -15.333 125 -46s47 -73.667 47 -129c0 -54.667 -15.667 -97.334 -47 -128.001s-73 -46 -125 -46zM36 169v76h328v-76h-328zM200 386
c23.333 0 40.333 8.5 51 25.5s16 42.5 16 76.5c0 34.667 -5.33301 60.667 -16 78s-27.667 26 -51 26s-40.333 -8.66699 -51 -26s-16 -43.333 -16 -78c0 -34 5.33301 -59.5 16 -76.5s27.667 -25.5 51 -25.5z" />
    <glyph glyph-name="guillemotright" unicode="&#xbb;" horiz-adv-x="552" 
d="M260 69l123 196l-123 196h125l126 -196l-126 -196h-125zM41 69l124 196l-124 196h126l125 -196l-125 -196h-126z" />
    <glyph glyph-name="onequarter" unicode="&#xbc;" horiz-adv-x="841" 
d="M143 665l89 -0.00292969v-397h-104v229c0 8.66699 0.333008 19 1 31l2 36c-16 -12.667 -33.667 -23.667 -53 -33s-40 -15.666 -62 -18.999v86c13.333 2.66699 28.5 7.33398 45.5 14.001s33 14.834 48 24.501s26.167 19.167 33.5 28.5zM111 -0.00292969l477 660h105
l-477 -660h-105zM825 155.997v-70h-64v-90h-90v90h-200v49l169 258h121v-237h64zM563 155.997l107.999 0.00195312v91c0 13.333 0.333008 26.666 1 39.999s1.33398 26 2.00098 38h-3l-14.5 -28c-5.66699 -10.667 -11.167 -20.334 -16.5 -29.001z" />
    <glyph glyph-name="onehalf" unicode="&#xbd;" horiz-adv-x="909" 
d="M143 665l89 -0.00292969v-397h-104v229c0 8.66699 0.333008 19 1 31l2 36c-16 -12.667 -33.667 -23.667 -53 -33s-40 -15.666 -62 -18.999v86c13.333 2.66699 28.5 7.33398 45.5 14.001s33 14.834 48 24.501s26.167 19.167 33.5 28.5zM111 -0.00292969l477 660h105
l-477 -660h-105zM560 -4.00293v67.0029l45.5 28l44.5 29c29.333 21.333 52.833 40.166 70.5 56.499s30.167 31.166 37.5 44.499s11 26.666 11 39.999c0 16.667 -4.83301 30.167 -14.5 40.5s-24.167 15.5 -43.5 15.5c-20.667 0 -36.667 -7.16699 -48 -21.5
s-17.333 -34.833 -18 -61.5l-98 24c1.33301 43.333 17 77.5 47 102.5s70 37.5 120 37.5c38.667 0 70 -6.33301 94 -19s41.667 -28.834 53 -48.501s17 -40.167 17 -61.5c0 -18 -4.16699 -35.5 -12.5 -52.5s-21 -34 -38 -51s-38.5 -34.5 -64.5 -52.5
c-10 -6.66699 -20.667 -13 -32 -19s-23.333 -12 -36 -18v-1c9.33301 0.666992 22.333 1.33398 39 2.00098s31 1 43 1h107v-82h-324z" />
    <glyph glyph-name="threequarters" unicode="&#xbe;" horiz-adv-x="937" 
d="M189 670c46.667 0 82.999 -10.001 108.999 -30.001s39 -47 39 -81c0 -18.667 -3.83301 -34.667 -11.5 -48s-17.667 -23.666 -30 -30.999s-25.833 -11.333 -40.5 -12v-3c16.667 0 31.834 -3.33301 45.501 -10s24.5 -16.334 32.5 -29.001s12 -28.667 12 -48
c0 -23.333 -7.16699 -43.666 -21.5 -60.999s-33.833 -30.833 -58.5 -40.5s-53 -14.5 -85 -14.5c-46 0 -82.667 8.83301 -110 26.5s-46 43.167 -56 76.5l97 33c3.33301 -20 10.666 -34.667 21.999 -44s27.333 -14 48 -14c18.667 0 33.334 4.5 44.001 13.5s16 21.5 16 37.5
s-5.66699 27.333 -17 34s-27.666 10 -48.999 10h-8c-2.66699 0 -5.66699 -0.333008 -9 -1v60c2.66699 -0.666992 5.16699 -1 7.5 -1h6.5c20 0 35.167 4 45.5 12s15.5 20 15.5 36s-4.66699 28 -14 36s-22.333 12 -39 12s-30.334 -4.33301 -41.001 -13s-17.667 -22 -21 -40
l-93 28c7.33301 35.333 26 61.833 56 79.5s66 26.5 108 26.5zM206.999 -0.000976562l477 660h105l-477 -660h-105zM920.999 155.999v-70h-64v-90h-90v90h-200v49l169 258h121v-237h64zM658.999 155.999l107.999 0.00195312v91c0 13.333 0.333008 26.666 1 39.999
s1.33398 26 2.00098 38h-3l-14.5 -28c-5.66699 -10.667 -11.167 -20.334 -16.5 -29.001z" />
    <glyph glyph-name="questiondown" unicode="&#xbf;" horiz-adv-x="580" 
d="M287 -170c-47.333 0 -89.332 7.00098 -125.999 21.001s-65.5 34.5 -86.5 61.5s-31.5 60.167 -31.5 99.5c0 40.667 8.66699 73.834 26 99.501s40.333 45.167 69 58.5s60.334 21.666 95.001 24.999l6 94h125v-152c-44.667 -4.66699 -79.5 -11.667 -104.5 -21
s-42.833 -20.833 -53.5 -34.5s-16 -30.5 -16 -50.5c0 -18 3.83301 -33.5 11.5 -46.5s19.5 -22.833 35.5 -29.5s35.667 -10 59 -10c34.667 0 62.5 10 83.5 30s33.5 48 37.5 84l130 -51c-8 -34.667 -22.833 -65.334 -44.5 -92.001s-50.334 -47.667 -86.001 -63
s-78.834 -23 -129.501 -23zM301.001 356.001c-26 0 -46.667 6.83301 -62 20.5s-23 32.167 -23 55.5c0 24 7.66699 42.833 23 56.5s36 20.5 62 20.5s46.667 -6.83301 62 -20.5s23 -32.5 23 -56.5c0 -23.333 -7.66699 -41.833 -23 -55.5s-36 -20.5 -62 -20.5z" />
    <glyph glyph-name="Agrave" unicode="&#xc0;" horiz-adv-x="671" 
d="M659 0h-143l-55 161h-253l-55 -161h-141l241 660h165zM239 263h191l-96 288zM330 892l63 -162h-101l-88 162h126z" />
    <glyph glyph-name="Aacute" unicode="&#xc1;" horiz-adv-x="671" 
d="M659 0h-143l-55 161h-253l-55 -161h-141l241 660h165zM239 263h191l-96 288zM337 892h126l-88 -162h-101z" />
    <glyph glyph-name="Acircumflex" unicode="&#xc2;" horiz-adv-x="671" 
d="M659 0h-143l-55 161h-253l-55 -161h-141l241 660h165zM239 263h191l-96 288zM508 730h-103l-70 98l-70 -98h-103l104 162h138z" />
    <glyph glyph-name="Atilde" unicode="&#xc3;" horiz-adv-x="671" 
d="M659 0h-143l-55 161h-253l-55 -161h-141l241 660h165zM239 263h191l-96 288zM526 878c-1.33301 -33.333 -7.16797 -61.167 -17.501 -83.5s-24.166 -39 -41.499 -50s-37.333 -16.5 -60 -16.5c-18.667 0 -34.667 3.16699 -48 9.5s-24.833 13.333 -34.5 21
s-19 14.667 -28 21s-18.5 9.5 -28.5 9.5c-12.667 0 -22.167 -5.16699 -28.5 -15.5s-10.833 -25.5 -13.5 -45.5h-84c2.66699 50 14.834 87.5 36.501 112.5s50.834 37.5 87.501 37.5c18 0 33.5 -3.16699 46.5 -9.5s24.167 -13.5 33.5 -21.5s18.166 -15 26.499 -21
s17.5 -9 27.5 -9c13.333 0 23.166 5.16699 29.499 15.5s10.5 25.5 12.5 45.5h84z" />
    <glyph glyph-name="Adieresis" unicode="&#xc4;" horiz-adv-x="671" 
d="M659 0h-143l-55 161h-253l-55 -161h-141l241 660h165zM239 263h191l-96 288zM229 865c23.333 0 41.833 -6.16699 55.5 -18.5s20.5 -29.5 20.5 -51.5c0 -21.333 -6.83301 -38.333 -20.5 -51s-32.167 -19 -55.5 -19c-22.667 0 -40.667 6.33301 -54 19s-20 29.667 -20 51
c0 22 6.66699 39.167 20 51.5s31.333 18.5 54 18.5zM439 865c24 0 42.667 -6.16699 56 -18.5s20 -29.5 20 -51.5c0 -21.333 -6.66699 -38.333 -20 -51s-32 -19 -56 -19c-22.667 0 -40.667 6.33301 -54 19s-20 29.667 -20 51c0 22 6.66699 39.167 20 51.5
s31.333 18.5 54 18.5z" />
    <glyph glyph-name="Aring" unicode="&#xc5;" horiz-adv-x="671" 
d="M659 0h-143l-55 161h-253l-55 -161h-141l241 660h165zM239 263h191l-96 288zM334 844c40.667 0 73.167 -11.167 97.5 -33.5s36.5 -52.166 36.5 -89.499s-12.167 -67.166 -36.5 -89.499s-56.833 -33.5 -97.5 -33.5c-40 0 -72.5 11.167 -97.5 33.5
s-37.5 52.166 -37.5 89.499s12.5 67.166 37.5 89.499s57.5 33.5 97.5 33.5zM334 780c-17.333 0 -31.666 -5.5 -42.999 -16.5s-17 -25.167 -17 -42.5s5.66699 -31.333 17 -42s25.666 -16 42.999 -16c18 0 32.5 5.33301 43.5 16s16.5 24.667 16.5 42s-5.5 31.5 -16.5 42.5
s-25.5 16.5 -43.5 16.5z" />
    <glyph glyph-name="AE" unicode="&#xc6;" horiz-adv-x="935" 
d="M563 108h334v-108h-465v202h-198l-93 -202h-141l321 660h562v-108h-320v-168h244v-103h-244v-173zM274 301h158v254h-34z" />
    <glyph glyph-name="Ccedilla" unicode="&#xc7;" horiz-adv-x="683" 
d="M651 182c-12.667 -42.667 -32.6719 -78.334 -60.0049 -107.001s-59.666 -50 -96.999 -64s-78.333 -21 -123 -21c-65.333 0 -121.833 13.667 -169.5 41s-84.334 66.333 -110.001 117s-38.5 111.334 -38.5 182.001s12.833 131.334 38.5 182.001s62.334 89.667 110.001 117
s103.5 41 167.5 41c45.333 0 86.333 -6.16699 123 -18.5s67.834 -31.333 93.501 -57s44.5 -57.5 56.5 -95.5l-125 -53c-11.333 40 -28.666 68.5 -51.999 85.5s-53.333 25.5 -90 25.5c-36 0 -67.5 -8.66699 -94.5 -26s-47.833 -42.833 -62.5 -76.5s-22 -75.167 -22 -124.5
c0 -48.667 6.83301 -90 20.5 -124s33.834 -59.667 60.501 -77s59.334 -26 98.001 -26c36 0 67.167 9.66699 93.5 29s44.833 48.666 55.5 87.999zM294.995 8l41 25.999c48 -9.33301 82.833 -24.666 104.5 -45.999s32.5 -48.333 32.5 -81c0 -36 -12.167 -65.333 -36.5 -88
s-56.833 -34 -97.5 -34c-23.333 0 -42.833 2.83301 -58.5 8.5s-29.167 12.5 -40.5 20.5l24 73c8.66699 -5.33301 17.834 -10 27.501 -14s21.5 -6 35.5 -6c17.333 0 31.666 5.33301 42.999 16s17 26 17 46c0 16 -6.83301 30 -20.5 42s-37.5 24.333 -71.5 37z" />
    <glyph glyph-name="Egrave" unicode="&#xc8;" horiz-adv-x="633" 
d="M86 0v660h495v-111h-357v-164h281v-106h-281v-168h371v-111h-509zM332 892l63 -162h-101l-88 162h126z" />
    <glyph glyph-name="Eacute" unicode="&#xc9;" horiz-adv-x="633" 
d="M86 0v660h495v-111h-357v-164h281v-106h-281v-168h371v-111h-509zM332 892h126l-88 -162h-101z" />
    <glyph glyph-name="Ecircumflex" unicode="&#xca;" horiz-adv-x="633" 
d="M86 0v660h495v-111h-357v-164h281v-106h-281v-168h371v-111h-509zM507 730h-103l-70 98l-70 -98h-103l104 162h138z" />
    <glyph glyph-name="Edieresis" unicode="&#xcb;" horiz-adv-x="633" 
d="M86 0v660h495v-111h-357v-164h281v-106h-281v-168h371v-111h-509zM228 865c23.333 0 41.833 -6.16699 55.5 -18.5s20.5 -29.5 20.5 -51.5c0 -21.333 -6.83301 -38.333 -20.5 -51s-32.167 -19 -55.5 -19c-22.667 0 -40.667 6.33301 -54 19s-20 29.667 -20 51
c0 22 6.66699 39.167 20 51.5s31.333 18.5 54 18.5zM438 865c24 0 42.667 -6.16699 56 -18.5s20 -29.5 20 -51.5c0 -21.333 -6.66699 -38.333 -20 -51s-32 -19 -56 -19c-22.667 0 -40.667 6.33301 -54 19s-20 29.667 -20 51c0 22 6.66699 39.167 20 51.5
s31.333 18.5 54 18.5z" />
    <glyph glyph-name="Igrave" unicode="&#xcc;" horiz-adv-x="310" 
d="M224 660v-660h-138v660h138zM147 892l63 -162h-101l-88 162h126z" />
    <glyph glyph-name="Iacute" unicode="&#xcd;" horiz-adv-x="310" 
d="M224 660v-660h-138v660h138zM163 892h126l-88 -162h-101z" />
    <glyph glyph-name="Icircumflex" unicode="&#xce;" horiz-adv-x="310" 
d="M224 660v-660h-138v660h138zM328 730h-103l-70 98l-70 -98h-103l104 162h138z" />
    <glyph glyph-name="Idieresis" unicode="&#xcf;" horiz-adv-x="310" 
d="M58 865c23.333 0 41.5 -6.16699 54.5 -18.5s19.5 -29.5 19.5 -51.5c0 -21.333 -6.5 -38.333 -19.5 -51s-31.167 -19 -54.5 -19c-22 0 -39.5 6.33301 -52.5 19s-19.5 29.667 -19.5 51c0 22 6.5 39.167 19.5 51.5s30.5 18.5 52.5 18.5zM250 865
c23.333 0 41.5 -6.16699 54.5 -18.5s19.5 -29.5 19.5 -51.5c0 -21.333 -6.5 -38.333 -19.5 -51s-31.167 -19 -54.5 -19c-22 0 -39.5 6.33301 -52.5 19s-19.5 29.667 -19.5 51c0 22 6.5 39.167 19.5 51.5s30.5 18.5 52.5 18.5zM224 660v-660h-138v660h138z" />
    <glyph glyph-name="Eth" unicode="&#xd0;" horiz-adv-x="740" 
d="M18 280v103h381v-103h-381zM362 660c103.333 0 183.166 -28.501 239.499 -85.501s84.5 -138.5 84.5 -244.5c0 -105.333 -28.167 -186.666 -84.5 -243.999s-136.166 -86 -239.499 -86h-255v660h255zM354 109.999c63.333 0 110.833 18.833 142.5 56.5
s47.5 92.167 47.5 163.5s-15.833 125.833 -47.5 163.5s-79.167 56.5 -142.5 56.5h-109v-440h109z" />
    <glyph glyph-name="Ntilde" unicode="&#xd1;" horiz-adv-x="739" 
d="M653 660v-660h-158l-231 388l-57 108h-1l4 -114v-382h-124v660h157l231 -387l57 -109h2l-4 114v382h124zM563 878c-1.33301 -33.333 -7.16797 -61.167 -17.501 -83.5s-24.166 -39 -41.499 -50s-37.333 -16.5 -60 -16.5c-18.667 0 -34.667 3.16699 -48 9.5
s-24.833 13.333 -34.5 21s-19 14.667 -28 21s-18.5 9.5 -28.5 9.5c-12.667 0 -22.167 -5.16699 -28.5 -15.5s-10.833 -25.5 -13.5 -45.5h-84c2.66699 50 14.834 87.5 36.501 112.5s50.834 37.5 87.501 37.5c18 0 33.5 -3.16699 46.5 -9.5s24.167 -13.5 33.5 -21.5
s18.166 -15 26.499 -21s17.5 -9 27.5 -9c13.333 0 23.166 5.16699 29.499 15.5s10.5 25.5 12.5 45.5h84z" />
    <glyph glyph-name="Ograve" unicode="&#xd2;" horiz-adv-x="741" 
d="M371 670c65.333 0 121.666 -13.667 168.999 -41s83.833 -66.333 109.5 -117s38.5 -111.334 38.5 -182.001s-12.833 -131.334 -38.5 -182.001s-62.167 -89.667 -109.5 -117s-103.666 -41 -168.999 -41s-121.833 13.667 -169.5 41s-84.334 66.333 -110.001 117
s-38.5 111.334 -38.5 182.001s12.833 131.334 38.5 182.001s62.334 89.667 110.001 117s104.167 41 169.5 41zM371 557c-36.667 0 -68.167 -8.66699 -94.5 -26s-46.333 -43 -60 -77s-20.5 -75.333 -20.5 -124s6.83301 -90 20.5 -124s33.667 -59.667 60 -77
s57.833 -26 94.5 -26s68 8.66699 94 26s45.833 43 59.5 77s20.5 75.333 20.5 124s-6.83301 90 -20.5 124s-33.5 59.667 -59.5 77s-57.333 26 -94 26zM362 892l63 -162h-101l-88 162h126z" />
    <glyph glyph-name="Oacute" unicode="&#xd3;" horiz-adv-x="741" 
d="M371 670c65.333 0 121.666 -13.667 168.999 -41s83.833 -66.333 109.5 -117s38.5 -111.334 38.5 -182.001s-12.833 -131.334 -38.5 -182.001s-62.167 -89.667 -109.5 -117s-103.666 -41 -168.999 -41s-121.833 13.667 -169.5 41s-84.334 66.333 -110.001 117
s-38.5 111.334 -38.5 182.001s12.833 131.334 38.5 182.001s62.334 89.667 110.001 117s104.167 41 169.5 41zM371 557c-36.667 0 -68.167 -8.66699 -94.5 -26s-46.333 -43 -60 -77s-20.5 -75.333 -20.5 -124s6.83301 -90 20.5 -124s33.667 -59.667 60 -77
s57.833 -26 94.5 -26s68 8.66699 94 26s45.833 43 59.5 77s20.5 75.333 20.5 124s-6.83301 90 -20.5 124s-33.5 59.667 -59.5 77s-57.333 26 -94 26zM373 892h126l-88 -162h-101z" />
    <glyph glyph-name="Ocircumflex" unicode="&#xd4;" horiz-adv-x="741" 
d="M371 670c65.333 0 121.666 -13.667 168.999 -41s83.833 -66.333 109.5 -117s38.5 -111.334 38.5 -182.001s-12.833 -131.334 -38.5 -182.001s-62.167 -89.667 -109.5 -117s-103.666 -41 -168.999 -41s-121.833 13.667 -169.5 41s-84.334 66.333 -110.001 117
s-38.5 111.334 -38.5 182.001s12.833 131.334 38.5 182.001s62.334 89.667 110.001 117s104.167 41 169.5 41zM371 557c-36.667 0 -68.167 -8.66699 -94.5 -26s-46.333 -43 -60 -77s-20.5 -75.333 -20.5 -124s6.83301 -90 20.5 -124s33.667 -59.667 60 -77
s57.833 -26 94.5 -26s68 8.66699 94 26s45.833 43 59.5 77s20.5 75.333 20.5 124s-6.83301 90 -20.5 124s-33.5 59.667 -59.5 77s-57.333 26 -94 26zM544 730h-103l-70 98l-70 -98h-103l104 162h138z" />
    <glyph glyph-name="Otilde" unicode="&#xd5;" horiz-adv-x="741" 
d="M371 670c65.333 0 121.666 -13.667 168.999 -41s83.833 -66.333 109.5 -117s38.5 -111.334 38.5 -182.001s-12.833 -131.334 -38.5 -182.001s-62.167 -89.667 -109.5 -117s-103.666 -41 -168.999 -41s-121.833 13.667 -169.5 41s-84.334 66.333 -110.001 117
s-38.5 111.334 -38.5 182.001s12.833 131.334 38.5 182.001s62.334 89.667 110.001 117s104.167 41 169.5 41zM371 557c-36.667 0 -68.167 -8.66699 -94.5 -26s-46.333 -43 -60 -77s-20.5 -75.333 -20.5 -124s6.83301 -90 20.5 -124s33.667 -59.667 60 -77
s57.833 -26 94.5 -26s68 8.66699 94 26s45.833 43 59.5 77s20.5 75.333 20.5 124s-6.83301 90 -20.5 124s-33.5 59.667 -59.5 77s-57.333 26 -94 26zM562 878c-1.33301 -33.333 -7.16797 -61.167 -17.501 -83.5s-24.166 -39 -41.499 -50s-37.333 -16.5 -60 -16.5
c-18.667 0 -34.667 3.16699 -48 9.5s-24.833 13.333 -34.5 21s-19 14.667 -28 21s-18.5 9.5 -28.5 9.5c-12.667 0 -22.167 -5.16699 -28.5 -15.5s-10.833 -25.5 -13.5 -45.5h-84c2.66699 50 14.834 87.5 36.501 112.5s50.834 37.5 87.501 37.5c18 0 33.5 -3.16699 46.5 -9.5
s24.167 -13.5 33.5 -21.5s18.166 -15 26.499 -21s17.5 -9 27.5 -9c13.333 0 23.166 5.16699 29.499 15.5s10.5 25.5 12.5 45.5h84z" />
    <glyph glyph-name="Odieresis" unicode="&#xd6;" horiz-adv-x="741" 
d="M371 670c65.333 0 121.666 -13.667 168.999 -41s83.833 -66.333 109.5 -117s38.5 -111.334 38.5 -182.001s-12.833 -131.334 -38.5 -182.001s-62.167 -89.667 -109.5 -117s-103.666 -41 -168.999 -41s-121.833 13.667 -169.5 41s-84.334 66.333 -110.001 117
s-38.5 111.334 -38.5 182.001s12.833 131.334 38.5 182.001s62.334 89.667 110.001 117s104.167 41 169.5 41zM371 557c-36.667 0 -68.167 -8.66699 -94.5 -26s-46.333 -43 -60 -77s-20.5 -75.333 -20.5 -124s6.83301 -90 20.5 -124s33.667 -59.667 60 -77
s57.833 -26 94.5 -26s68 8.66699 94 26s45.833 43 59.5 77s20.5 75.333 20.5 124s-6.83301 90 -20.5 124s-33.5 59.667 -59.5 77s-57.333 26 -94 26zM265 865c23.333 0 41.833 -6.16699 55.5 -18.5s20.5 -29.5 20.5 -51.5c0 -21.333 -6.83301 -38.333 -20.5 -51
s-32.167 -19 -55.5 -19c-22.667 0 -40.667 6.33301 -54 19s-20 29.667 -20 51c0 22 6.66699 39.167 20 51.5s31.333 18.5 54 18.5zM475 865c24 0 42.667 -6.16699 56 -18.5s20 -29.5 20 -51.5c0 -21.333 -6.66699 -38.333 -20 -51s-32 -19 -56 -19
c-22.667 0 -40.667 6.33301 -54 19s-20 29.667 -20 51c0 22 6.66699 39.167 20 51.5s31.333 18.5 54 18.5z" />
    <glyph glyph-name="multiply" unicode="&#xd7;" horiz-adv-x="604" 
d="M462 85l77 78l-397 398l-78 -78zM142 85l397 398l-77 78l-398 -398z" />
    <glyph glyph-name="Oslash" unicode="&#xd8;" horiz-adv-x="741" 
d="M244 95l-48 39l293 410l49 -37zM72 -31l113 153l50 -39l-87 -114h-76zM554 525l-50 39l89 118h77zM371 670c65.333 0 121.666 -13.667 168.999 -41s83.833 -66.333 109.5 -117s38.5 -111.334 38.5 -182.001s-12.833 -131.334 -38.5 -182.001s-62.167 -89.667 -109.5 -117
s-103.666 -41 -168.999 -41s-121.833 13.667 -169.5 41s-84.334 66.333 -110.001 117s-38.5 111.334 -38.5 182.001s12.833 131.334 38.5 182.001s62.334 89.667 110.001 117s104.167 41 169.5 41zM371 557c-36.667 0 -68.167 -8.66699 -94.5 -26s-46.333 -43 -60 -77
s-20.5 -75.333 -20.5 -124s6.83301 -90 20.5 -124s33.667 -59.667 60 -77s57.833 -26 94.5 -26s68 8.66699 94 26s45.833 43 59.5 77s20.5 75.333 20.5 124s-6.83301 90 -20.5 124s-33.5 59.667 -59.5 77s-57.333 26 -94 26z" />
    <glyph glyph-name="Ugrave" unicode="&#xd9;" horiz-adv-x="710" 
d="M637 660l-0.000976562 -400c0 -90 -24 -157.5 -72 -202.5s-118 -67.5 -210 -67.5s-162 22.5 -210 67.5s-72 112.5 -72 202.5v400h138v-394c0 -55.333 11.833 -96.333 35.5 -123s59.834 -40 108.501 -40s84.667 13.333 108 40s35 67.667 35 123v394h139zM352.999 877
l63 -162h-101l-88 162h126z" />
    <glyph glyph-name="Uacute" unicode="&#xda;" horiz-adv-x="710" 
d="M637 660l-0.000976562 -400c0 -90 -24 -157.5 -72 -202.5s-118 -67.5 -210 -67.5s-162 22.5 -210 67.5s-72 112.5 -72 202.5v400h138v-394c0 -55.333 11.833 -96.333 35.5 -123s59.834 -40 108.501 -40s84.667 13.333 108 40s35 67.667 35 123v394h139zM356.999 877h126
l-88 -162h-101z" />
    <glyph glyph-name="Ucircumflex" unicode="&#xdb;" horiz-adv-x="710" 
d="M637 660l-0.000976562 -400c0 -90 -24 -157.5 -72 -202.5s-118 -67.5 -210 -67.5s-162 22.5 -210 67.5s-72 112.5 -72 202.5v400h138v-394c0 -55.333 11.833 -96.333 35.5 -123s59.834 -40 108.501 -40s84.667 13.333 108 40s35 67.667 35 123v394h139zM527.999 715h-103
l-70 98l-70 -98h-103l104 162h138z" />
    <glyph glyph-name="Udieresis" unicode="&#xdc;" horiz-adv-x="710" 
d="M637 660l-0.000976562 -400c0 -90 -24 -157.5 -72 -202.5s-118 -67.5 -210 -67.5s-162 22.5 -210 67.5s-72 112.5 -72 202.5v400h138v-394c0 -55.333 11.833 -96.333 35.5 -123s59.834 -40 108.501 -40s84.667 13.333 108 40s35 67.667 35 123v394h139zM248.999 850
c23.333 0 41.833 -6.16699 55.5 -18.5s20.5 -29.5 20.5 -51.5c0 -21.333 -6.83301 -38.333 -20.5 -51s-32.167 -19 -55.5 -19c-22.667 0 -40.667 6.33301 -54 19s-20 29.667 -20 51c0 22 6.66699 39.167 20 51.5s31.333 18.5 54 18.5zM458.999 850
c24 0 42.667 -6.16699 56 -18.5s20 -29.5 20 -51.5c0 -21.333 -6.66699 -38.333 -20 -51s-32 -19 -56 -19c-22.667 0 -40.667 6.33301 -54 19s-20 29.667 -20 51c0 22 6.66699 39.167 20 51.5s31.333 18.5 54 18.5z" />
    <glyph glyph-name="Yacute" unicode="&#xdd;" horiz-adv-x="626" 
d="M616 660l-234 -413v-247h-138v247l-234 413h147l106 -197l50 -104l51 104l106 197h146zM315 880h126l-88 -162h-101z" />
    <glyph glyph-name="Thorn" unicode="&#xde;" horiz-adv-x="657" 
d="M357 553c83.333 0 146.833 -18.5 190.5 -55.5s65.5 -90.5 65.5 -160.5s-21.833 -123.5 -65.5 -160.5s-107.167 -55.5 -190.5 -55.5h-202v109h193c82.667 0 124 36 124 108c0 36 -10.5 62.667 -31.5 80s-51.833 26 -92.5 26h-193v109h202zM224 660v-660h-138v660h138z" />
    <glyph glyph-name="germandbls" unicode="&#xdf;" horiz-adv-x="636" 
d="M417 371c40 0 73 -8.16699 99 -24.5s45.5 -38 58.5 -65s19.5 -56.5 19.5 -88.5c0 -36.667 -7.33301 -70.334 -22 -101.001s-37.167 -55.334 -67.5 -74.001s-69.166 -28 -116.499 -28c-30.667 0 -57.334 3.33301 -80.001 10s-40 14.334 -52 23.001l26 95
c10 -6 21.333 -11.5 34 -16.5s29.667 -7.5 51 -7.5c30 0 53.667 10.5 71 31.5s26 48.167 26 81.5c0 36 -10.333 63.333 -31 82s-51 28 -91 28h-57l11 102h37c34.667 0 61 10 79 30s27 44.667 27 74c0 32 -10 55.833 -30 71.5s-45.667 23.5 -77 23.5
c-46 0 -78 -13.167 -96 -39.5s-27 -66.833 -27 -121.5v-457h-137v474c0 50.667 8.5 94.667 25.5 132s45.167 66.333 84.5 87s91.666 31 156.999 31c52 0 95.333 -8.33301 130 -25s60.834 -38.667 78.501 -66s26.5 -58 26.5 -92c0 -26.667 -6 -52.667 -18 -78
s-29.667 -46.166 -53 -62.499s-52 -25.5 -86 -27.5v-2z" />
    <glyph glyph-name="agrave" unicode="&#xe0;" horiz-adv-x="574" 
d="M357 319c0 28.667 -8.16113 51.001 -24.4941 67.001s-37.833 24 -64.5 24c-24.667 0 -46.334 -6.33301 -65.001 -19s-32.334 -33.667 -41.001 -63l-117 36c11.333 44 36.166 79.333 74.499 106s89.833 40 154.5 40c44 0 82.333 -6.83301 115 -20.5
s58.167 -34.167 76.5 -61.5s27.5 -61.666 27.5 -102.999v-203c0 -25.333 12 -38 36 -38c11.333 0 22 1.66699 32 5l-8 -85c-17.333 -8.66699 -39 -13 -65 -13c-23.333 0 -44.333 4 -63 12s-33.334 20.167 -44.001 36.5s-16 36.833 -16 61.5v4l24 4
c-4 -25.333 -15 -46.833 -33 -64.5s-39.833 -31.167 -65.5 -40.5s-52.167 -14 -79.5 -14c-34 0 -63.333 5.16699 -88 15.5s-43.667 25.5 -57 45.5s-20 44.667 -20 74c0 37.333 12 67.833 36 91.5s58.333 39.834 103 48.501l188 38l-1 -85l-120 -24
c-22.667 -4.66699 -39.834 -10.834 -51.501 -18.501s-17.5 -20.167 -17.5 -37.5c0 -16.667 6.16699 -29.334 18.5 -38.001s27.166 -13 44.499 -13c14 0 27.667 1.66699 41 5s25.333 8.66602 36 15.999s19 17.333 25 30s9 28 9 46v135zM264.006 742.001l70 -170h-102
l-100 170h132z" />
    <glyph glyph-name="aacute" unicode="&#xe1;" horiz-adv-x="574" 
d="M357 319c0 28.667 -8.16113 51.001 -24.4941 67.001s-37.833 24 -64.5 24c-24.667 0 -46.334 -6.33301 -65.001 -19s-32.334 -33.667 -41.001 -63l-117 36c11.333 44 36.166 79.333 74.499 106s89.833 40 154.5 40c44 0 82.333 -6.83301 115 -20.5
s58.167 -34.167 76.5 -61.5s27.5 -61.666 27.5 -102.999v-203c0 -25.333 12 -38 36 -38c11.333 0 22 1.66699 32 5l-8 -85c-17.333 -8.66699 -39 -13 -65 -13c-23.333 0 -44.333 4 -63 12s-33.334 20.167 -44.001 36.5s-16 36.833 -16 61.5v4l24 4
c-4 -25.333 -15 -46.833 -33 -64.5s-39.833 -31.167 -65.5 -40.5s-52.167 -14 -79.5 -14c-34 0 -63.333 5.16699 -88 15.5s-43.667 25.5 -57 45.5s-20 44.667 -20 74c0 37.333 12 67.833 36 91.5s58.333 39.834 103 48.501l188 38l-1 -85l-120 -24
c-22.667 -4.66699 -39.834 -10.834 -51.501 -18.501s-17.5 -20.167 -17.5 -37.5c0 -16.667 6.16699 -29.334 18.5 -38.001s27.166 -13 44.499 -13c14 0 27.667 1.66699 41 5s25.333 8.66602 36 15.999s19 17.333 25 30s9 28 9 46v135zM279.006 742.001h132l-100 -170h-101z
" />
    <glyph glyph-name="acircumflex" unicode="&#xe2;" horiz-adv-x="574" 
d="M357 319c0 28.667 -8.16113 51.001 -24.4941 67.001s-37.833 24 -64.5 24c-24.667 0 -46.334 -6.33301 -65.001 -19s-32.334 -33.667 -41.001 -63l-117 36c11.333 44 36.166 79.333 74.499 106s89.833 40 154.5 40c44 0 82.333 -6.83301 115 -20.5
s58.167 -34.167 76.5 -61.5s27.5 -61.666 27.5 -102.999v-203c0 -25.333 12 -38 36 -38c11.333 0 22 1.66699 32 5l-8 -85c-17.333 -8.66699 -39 -13 -65 -13c-23.333 0 -44.333 4 -63 12s-33.334 20.167 -44.001 36.5s-16 36.833 -16 61.5v4l24 4
c-4 -25.333 -15 -46.833 -33 -64.5s-39.833 -31.167 -65.5 -40.5s-52.167 -14 -79.5 -14c-34 0 -63.333 5.16699 -88 15.5s-43.667 25.5 -57 45.5s-20 44.667 -20 74c0 37.333 12 67.833 36 91.5s58.333 39.834 103 48.501l188 38l-1 -85l-120 -24
c-22.667 -4.66699 -39.834 -10.834 -51.501 -18.501s-17.5 -20.167 -17.5 -37.5c0 -16.667 6.16699 -29.334 18.5 -38.001s27.166 -13 44.499 -13c14 0 27.667 1.66699 41 5s25.333 8.66602 36 15.999s19 17.333 25 30s9 28 9 46v135zM456.006 565.001h-105l-75 98l-75 -98
h-105l111 171h138z" />
    <glyph glyph-name="atilde" unicode="&#xe3;" horiz-adv-x="574" 
d="M357 319c0 28.667 -8.16113 51.001 -24.4941 67.001s-37.833 24 -64.5 24c-24.667 0 -46.334 -6.33301 -65.001 -19s-32.334 -33.667 -41.001 -63l-117 36c11.333 44 36.166 79.333 74.499 106s89.833 40 154.5 40c44 0 82.333 -6.83301 115 -20.5
s58.167 -34.167 76.5 -61.5s27.5 -61.666 27.5 -102.999v-203c0 -25.333 12 -38 36 -38c11.333 0 22 1.66699 32 5l-8 -85c-17.333 -8.66699 -39 -13 -65 -13c-23.333 0 -44.333 4 -63 12s-33.334 20.167 -44.001 36.5s-16 36.833 -16 61.5v4l24 4
c-4 -25.333 -15 -46.833 -33 -64.5s-39.833 -31.167 -65.5 -40.5s-52.167 -14 -79.5 -14c-34 0 -63.333 5.16699 -88 15.5s-43.667 25.5 -57 45.5s-20 44.667 -20 74c0 37.333 12 67.833 36 91.5s58.333 39.834 103 48.501l188 38l-1 -85l-120 -24
c-22.667 -4.66699 -39.834 -10.834 -51.501 -18.501s-17.5 -20.167 -17.5 -37.5c0 -16.667 6.16699 -29.334 18.5 -38.001s27.166 -13 44.499 -13c14 0 27.667 1.66699 41 5s25.333 8.66602 36 15.999s19 17.333 25 30s9 28 9 46v135zM467.006 718.001
c-1.33301 -33.333 -7.16797 -61.167 -17.501 -83.5s-24.166 -39 -41.499 -50s-37.333 -16.5 -60 -16.5c-18.667 0 -34.667 3.16699 -48 9.5s-24.833 13.333 -34.5 21s-19 14.667 -28 21s-18.5 9.5 -28.5 9.5c-12.667 0 -22.167 -5.16699 -28.5 -15.5
s-10.833 -25.5 -13.5 -45.5h-84c2.66699 50 14.834 87.5 36.501 112.5s50.834 37.5 87.501 37.5c18 0 33.5 -3.16699 46.5 -9.5s24.167 -13.5 33.5 -21.5s18.166 -15 26.499 -21s17.5 -9 27.5 -9c13.333 0 23.166 5.16699 29.499 15.5s10.5 25.5 12.5 45.5h84z" />
    <glyph glyph-name="adieresis" unicode="&#xe4;" horiz-adv-x="574" 
d="M357 319c0 28.667 -8.16113 51.001 -24.4941 67.001s-37.833 24 -64.5 24c-24.667 0 -46.334 -6.33301 -65.001 -19s-32.334 -33.667 -41.001 -63l-117 36c11.333 44 36.166 79.333 74.499 106s89.833 40 154.5 40c44 0 82.333 -6.83301 115 -20.5
s58.167 -34.167 76.5 -61.5s27.5 -61.666 27.5 -102.999v-203c0 -25.333 12 -38 36 -38c11.333 0 22 1.66699 32 5l-8 -85c-17.333 -8.66699 -39 -13 -65 -13c-23.333 0 -44.333 4 -63 12s-33.334 20.167 -44.001 36.5s-16 36.833 -16 61.5v4l24 4
c-4 -25.333 -15 -46.833 -33 -64.5s-39.833 -31.167 -65.5 -40.5s-52.167 -14 -79.5 -14c-34 0 -63.333 5.16699 -88 15.5s-43.667 25.5 -57 45.5s-20 44.667 -20 74c0 37.333 12 67.833 36 91.5s58.333 39.834 103 48.501l188 38l-1 -85l-120 -24
c-22.667 -4.66699 -39.834 -10.834 -51.501 -18.501s-17.5 -20.167 -17.5 -37.5c0 -16.667 6.16699 -29.334 18.5 -38.001s27.166 -13 44.499 -13c14 0 27.667 1.66699 41 5s25.333 8.66602 36 15.999s19 17.333 25 30s9 28 9 46v135zM170.006 705.001
c23.333 0 41.833 -6.16699 55.5 -18.5s20.5 -29.5 20.5 -51.5c0 -21.333 -6.83301 -38.333 -20.5 -51s-32.167 -19 -55.5 -19c-22.667 0 -40.667 6.33301 -54 19s-20 29.667 -20 51c0 22 6.66699 39.167 20 51.5s31.333 18.5 54 18.5zM380.006 705.001
c24 0 42.667 -6.16699 56 -18.5s20 -29.5 20 -51.5c0 -21.333 -6.66699 -38.333 -20 -51s-32 -19 -56 -19c-22.667 0 -40.667 6.33301 -54 19s-20 29.667 -20 51c0 22 6.66699 39.167 20 51.5s31.333 18.5 54 18.5z" />
    <glyph glyph-name="aring" unicode="&#xe5;" horiz-adv-x="574" 
d="M357 319c0 28.667 -8.16113 51.001 -24.4941 67.001s-37.833 24 -64.5 24c-24.667 0 -46.334 -6.33301 -65.001 -19s-32.334 -33.667 -41.001 -63l-117 36c11.333 44 36.166 79.333 74.499 106s89.833 40 154.5 40c44 0 82.333 -6.83301 115 -20.5
s58.167 -34.167 76.5 -61.5s27.5 -61.666 27.5 -102.999v-203c0 -25.333 12 -38 36 -38c11.333 0 22 1.66699 32 5l-8 -85c-17.333 -8.66699 -39 -13 -65 -13c-23.333 0 -44.333 4 -63 12s-33.334 20.167 -44.001 36.5s-16 36.833 -16 61.5v4l24 4
c-4 -25.333 -15 -46.833 -33 -64.5s-39.833 -31.167 -65.5 -40.5s-52.167 -14 -79.5 -14c-34 0 -63.333 5.16699 -88 15.5s-43.667 25.5 -57 45.5s-20 44.667 -20 74c0 37.333 12 67.833 36 91.5s58.333 39.834 103 48.501l188 38l-1 -85l-120 -24
c-22.667 -4.66699 -39.834 -10.834 -51.501 -18.501s-17.5 -20.167 -17.5 -37.5c0 -16.667 6.16699 -29.334 18.5 -38.001s27.166 -13 44.499 -13c14 0 27.667 1.66699 41 5s25.333 8.66602 36 15.999s19 17.333 25 30s9 28 9 46v135zM274.006 806.001
c40.667 0 73.167 -11.167 97.5 -33.5s36.5 -52.166 36.5 -89.499s-12.167 -67.166 -36.5 -89.499s-56.833 -33.5 -97.5 -33.5c-40 0 -72.5 11.167 -97.5 33.5s-37.5 52.166 -37.5 89.499s12.5 67.166 37.5 89.499s57.5 33.5 97.5 33.5zM274.006 742.001
c-17.333 0 -31.666 -5.5 -42.999 -16.5s-17 -25.167 -17 -42.5s5.66699 -31.333 17 -42s25.666 -16 42.999 -16c18 0 32.5 5.33301 43.5 16s16.5 24.667 16.5 42s-5.5 31.5 -16.5 42.5s-25.5 16.5 -43.5 16.5z" />
    <glyph glyph-name="ae" unicode="&#xe6;" horiz-adv-x="887" 
d="M218 -10c-34.667 0 -65.0029 5.16797 -91.0029 15.501s-46.167 25.666 -60.5 45.999s-21.5 45.5 -21.5 75.5c0 37.333 12.167 67.333 36.5 90s57.833 38.334 100.5 47.001l176 35v19c0 29.333 -8.16699 52 -24.5 68s-38.166 24 -65.499 24
c-24 0 -45.167 -6.33301 -63.5 -19s-32.166 -33.667 -41.499 -63l-114 36c4 28 16 53 36 75s45.833 39.333 77.5 52s66.834 19 105.501 19c47.333 0 88 -9.33301 122 -28s57.667 -47 71 -85h-43c13.333 24 29.833 44.333 49.5 61s42.167 29.5 67.5 38.5
s52.666 13.5 81.999 13.5c48 0 88.833 -10.167 122.5 -30.5s59.334 -48 77.001 -83s26.5 -74.833 26.5 -119.5c0 -11.333 -0.333008 -22.5 -1 -33.5s-1.66699 -23.167 -3 -36.5h-347v0c0 -40 12.667 -69.167 38 -87.5s55.333 -27.5 90 -27.5c27.333 0 49 5.66699 65 17
s29 27 39 47l110 -42c-10.667 -26 -26.334 -48.333 -47.001 -67s-45.167 -32.834 -73.5 -42.501s-58.833 -14.5 -91.5 -14.5c-54.667 0 -101.167 12.833 -139.5 38.5s-65.166 63.167 -80.499 112.5l32 -1c-3.33301 -22 -11 -42 -23 -60s-27.5 -33.833 -46.5 -47.5
s-40.833 -24.167 -65.5 -31.5s-51.667 -11 -81 -11zM249.997 87.001c14 0 27.5 1.83301 40.5 5.5s24.5 9.16699 34.5 16.5s18 17 24 29s9 26 9 42v36l-105 -22c-24.667 -4.66699 -42.167 -11 -52.5 -19s-15.5 -20.333 -15.5 -37c0 -14 5.16699 -26 15.5 -36
s26.833 -15 49.5 -15zM492.997 302.001h218.998c-0.666992 22 -5.5 41 -14.5 57s-21 28.333 -36 37s-32.5 13 -52.5 13c-31.333 0 -57.166 -9.33301 -77.499 -28s-33.166 -45 -38.499 -79z" />
    <glyph glyph-name="ccedilla" unicode="&#xe7;" horiz-adv-x="564" 
d="M299 510c44.667 0 82.4971 -6.50488 113.497 -19.5049s56 -30.667 75 -53s32.5 -47.166 40.5 -74.499l-128 -46c-6.66699 30 -18 52.667 -34 68s-37.667 23 -65 23c-25.333 0 -47 -5.83301 -65 -17.5s-31.667 -29.334 -41 -53.001s-14 -53.167 -14 -88.5
s4.83301 -64.666 14.5 -87.999s23.667 -40.666 42 -51.999s39.833 -17 64.5 -17c20 0 37 3.5 51 10.5s25.5 17.167 34.5 30.5s15.167 29.333 18.5 48l124 -40c-7.33301 -30 -21 -56.333 -41 -79s-45.667 -40.334 -77 -53.001s-67.666 -19 -108.999 -19
c-51.333 0 -96.666 10.333 -135.999 31s-69.666 50.334 -90.999 89.001s-32 85.334 -32 140.001s10.667 101.334 32 140.001s51.333 68.334 90 89.001s83 31 133 31zM229.997 7.99512l41 25.999c48 -9.33301 82.833 -24.666 104.5 -45.999s32.5 -48.333 32.5 -81
c0 -36 -12.167 -65.333 -36.5 -88s-56.833 -34 -97.5 -34c-23.333 0 -42.833 2.83301 -58.5 8.5s-29.167 12.5 -40.5 20.5l24 73c8.66699 -5.33301 17.834 -10 27.501 -14s21.5 -6 35.5 -6c17.333 0 31.666 5.33301 42.999 16s17 26 17 46c0 16 -6.83301 30 -20.5 42
s-37.5 24.333 -71.5 37z" />
    <glyph glyph-name="egrave" unicode="&#xe8;" 
d="M304 -10c-52.667 0 -98.498 10.3301 -137.498 30.9971s-69.167 50.334 -90.5 89.001s-32 85.334 -32 140.001s10.667 101.334 32 140.001s51.166 68.334 89.499 89.001s82.166 31 131.499 31c50.667 0 93.667 -10.167 129 -30.5s62.333 -48 81 -83s28 -74.833 28 -119.5
c0 -13.333 -0.333008 -26 -1 -38s-1.66699 -22.667 -3 -32h-399v95h339l-66 -24c0 42 -9.5 74.333 -28.5 97s-45.833 34 -80.5 34c-25.333 0 -47.166 -6 -65.499 -18s-32.166 -29.833 -41.499 -53.5s-14 -53.5 -14 -89.5c0 -35.333 5.16699 -64.5 15.5 -87.5
s25 -40.167 44 -51.5s41.833 -17 68.5 -17c29.333 0 53 5.66699 71 17s32 27 42 47l109 -42c-10.667 -26 -26.834 -48.333 -48.501 -67s-47.334 -32.834 -77.001 -42.501s-61.5 -14.5 -95.5 -14.5zM281.002 741.997l70 -170h-102l-100 170h132z" />
    <glyph glyph-name="eacute" unicode="&#xe9;" 
d="M304 -10c-52.667 0 -98.498 10.3301 -137.498 30.9971s-69.167 50.334 -90.5 89.001s-32 85.334 -32 140.001s10.667 101.334 32 140.001s51.166 68.334 89.499 89.001s82.166 31 131.499 31c50.667 0 93.667 -10.167 129 -30.5s62.333 -48 81 -83s28 -74.833 28 -119.5
c0 -13.333 -0.333008 -26 -1 -38s-1.66699 -22.667 -3 -32h-399v95h339l-66 -24c0 42 -9.5 74.333 -28.5 97s-45.833 34 -80.5 34c-25.333 0 -47.166 -6 -65.499 -18s-32.166 -29.833 -41.499 -53.5s-14 -53.5 -14 -89.5c0 -35.333 5.16699 -64.5 15.5 -87.5
s25 -40.167 44 -51.5s41.833 -17 68.5 -17c29.333 0 53 5.66699 71 17s32 27 42 47l109 -42c-10.667 -26 -26.834 -48.333 -48.501 -67s-47.334 -32.834 -77.001 -42.501s-61.5 -14.5 -95.5 -14.5zM296.002 741.997h132l-100 -170h-101z" />
    <glyph glyph-name="ecircumflex" unicode="&#xea;" 
d="M304 -10c-52.667 0 -98.498 10.3301 -137.498 30.9971s-69.167 50.334 -90.5 89.001s-32 85.334 -32 140.001s10.667 101.334 32 140.001s51.166 68.334 89.499 89.001s82.166 31 131.499 31c50.667 0 93.667 -10.167 129 -30.5s62.333 -48 81 -83s28 -74.833 28 -119.5
c0 -13.333 -0.333008 -26 -1 -38s-1.66699 -22.667 -3 -32h-399v95h339l-66 -24c0 42 -9.5 74.333 -28.5 97s-45.833 34 -80.5 34c-25.333 0 -47.166 -6 -65.499 -18s-32.166 -29.833 -41.499 -53.5s-14 -53.5 -14 -89.5c0 -35.333 5.16699 -64.5 15.5 -87.5
s25 -40.167 44 -51.5s41.833 -17 68.5 -17c29.333 0 53 5.66699 71 17s32 27 42 47l109 -42c-10.667 -26 -26.834 -48.333 -48.501 -67s-47.334 -32.834 -77.001 -42.501s-61.5 -14.5 -95.5 -14.5zM473.002 564.997h-105l-75 98l-75 -98h-105l111 171h138z" />
    <glyph glyph-name="edieresis" unicode="&#xeb;" 
d="M304 -10c-52.667 0 -98.498 10.3301 -137.498 30.9971s-69.167 50.334 -90.5 89.001s-32 85.334 -32 140.001s10.667 101.334 32 140.001s51.166 68.334 89.499 89.001s82.166 31 131.499 31c50.667 0 93.667 -10.167 129 -30.5s62.333 -48 81 -83s28 -74.833 28 -119.5
c0 -13.333 -0.333008 -26 -1 -38s-1.66699 -22.667 -3 -32h-399v95h339l-66 -24c0 42 -9.5 74.333 -28.5 97s-45.833 34 -80.5 34c-25.333 0 -47.166 -6 -65.499 -18s-32.166 -29.833 -41.499 -53.5s-14 -53.5 -14 -89.5c0 -35.333 5.16699 -64.5 15.5 -87.5
s25 -40.167 44 -51.5s41.833 -17 68.5 -17c29.333 0 53 5.66699 71 17s32 27 42 47l109 -42c-10.667 -26 -26.834 -48.333 -48.501 -67s-47.334 -32.834 -77.001 -42.501s-61.5 -14.5 -95.5 -14.5zM187.002 704.997c23.333 0 41.833 -6.16699 55.5 -18.5
s20.5 -29.5 20.5 -51.5c0 -21.333 -6.83301 -38.333 -20.5 -51s-32.167 -19 -55.5 -19c-22.667 0 -40.667 6.33301 -54 19s-20 29.667 -20 51c0 22 6.66699 39.167 20 51.5s31.333 18.5 54 18.5zM397.002 704.997c24 0 42.667 -6.16699 56 -18.5s20 -29.5 20 -51.5
c0 -21.333 -6.66699 -38.333 -20 -51s-32 -19 -56 -19c-22.667 0 -40.667 6.33301 -54 19s-20 29.667 -20 51c0 22 6.66699 39.167 20 51.5s31.333 18.5 54 18.5z" />
    <glyph glyph-name="igrave" unicode="&#xec;" horiz-adv-x="282" 
d="M209 500v-500h-137v500h137zM129 742l70 -170h-102l-100 170h132z" />
    <glyph glyph-name="iacute" unicode="&#xed;" horiz-adv-x="282" 
d="M209 500v-500h-137v500h137zM144 742h132l-100 -170h-101z" />
    <glyph glyph-name="icircumflex" unicode="&#xee;" horiz-adv-x="282" 
d="M209 500v-500h-137v500h137zM321 565h-105l-75 98l-75 -98h-105l111 171h138z" />
    <glyph glyph-name="idieresis" unicode="&#xef;" horiz-adv-x="282" 
d="M231 564c-22.667 0 -40.334 6.33301 -53.001 19s-19 30 -19 52c0 22.667 6.33301 40.167 19 52.5s30.334 18.5 53.001 18.5c23.333 0 41.166 -6.16699 53.499 -18.5s18.5 -29.833 18.5 -52.5c0 -22 -6.16699 -39.333 -18.5 -52s-30.166 -19 -53.499 -19zM51 564
c-22.667 0 -40.334 6.33301 -53.001 19s-19 30 -19 52c0 22.667 6.33301 40.167 19 52.5s30.334 18.5 53.001 18.5s40.334 -6.16699 53.001 -18.5s19 -29.833 19 -52.5c0 -22 -6.33301 -39.333 -19 -52s-30.334 -19 -53.001 -19zM209 500v-500h-137v500h137z" />
    <glyph glyph-name="eth" unicode="&#xf0;" horiz-adv-x="610" 
d="M298 -10c-51.333 0 -95.667 9.83301 -133 29.5s-66 48.5 -86 86.5s-30 83 -30 135c0 52.667 10.167 97.667 30.5 135s48.333 65.833 84 85.5s76.167 29.5 121.5 29.5c44.667 0 80.5 -9 107.5 -27s47.167 -42.333 60.5 -73l-8 -6c-6 38.667 -15.667 73.667 -29 105
s-30.5 60.333 -51.5 87s-46.333 52 -76 76s-63.834 48 -102.501 72h140c32.667 -18 63 -40.5 91 -67.5s52.333 -58.333 73 -94s36.834 -75.667 48.501 -120s17.5 -92.833 17.5 -145.5c0 -64 -10.333 -119 -31 -165s-50 -81.333 -88 -106s-84.333 -37 -139 -37zM303.999 92
c26.667 0 49 6.33398 67 19.001s31.667 30.167 41 52.5s14 48.166 14 77.499c0 34 -4.66699 62.333 -14 85s-22.833 39.834 -40.5 51.501s-39.167 17.5 -64.5 17.5s-46.833 -5.83301 -64.5 -17.5s-31.167 -28.834 -40.5 -51.501s-14 -51 -14 -85
c0 -48.667 10 -85.667 30 -111s48.667 -38 86 -38zM196.999 537.001l-13 61l186 37l30 -51zM421.999 588.001l-28 51l153 36l15 -59z" />
    <glyph glyph-name="ntilde" unicode="&#xf1;" horiz-adv-x="619" 
d="M72 0l0.00195312 500h123l8 -150l-17 16c8 32.667 20.667 59.5 38 80.5s38.5 36.833 63.5 47.5s52.5 16 82.5 16c34.667 0 65.5 -6.66699 92.5 -20s48.333 -33.5 64 -60.5s23.5 -60.833 23.5 -101.5v-328h-137v289c0 42.667 -8.33301 72.167 -25 88.5
s-38.334 24.5 -65.001 24.5c-18.667 0 -36.834 -4.5 -54.501 -13.5s-32 -23.5 -43 -43.5s-16.5 -46.667 -16.5 -80v-265h-137zM506.002 718c-1.33301 -33.333 -7.16797 -61.167 -17.501 -83.5s-24.166 -39 -41.499 -50s-37.333 -16.5 -60 -16.5
c-18.667 0 -34.667 3.16699 -48 9.5s-24.833 13.333 -34.5 21s-19 14.667 -28 21s-18.5 9.5 -28.5 9.5c-12.667 0 -22.167 -5.16699 -28.5 -15.5s-10.833 -25.5 -13.5 -45.5h-84c2.66699 50 14.834 87.5 36.501 112.5s50.834 37.5 87.501 37.5c18 0 33.5 -3.16699 46.5 -9.5
s24.167 -13.5 33.5 -21.5s18.166 -15 26.499 -21s17.5 -9 27.5 -9c13.333 0 23.166 5.16699 29.499 15.5s10.5 25.5 12.5 45.5h84z" />
    <glyph glyph-name="ograve" unicode="&#xf2;" horiz-adv-x="599" 
d="M300 510c50.667 0 95.167 -10.333 133.5 -31s68.333 -50.334 90 -89.001s32.5 -85.334 32.5 -140.001c0 -54 -10.833 -100.5 -32.5 -139.5s-51.667 -68.833 -90 -89.5s-82.833 -31 -133.5 -31c-50 0 -94.333 10.333 -133 31s-68.834 50.5 -90.501 89.5
s-32.5 85.5 -32.5 139.5c0 54.667 10.833 101.334 32.5 140.001s51.834 68.334 90.501 89.001s83 31 133 31zM300 408c-25.333 0 -46.833 -5.83301 -64.5 -17.5s-31.167 -29.167 -40.5 -52.5s-14 -52.666 -14 -87.999s4.66699 -64.666 14 -87.999s22.833 -40.833 40.5 -52.5
s39.167 -17.5 64.5 -17.5c24.667 0 45.834 5.83301 63.501 17.5s31.167 29.167 40.5 52.5s14 52.666 14 87.999s-4.66699 64.666 -14 87.999s-22.833 40.833 -40.5 52.5s-38.834 17.5 -63.501 17.5zM288 742l70 -170h-102l-100 170h132z" />
    <glyph glyph-name="oacute" unicode="&#xf3;" horiz-adv-x="599" 
d="M300 510c50.667 0 95.167 -10.333 133.5 -31s68.333 -50.334 90 -89.001s32.5 -85.334 32.5 -140.001c0 -54 -10.833 -100.5 -32.5 -139.5s-51.667 -68.833 -90 -89.5s-82.833 -31 -133.5 -31c-50 0 -94.333 10.333 -133 31s-68.834 50.5 -90.501 89.5
s-32.5 85.5 -32.5 139.5c0 54.667 10.833 101.334 32.5 140.001s51.834 68.334 90.501 89.001s83 31 133 31zM300 408c-25.333 0 -46.833 -5.83301 -64.5 -17.5s-31.167 -29.167 -40.5 -52.5s-14 -52.666 -14 -87.999s4.66699 -64.666 14 -87.999s22.833 -40.833 40.5 -52.5
s39.167 -17.5 64.5 -17.5c24.667 0 45.834 5.83301 63.501 17.5s31.167 29.167 40.5 52.5s14 52.666 14 87.999s-4.66699 64.666 -14 87.999s-22.833 40.833 -40.5 52.5s-38.834 17.5 -63.501 17.5zM303 742h132l-100 -170h-101z" />
    <glyph glyph-name="ocircumflex" unicode="&#xf4;" horiz-adv-x="599" 
d="M300 510c50.667 0 95.167 -10.333 133.5 -31s68.333 -50.334 90 -89.001s32.5 -85.334 32.5 -140.001c0 -54 -10.833 -100.5 -32.5 -139.5s-51.667 -68.833 -90 -89.5s-82.833 -31 -133.5 -31c-50 0 -94.333 10.333 -133 31s-68.834 50.5 -90.501 89.5
s-32.5 85.5 -32.5 139.5c0 54.667 10.833 101.334 32.5 140.001s51.834 68.334 90.501 89.001s83 31 133 31zM300 408c-25.333 0 -46.833 -5.83301 -64.5 -17.5s-31.167 -29.167 -40.5 -52.5s-14 -52.666 -14 -87.999s4.66699 -64.666 14 -87.999s22.833 -40.833 40.5 -52.5
s39.167 -17.5 64.5 -17.5c24.667 0 45.834 5.83301 63.501 17.5s31.167 29.167 40.5 52.5s14 52.666 14 87.999s-4.66699 64.666 -14 87.999s-22.833 40.833 -40.5 52.5s-38.834 17.5 -63.501 17.5zM480 565h-105l-75 98l-75 -98h-105l111 171h138z" />
    <glyph glyph-name="otilde" unicode="&#xf5;" horiz-adv-x="599" 
d="M300 510c50.667 0 95.167 -10.333 133.5 -31s68.333 -50.334 90 -89.001s32.5 -85.334 32.5 -140.001c0 -54 -10.833 -100.5 -32.5 -139.5s-51.667 -68.833 -90 -89.5s-82.833 -31 -133.5 -31c-50 0 -94.333 10.333 -133 31s-68.834 50.5 -90.501 89.5
s-32.5 85.5 -32.5 139.5c0 54.667 10.833 101.334 32.5 140.001s51.834 68.334 90.501 89.001s83 31 133 31zM300 408c-25.333 0 -46.833 -5.83301 -64.5 -17.5s-31.167 -29.167 -40.5 -52.5s-14 -52.666 -14 -87.999s4.66699 -64.666 14 -87.999s22.833 -40.833 40.5 -52.5
s39.167 -17.5 64.5 -17.5c24.667 0 45.834 5.83301 63.501 17.5s31.167 29.167 40.5 52.5s14 52.666 14 87.999s-4.66699 64.666 -14 87.999s-22.833 40.833 -40.5 52.5s-38.834 17.5 -63.501 17.5zM491 718c-1.33301 -33.333 -7.16797 -61.167 -17.501 -83.5
s-24.166 -39 -41.499 -50s-37.333 -16.5 -60 -16.5c-18.667 0 -34.667 3.16699 -48 9.5s-24.833 13.333 -34.5 21s-19 14.667 -28 21s-18.5 9.5 -28.5 9.5c-12.667 0 -22.167 -5.16699 -28.5 -15.5s-10.833 -25.5 -13.5 -45.5h-84c2.66699 50 14.834 87.5 36.501 112.5
s50.834 37.5 87.501 37.5c18 0 33.5 -3.16699 46.5 -9.5s24.167 -13.5 33.5 -21.5s18.166 -15 26.499 -21s17.5 -9 27.5 -9c13.333 0 23.166 5.16699 29.499 15.5s10.5 25.5 12.5 45.5h84z" />
    <glyph glyph-name="odieresis" unicode="&#xf6;" horiz-adv-x="599" 
d="M300 510c50.667 0 95.167 -10.333 133.5 -31s68.333 -50.334 90 -89.001s32.5 -85.334 32.5 -140.001c0 -54 -10.833 -100.5 -32.5 -139.5s-51.667 -68.833 -90 -89.5s-82.833 -31 -133.5 -31c-50 0 -94.333 10.333 -133 31s-68.834 50.5 -90.501 89.5
s-32.5 85.5 -32.5 139.5c0 54.667 10.833 101.334 32.5 140.001s51.834 68.334 90.501 89.001s83 31 133 31zM300 408c-25.333 0 -46.833 -5.83301 -64.5 -17.5s-31.167 -29.167 -40.5 -52.5s-14 -52.666 -14 -87.999s4.66699 -64.666 14 -87.999s22.833 -40.833 40.5 -52.5
s39.167 -17.5 64.5 -17.5c24.667 0 45.834 5.83301 63.501 17.5s31.167 29.167 40.5 52.5s14 52.666 14 87.999s-4.66699 64.666 -14 87.999s-22.833 40.833 -40.5 52.5s-38.834 17.5 -63.501 17.5zM194 705c23.333 0 41.833 -6.16699 55.5 -18.5s20.5 -29.5 20.5 -51.5
c0 -21.333 -6.83301 -38.333 -20.5 -51s-32.167 -19 -55.5 -19c-22.667 0 -40.667 6.33301 -54 19s-20 29.667 -20 51c0 22 6.66699 39.167 20 51.5s31.333 18.5 54 18.5zM404 705c24 0 42.667 -6.16699 56 -18.5s20 -29.5 20 -51.5c0 -21.333 -6.66699 -38.333 -20 -51
s-32 -19 -56 -19c-22.667 0 -40.667 6.33301 -54 19s-20 29.667 -20 51c0 22 6.66699 39.167 20 51.5s31.333 18.5 54 18.5z" />
    <glyph glyph-name="divide" unicode="&#xf7;" horiz-adv-x="616" 
d="M557 374v-105h-498v105h498zM308 189c23.333 0 41.833 -6.83301 55.5 -20.5s20.5 -32.167 20.5 -55.5s-6.83301 -41.666 -20.5 -54.999s-32.167 -20 -55.5 -20s-42 6.66699 -56 20s-21 31.666 -21 54.999s7 41.833 21 55.5s32.667 20.5 56 20.5zM308 605
c23.333 0 41.833 -6.83301 55.5 -20.5s20.5 -32.167 20.5 -55.5s-6.83301 -41.666 -20.5 -54.999s-32.167 -20 -55.5 -20s-42 6.66699 -56 20s-21 31.666 -21 54.999s7 41.833 21 55.5s32.667 20.5 56 20.5z" />
    <glyph glyph-name="oslash" unicode="&#xf8;" horiz-adv-x="599" 
d="M300 510c50.667 0 95.167 -10.333 133.5 -31s68.333 -50.334 90 -89.001s32.5 -85.334 32.5 -140.001c0 -54 -10.833 -100.5 -32.5 -139.5s-51.667 -68.833 -90 -89.5s-82.833 -31 -133.5 -31c-50 0 -94.333 10.333 -133 31s-68.834 50.5 -90.501 89.5
s-32.5 85.5 -32.5 139.5c0 54.667 10.833 101.334 32.5 140.001s51.834 68.334 90.501 89.001s83 31 133 31zM300 408c-25.333 0 -46.833 -5.83301 -64.5 -17.5s-31.167 -29.167 -40.5 -52.5s-14 -52.666 -14 -87.999s4.66699 -64.666 14 -87.999s22.833 -40.833 40.5 -52.5
s39.167 -17.5 64.5 -17.5c24.667 0 45.834 5.83301 63.501 17.5s31.167 29.167 40.5 52.5s14 52.666 14 87.999s-4.66699 64.666 -14 87.999s-22.833 40.833 -40.5 52.5s-38.834 17.5 -63.501 17.5zM49 -27l435 553h67l-435 -553h-67z" />
    <glyph glyph-name="ugrave" unicode="&#xf9;" horiz-adv-x="618" 
d="M246 -10c-33.333 0 -63.3311 6 -89.998 18s-47.834 31.167 -63.501 57.5s-23.5 60.5 -23.5 102.5v332h137v-299c0 -38.667 8 -65.5 24 -80.5s39 -22.5 69 -22.5c14 0 27.667 2.5 41 7.5s25.166 12.833 35.499 23.5s18.5 24.5 24.5 41.5s9 37.167 9 60.5v269h137v-500
h-122l-5 87c-16.667 -33.333 -39.5 -57.833 -68.5 -73.5s-63.833 -23.5 -104.5 -23.5zM293.002 736l70 -170h-102l-100 170h132z" />
    <glyph glyph-name="uacute" unicode="&#xfa;" horiz-adv-x="618" 
d="M246 -10c-33.333 0 -63.3311 6 -89.998 18s-47.834 31.167 -63.501 57.5s-23.5 60.5 -23.5 102.5v332h137v-299c0 -38.667 8 -65.5 24 -80.5s39 -22.5 69 -22.5c14 0 27.667 2.5 41 7.5s25.166 12.833 35.499 23.5s18.5 24.5 24.5 41.5s9 37.167 9 60.5v269h137v-500
h-122l-5 87c-16.667 -33.333 -39.5 -57.833 -68.5 -73.5s-63.833 -23.5 -104.5 -23.5zM308.002 736h132l-100 -170h-101z" />
    <glyph glyph-name="ucircumflex" unicode="&#xfb;" horiz-adv-x="618" 
d="M246 -10c-33.333 0 -63.3311 6 -89.998 18s-47.834 31.167 -63.501 57.5s-23.5 60.5 -23.5 102.5v332h137v-299c0 -38.667 8 -65.5 24 -80.5s39 -22.5 69 -22.5c14 0 27.667 2.5 41 7.5s25.166 12.833 35.499 23.5s18.5 24.5 24.5 41.5s9 37.167 9 60.5v269h137v-500
h-122l-5 87c-16.667 -33.333 -39.5 -57.833 -68.5 -73.5s-63.833 -23.5 -104.5 -23.5zM485.002 559h-105l-75 98l-75 -98h-105l111 171h138z" />
    <glyph glyph-name="udieresis" unicode="&#xfc;" horiz-adv-x="618" 
d="M246 -10c-33.333 0 -63.3311 6 -89.998 18s-47.834 31.167 -63.501 57.5s-23.5 60.5 -23.5 102.5v332h137v-299c0 -38.667 8 -65.5 24 -80.5s39 -22.5 69 -22.5c14 0 27.667 2.5 41 7.5s25.166 12.833 35.499 23.5s18.5 24.5 24.5 41.5s9 37.167 9 60.5v269h137v-500
h-122l-5 87c-16.667 -33.333 -39.5 -57.833 -68.5 -73.5s-63.833 -23.5 -104.5 -23.5zM199.002 699c23.333 0 41.833 -6.16699 55.5 -18.5s20.5 -29.5 20.5 -51.5c0 -21.333 -6.83301 -38.333 -20.5 -51s-32.167 -19 -55.5 -19c-22.667 0 -40.667 6.33301 -54 19
s-20 29.667 -20 51c0 22 6.66699 39.167 20 51.5s31.333 18.5 54 18.5zM409.002 699c24 0 42.667 -6.16699 56 -18.5s20 -29.5 20 -51.5c0 -21.333 -6.66699 -38.333 -20 -51s-32 -19 -56 -19c-22.667 0 -40.667 6.33301 -54 19s-20 29.667 -20 51
c0 22 6.66699 39.167 20 51.5s31.333 18.5 54 18.5z" />
    <glyph glyph-name="yacute" unicode="&#xfd;" horiz-adv-x="546" 
d="M542 500l-202 -531c-16 -45.333 -33.833 -81.333 -53.5 -108s-42.334 -46 -68.001 -58s-56.167 -18 -91.5 -18c-26 0 -49.833 3.16699 -71.5 9.5s-40.5 14.5 -56.5 24.5l29 99c12.667 -10 26 -17.167 40 -21.5s30 -6.5 48 -6.5c18.667 0 34.834 4 48.501 12
s25.167 24 34.5 48l17 43l-55 130l-153 377h152l95 -300l26 -100l31 106l91 294h139zM286 736h132l-100 -170h-101z" />
    <glyph glyph-name="thorn" unicode="&#xfe;" horiz-adv-x="627" 
d="M72 -210l-0.000976562 929.002h137v-352l-13 13c10.667 37.333 31 68.333 61 93s67.667 37 113 37c40 0 75.833 -10.333 107.5 -31s56.667 -50.334 75 -89.001s27.5 -85.667 27.5 -141c0 -54 -9.33301 -100.333 -28 -139s-44.167 -68.334 -76.5 -89.001
s-69.166 -31 -110.499 -31c-44 0 -80.5 12.333 -109.5 37s-48.833 55.667 -59.5 93l13 21v-351h-137zM324.999 95.002c36.667 0 65.5 13.167 86.5 39.5s31.5 64.833 31.5 115.5s-10.167 89.167 -30.5 115.5s-48.833 39.5 -85.5 39.5c-23.333 0 -43.833 -6.16699 -61.5 -18.5
s-31.5 -30 -41.5 -53s-15 -50.833 -15 -83.5c0 -31.333 4.66699 -58.833 14 -82.5s22.833 -41.667 40.5 -54s38.167 -18.5 61.5 -18.5z" />
    <glyph glyph-name="ydieresis" unicode="&#xff;" horiz-adv-x="546" 
d="M542 500l-202 -531c-16 -45.333 -33.833 -81.333 -53.5 -108s-42.334 -46 -68.001 -58s-56.167 -18 -91.5 -18c-26 0 -49.833 3.16699 -71.5 9.5s-40.5 14.5 -56.5 24.5l29 99c12.667 -10 26 -17.167 40 -21.5s30 -6.5 48 -6.5c18.667 0 34.834 4 48.501 12
s25.167 24 34.5 48l17 43l-55 130l-153 377h152l95 -300l26 -100l31 106l91 294h139zM177 699c23.333 0 41.833 -6.16699 55.5 -18.5s20.5 -29.5 20.5 -51.5c0 -21.333 -6.83301 -38.333 -20.5 -51s-32.167 -19 -55.5 -19c-22.667 0 -40.667 6.33301 -54 19
s-20 29.667 -20 51c0 22 6.66699 39.167 20 51.5s31.333 18.5 54 18.5zM387 699c24 0 42.667 -6.16699 56 -18.5s20 -29.5 20 -51.5c0 -21.333 -6.66699 -38.333 -20 -51s-32 -19 -56 -19c-22.667 0 -40.667 6.33301 -54 19s-20 29.667 -20 51c0 22 6.66699 39.167 20 51.5
s31.333 18.5 54 18.5z" />
    <glyph glyph-name="Amacron" unicode="&#x100;" horiz-adv-x="671" 
d="M659 0h-143l-55 161h-253l-55 -161h-141l241 660h165zM239 263h191l-96 288zM510 830v-91h-350v91h350z" />
    <glyph glyph-name="amacron" unicode="&#x101;" horiz-adv-x="574" 
d="M357 319c0 28.667 -8.16113 51.001 -24.4941 67.001s-37.833 24 -64.5 24c-24.667 0 -46.334 -6.33301 -65.001 -19s-32.334 -33.667 -41.001 -63l-117 36c11.333 44 36.166 79.333 74.499 106s89.833 40 154.5 40c44 0 82.333 -6.83301 115 -20.5
s58.167 -34.167 76.5 -61.5s27.5 -61.666 27.5 -102.999v-203c0 -25.333 12 -38 36 -38c11.333 0 22 1.66699 32 5l-8 -85c-17.333 -8.66699 -39 -13 -65 -13c-23.333 0 -44.333 4 -63 12s-33.334 20.167 -44.001 36.5s-16 36.833 -16 61.5v4l24 4
c-4 -25.333 -15 -46.833 -33 -64.5s-39.833 -31.167 -65.5 -40.5s-52.167 -14 -79.5 -14c-34 0 -63.333 5.16699 -88 15.5s-43.667 25.5 -57 45.5s-20 44.667 -20 74c0 37.333 12 67.833 36 91.5s58.333 39.834 103 48.501l188 38l-1 -85l-120 -24
c-22.667 -4.66699 -39.834 -10.834 -51.501 -18.501s-17.5 -20.167 -17.5 -37.5c0 -16.667 6.16699 -29.334 18.5 -38.001s27.166 -13 44.499 -13c14 0 27.667 1.66699 41 5s25.333 8.66602 36 15.999s19 17.333 25 30s9 28 9 46v135zM451.006 670.001v-91h-350v91h350z" />
    <glyph glyph-name="Abreve" unicode="&#x102;" horiz-adv-x="671" 
d="M659 0h-143l-55 161h-253l-55 -161h-141l241 660h165zM239 263h191l-96 288zM496 880c0 -48 -14.5 -86.167 -43.5 -114.5s-68.167 -42.5 -117.5 -42.5c-48.667 0 -87.667 14.167 -117 42.5s-44 66.5 -44 114.5h93c0 -21.333 5.83301 -39.166 17.5 -53.499
s28.5 -21.5 50.5 -21.5c22.667 0 39.667 7.16699 51 21.5s17 32.166 17 53.499h93z" />
    <glyph glyph-name="abreve" unicode="&#x103;" horiz-adv-x="574" 
d="M357 319c0 28.667 -8.16113 51.001 -24.4941 67.001s-37.833 24 -64.5 24c-24.667 0 -46.334 -6.33301 -65.001 -19s-32.334 -33.667 -41.001 -63l-117 36c11.333 44 36.166 79.333 74.499 106s89.833 40 154.5 40c44 0 82.333 -6.83301 115 -20.5
s58.167 -34.167 76.5 -61.5s27.5 -61.666 27.5 -102.999v-203c0 -25.333 12 -38 36 -38c11.333 0 22 1.66699 32 5l-8 -85c-17.333 -8.66699 -39 -13 -65 -13c-23.333 0 -44.333 4 -63 12s-33.334 20.167 -44.001 36.5s-16 36.833 -16 61.5v4l24 4
c-4 -25.333 -15 -46.833 -33 -64.5s-39.833 -31.167 -65.5 -40.5s-52.167 -14 -79.5 -14c-34 0 -63.333 5.16699 -88 15.5s-43.667 25.5 -57 45.5s-20 44.667 -20 74c0 37.333 12 67.833 36 91.5s58.333 39.834 103 48.501l188 38l-1 -85l-120 -24
c-22.667 -4.66699 -39.834 -10.834 -51.501 -18.501s-17.5 -20.167 -17.5 -37.5c0 -16.667 6.16699 -29.334 18.5 -38.001s27.166 -13 44.499 -13c14 0 27.667 1.66699 41 5s25.333 8.66602 36 15.999s19 17.333 25 30s9 28 9 46v135zM437.006 720.001
c0 -48 -14.5 -86.167 -43.5 -114.5s-68.167 -42.5 -117.5 -42.5c-48.667 0 -87.667 14.167 -117 42.5s-44 66.5 -44 114.5h93c0 -21.333 5.83301 -39.166 17.5 -53.499s28.5 -21.5 50.5 -21.5c22.667 0 39.667 7.16699 51 21.5s17 32.166 17 53.499h93z" />
    <glyph glyph-name="Aogonek" unicode="&#x104;" horiz-adv-x="671" 
d="M572 -215c-25.333 0 -47.999 4.16699 -67.999 12.5s-35.667 20.5 -47 36.5s-17 36.333 -17 61c0 35.333 13.333 64.333 40 87s65 39 115 49l64 -31c-31.333 -7.33301 -55.833 -15.5 -73.5 -24.5s-29.834 -18.667 -36.501 -29s-10 -21.5 -10 -33.5
c0 -14.667 5.16699 -26.167 15.5 -34.5s24.5 -12.5 42.5 -12.5c8 0 16.5 0.666992 25.5 2s16.833 4.33301 23.5 9l21 -71c-12 -8 -26.167 -13.5 -42.5 -16.5s-33.833 -4.5 -52.5 -4.5zM659.001 0h-143l-55 161h-253l-55 -161h-141l241 660h165zM239.001 263h191l-96 288z
" />
    <glyph glyph-name="aogonek" unicode="&#x105;" horiz-adv-x="574" 
d="M467 -224c-23.333 0 -44.667 4.16699 -64 12.5s-34.666 20.5 -45.999 36.5s-17 35.333 -17 58c0 38 14 68.333 42 91s67 41 117 55l55 -24c-30.667 -12.667 -54.667 -24.667 -72 -36s-29.5 -22.333 -36.5 -33s-10.5 -21.667 -10.5 -33c0 -14 5.16699 -25 15.5 -33
s23.5 -12 39.5 -12c8 0 16.5 0.666992 25.5 2s16.833 4 23.5 8l17 -73c-10.667 -6 -23.834 -10.667 -39.501 -14s-32.167 -5 -49.5 -5zM355.999 319c0 28.667 -7.49805 50.999 -22.498 66.999s-36.5 24 -64.5 24c-26.667 0 -49.334 -6.16699 -68.001 -18.5
s-31.667 -33.5 -39 -63.5l-114 36c10 44 34.333 79.333 73 106s90.334 40 155.001 40c44.667 0 83.167 -6.83301 115.5 -20.5s57.333 -33.667 75 -60s26.5 -59.166 26.5 -98.499v-209c0 -24.667 12.667 -37 38 -37c10.667 0 20.667 1.33301 30 4l-7 -84
c-17.333 -8.66699 -39.333 -13 -66 -13c-24 0 -45.333 4 -64 12s-33.334 20.167 -44.001 36.5s-16 36.833 -16 61.5v10l21 -2c-5.33301 -25.333 -17 -47 -35 -65s-39.333 -31.667 -64 -41s-50.334 -14 -77.001 -14c-32 0 -60.5 5.16699 -85.5 15.5s-44.5 25.5 -58.5 45.5
s-21 44.667 -21 74c0 36.667 12.167 67 36.5 91s58.833 40.333 103.5 49l188 38v-72l-120 -25c-26 -5.33301 -45 -13.166 -57 -23.499s-18 -24.5 -18 -42.5c0 -16.667 6.33301 -30.334 19 -41.001s30.667 -16 54 -16c14 0 27.333 2 40 6s24 10 34 18
s17.833 17.833 23.5 29.5s8.5 25.5 8.5 41.5v141z" />
    <glyph glyph-name="Cacute" unicode="&#x106;" horiz-adv-x="683" 
d="M651 182c-12.667 -42.667 -32.6719 -78.334 -60.0049 -107.001s-59.666 -50 -96.999 -64s-78.333 -21 -123 -21c-65.333 0 -121.833 13.667 -169.5 41s-84.334 66.333 -110.001 117s-38.5 111.334 -38.5 182.001s12.833 131.334 38.5 182.001s62.334 89.667 110.001 117
s103.5 41 167.5 41c45.333 0 86.333 -6.16699 123 -18.5s67.834 -31.333 93.501 -57s44.5 -57.5 56.5 -95.5l-125 -53c-11.333 40 -28.666 68.5 -51.999 85.5s-53.333 25.5 -90 25.5c-36 0 -67.5 -8.66699 -94.5 -26s-47.833 -42.833 -62.5 -76.5s-22 -75.167 -22 -124.5
c0 -48.667 6.83301 -90 20.5 -124s33.834 -59.667 60.501 -77s59.334 -26 98.001 -26c36 0 67.167 9.66699 93.5 29s44.833 48.666 55.5 87.999zM367.995 892h126l-88 -162h-101z" />
    <glyph glyph-name="cacute" unicode="&#x107;" horiz-adv-x="564" 
d="M299 510c44.667 0 82.4971 -6.50488 113.497 -19.5049s56 -30.667 75 -53s32.5 -47.166 40.5 -74.499l-128 -46c-6.66699 30 -18 52.667 -34 68s-37.667 23 -65 23c-25.333 0 -47 -5.83301 -65 -17.5s-31.667 -29.334 -41 -53.001s-14 -53.167 -14 -88.5
s4.83301 -64.666 14.5 -87.999s23.667 -40.666 42 -51.999s39.833 -17 64.5 -17c20 0 37 3.5 51 10.5s25.5 17.167 34.5 30.5s15.167 29.333 18.5 48l124 -40c-7.33301 -30 -21 -56.333 -41 -79s-45.667 -40.334 -77 -53.001s-67.666 -19 -108.999 -19
c-51.333 0 -96.666 10.333 -135.999 31s-69.666 50.334 -90.999 89.001s-32 85.334 -32 140.001s10.667 101.334 32 140.001s51.333 68.334 90 89.001s83 31 133 31zM296.997 741.995h132l-100 -170h-101z" />
    <glyph glyph-name="Ccircumflex" unicode="&#x108;" horiz-adv-x="683" 
d="M651 182c-12.667 -42.667 -32.6719 -78.334 -60.0049 -107.001s-59.666 -50 -96.999 -64s-78.333 -21 -123 -21c-65.333 0 -121.833 13.667 -169.5 41s-84.334 66.333 -110.001 117s-38.5 111.334 -38.5 182.001s12.833 131.334 38.5 182.001s62.334 89.667 110.001 117
s103.5 41 167.5 41c45.333 0 86.333 -6.16699 123 -18.5s67.834 -31.333 93.501 -57s44.5 -57.5 56.5 -95.5l-125 -53c-11.333 40 -28.666 68.5 -51.999 85.5s-53.333 25.5 -90 25.5c-36 0 -67.5 -8.66699 -94.5 -26s-47.833 -42.833 -62.5 -76.5s-22 -75.167 -22 -124.5
c0 -48.667 6.83301 -90 20.5 -124s33.834 -59.667 60.501 -77s59.334 -26 98.001 -26c36 0 67.167 9.66699 93.5 29s44.833 48.666 55.5 87.999zM538.995 730h-103l-70 98l-70 -98h-103l104 162h138z" />
    <glyph glyph-name="ccircumflex" unicode="&#x109;" horiz-adv-x="564" 
d="M299 510c44.667 0 82.4971 -6.50488 113.497 -19.5049s56 -30.667 75 -53s32.5 -47.166 40.5 -74.499l-128 -46c-6.66699 30 -18 52.667 -34 68s-37.667 23 -65 23c-25.333 0 -47 -5.83301 -65 -17.5s-31.667 -29.334 -41 -53.001s-14 -53.167 -14 -88.5
s4.83301 -64.666 14.5 -87.999s23.667 -40.666 42 -51.999s39.833 -17 64.5 -17c20 0 37 3.5 51 10.5s25.5 17.167 34.5 30.5s15.167 29.333 18.5 48l124 -40c-7.33301 -30 -21 -56.333 -41 -79s-45.667 -40.334 -77 -53.001s-67.666 -19 -108.999 -19
c-51.333 0 -96.666 10.333 -135.999 31s-69.666 50.334 -90.999 89.001s-32 85.334 -32 140.001s10.667 101.334 32 140.001s51.333 68.334 90 89.001s83 31 133 31zM473.997 564.995h-105l-75 98l-75 -98h-105l111 171h138z" />
    <glyph glyph-name="Cdotaccent" unicode="&#x10a;" horiz-adv-x="683" 
d="M651 182c-12.667 -42.667 -32.6719 -78.334 -60.0049 -107.001s-59.666 -50 -96.999 -64s-78.333 -21 -123 -21c-65.333 0 -121.833 13.667 -169.5 41s-84.334 66.333 -110.001 117s-38.5 111.334 -38.5 182.001s12.833 131.334 38.5 182.001s62.334 89.667 110.001 117
s103.5 41 167.5 41c45.333 0 86.333 -6.16699 123 -18.5s67.834 -31.333 93.501 -57s44.5 -57.5 56.5 -95.5l-125 -53c-11.333 40 -28.666 68.5 -51.999 85.5s-53.333 25.5 -90 25.5c-36 0 -67.5 -8.66699 -94.5 -26s-47.833 -42.833 -62.5 -76.5s-22 -75.167 -22 -124.5
c0 -48.667 6.83301 -90 20.5 -124s33.834 -59.667 60.501 -77s59.334 -26 98.001 -26c36 0 67.167 9.66699 93.5 29s44.833 48.666 55.5 87.999zM365.995 880c26 0 46 -6.5 60 -19.5s21 -30.833 21 -53.5c0 -23.333 -7 -41.333 -21 -54s-34 -19 -60 -19
c-25.333 0 -45 6.33301 -59 19s-21 30.667 -21 54c0 22.667 7 40.5 21 53.5s33.667 19.5 59 19.5z" />
    <glyph glyph-name="cdotaccent" unicode="&#x10b;" horiz-adv-x="564" 
d="M299 510c44.667 0 82.4971 -6.50488 113.497 -19.5049s56 -30.667 75 -53s32.5 -47.166 40.5 -74.499l-128 -46c-6.66699 30 -18 52.667 -34 68s-37.667 23 -65 23c-25.333 0 -47 -5.83301 -65 -17.5s-31.667 -29.334 -41 -53.001s-14 -53.167 -14 -88.5
s4.83301 -64.666 14.5 -87.999s23.667 -40.666 42 -51.999s39.833 -17 64.5 -17c20 0 37 3.5 51 10.5s25.5 17.167 34.5 30.5s15.167 29.333 18.5 48l124 -40c-7.33301 -30 -21 -56.333 -41 -79s-45.667 -40.334 -77 -53.001s-67.666 -19 -108.999 -19
c-51.333 0 -96.666 10.333 -135.999 31s-69.666 50.334 -90.999 89.001s-32 85.334 -32 140.001s10.667 101.334 32 140.001s51.333 68.334 90 89.001s83 31 133 31zM293.997 719.995c26 0 46 -6.5 60 -19.5s21 -30.833 21 -53.5c0 -23.333 -7 -41.333 -21 -54
s-34 -19 -60 -19c-25.333 0 -45 6.33301 -59 19s-21 30.667 -21 54c0 22.667 7 40.5 21 53.5s33.667 19.5 59 19.5z" />
    <glyph glyph-name="Ccaron" unicode="&#x10c;" horiz-adv-x="683" 
d="M651 182c-12.667 -42.667 -32.6719 -78.334 -60.0049 -107.001s-59.666 -50 -96.999 -64s-78.333 -21 -123 -21c-65.333 0 -121.833 13.667 -169.5 41s-84.334 66.333 -110.001 117s-38.5 111.334 -38.5 182.001s12.833 131.334 38.5 182.001s62.334 89.667 110.001 117
s103.5 41 167.5 41c45.333 0 86.333 -6.16699 123 -18.5s67.834 -31.333 93.501 -57s44.5 -57.5 56.5 -95.5l-125 -53c-11.333 40 -28.666 68.5 -51.999 85.5s-53.333 25.5 -90 25.5c-36 0 -67.5 -8.66699 -94.5 -26s-47.833 -42.833 -62.5 -76.5s-22 -75.167 -22 -124.5
c0 -48.667 6.83301 -90 20.5 -124s33.834 -59.667 60.501 -77s59.334 -26 98.001 -26c36 0 67.167 9.66699 93.5 29s44.833 48.666 55.5 87.999zM538.995 892l-104 -162h-138l-104 162h103l70 -97l70 97h103z" />
    <glyph glyph-name="ccaron" unicode="&#x10d;" horiz-adv-x="564" 
d="M299 510c44.667 0 82.4971 -6.50488 113.497 -19.5049s56 -30.667 75 -53s32.5 -47.166 40.5 -74.499l-128 -46c-6.66699 30 -18 52.667 -34 68s-37.667 23 -65 23c-25.333 0 -47 -5.83301 -65 -17.5s-31.667 -29.334 -41 -53.001s-14 -53.167 -14 -88.5
s4.83301 -64.666 14.5 -87.999s23.667 -40.666 42 -51.999s39.833 -17 64.5 -17c20 0 37 3.5 51 10.5s25.5 17.167 34.5 30.5s15.167 29.333 18.5 48l124 -40c-7.33301 -30 -21 -56.333 -41 -79s-45.667 -40.334 -77 -53.001s-67.666 -19 -108.999 -19
c-51.333 0 -96.666 10.333 -135.999 31s-69.666 50.334 -90.999 89.001s-32 85.334 -32 140.001s10.667 101.334 32 140.001s51.333 68.334 90 89.001s83 31 133 31zM470.997 741.995l-111 -170h-137l-111 170h105l75 -98l75 98h104z" />
    <glyph glyph-name="Dcaron" unicode="&#x10e;" horiz-adv-x="719" 
d="M341 660c103.333 0 183.333 -28.501 240 -85.501s85 -138.5 85 -244.5c0 -105.333 -28.333 -186.666 -85 -243.999s-136.667 -86 -240 -86h-255v660h255zM334 109.999c62.667 0 109.834 18.833 141.501 56.5s47.5 92.167 47.5 163.5s-15.833 125.833 -47.5 163.5
s-78.834 56.5 -141.501 56.5h-110v-440h110zM525 891.999l-104 -162h-138l-104 162h103l70 -97l70 97h103z" />
    <glyph glyph-name="dcaron" unicode="&#x10f;" horiz-adv-x="683" 
d="M733 719l-49 -224h-82l21 224h110zM261 -10c-41.333 0 -78.1689 10.332 -110.502 30.999s-57.666 50.334 -75.999 89.001s-27.5 85 -27.5 139c0 55.333 9.66699 102.5 29 141.5s45.5 68.667 78.5 89s70.167 30.5 111.5 30.5c44 0 80.333 -12.667 109 -38
s47.334 -58 56.001 -98l-13 -16v361h137v-719h-123l-9 152l16 -8c-4 -31.333 -14.333 -58.5 -31 -81.5s-37.667 -40.833 -63 -53.5s-53.333 -19 -84 -19zM300.997 94.999c24 0 44.6641 6.16699 61.9971 18.5s30.833 30.5 40.5 54.5s14.5 52.667 14.5 86
c0 32 -4.66699 59.167 -14 81.5s-22.666 39.5 -39.999 51.5s-37.666 18 -60.999 18c-37.333 0 -66.5 -13.167 -87.5 -39.5s-31.5 -64.833 -31.5 -115.5s10.333 -89.167 31 -115.5s49.334 -39.5 86.001 -39.5z" />
    <glyph glyph-name="Dcroat" unicode="&#x110;" horiz-adv-x="740" 
d="M18 280v103h381v-103h-381zM362 660c103.333 0 183.166 -28.501 239.499 -85.501s84.5 -138.5 84.5 -244.5c0 -105.333 -28.167 -186.666 -84.5 -243.999s-136.166 -86 -239.499 -86h-255v660h255zM354 109.999c63.333 0 110.833 18.833 142.5 56.5
s47.5 92.167 47.5 163.5s-15.833 125.833 -47.5 163.5s-79.167 56.5 -142.5 56.5h-109v-440h109z" />
    <glyph glyph-name="dcroat" unicode="&#x111;" horiz-adv-x="628" 
d="M279 548v84h354v-84h-354zM261 -10c-41.333 0 -78.1689 10.332 -110.502 30.999s-57.666 50.334 -75.999 89.001s-27.5 85 -27.5 139c0 55.333 9.66699 102.5 29 141.5s45.5 68.667 78.5 89s70.167 30.5 111.5 30.5c44 0 80.333 -12.667 109 -38s47.334 -58 56.001 -98
l-13 -16v361h137v-719h-123l-9 152l16 -8c-4 -31.333 -14.333 -58.5 -31 -81.5s-37.667 -40.833 -63 -53.5s-53.333 -19 -84 -19zM300.997 94.999c24 0 44.6641 6.16699 61.9971 18.5s30.833 30.5 40.5 54.5s14.5 52.667 14.5 86c0 32 -4.66699 59.167 -14 81.5
s-22.666 39.5 -39.999 51.5s-37.666 18 -60.999 18c-37.333 0 -66.5 -13.167 -87.5 -39.5s-31.5 -64.833 -31.5 -115.5s10.333 -89.167 31 -115.5s49.334 -39.5 86.001 -39.5z" />
    <glyph glyph-name="Emacron" unicode="&#x112;" horiz-adv-x="633" 
d="M86 0v660h495v-111h-357v-164h281v-106h-281v-168h371v-111h-509zM509 830v-91h-350v91h350z" />
    <glyph glyph-name="emacron" unicode="&#x113;" 
d="M304 -10c-52.667 0 -98.498 10.3301 -137.498 30.9971s-69.167 50.334 -90.5 89.001s-32 85.334 -32 140.001s10.667 101.334 32 140.001s51.166 68.334 89.499 89.001s82.166 31 131.499 31c50.667 0 93.667 -10.167 129 -30.5s62.333 -48 81 -83s28 -74.833 28 -119.5
c0 -13.333 -0.333008 -26 -1 -38s-1.66699 -22.667 -3 -32h-399v95h339l-66 -24c0 42 -9.5 74.333 -28.5 97s-45.833 34 -80.5 34c-25.333 0 -47.166 -6 -65.499 -18s-32.166 -29.833 -41.499 -53.5s-14 -53.5 -14 -89.5c0 -35.333 5.16699 -64.5 15.5 -87.5
s25 -40.167 44 -51.5s41.833 -17 68.5 -17c29.333 0 53 5.66699 71 17s32 27 42 47l109 -42c-10.667 -26 -26.834 -48.333 -48.501 -67s-47.334 -32.834 -77.001 -42.501s-61.5 -14.5 -95.5 -14.5zM468.002 669.997v-91h-350v91h350z" />
    <glyph glyph-name="Ebreve" unicode="&#x114;" horiz-adv-x="633" 
d="M86 0v660h495v-111h-357v-164h281v-106h-281v-168h371v-111h-509zM495 880c0 -48 -14.5 -86.167 -43.5 -114.5s-68.167 -42.5 -117.5 -42.5c-48.667 0 -87.667 14.167 -117 42.5s-44 66.5 -44 114.5h93c0 -21.333 5.83301 -39.166 17.5 -53.499s28.5 -21.5 50.5 -21.5
c22.667 0 39.667 7.16699 51 21.5s17 32.166 17 53.499h93z" />
    <glyph glyph-name="ebreve" unicode="&#x115;" 
d="M304 -10c-52.667 0 -98.498 10.3301 -137.498 30.9971s-69.167 50.334 -90.5 89.001s-32 85.334 -32 140.001s10.667 101.334 32 140.001s51.166 68.334 89.499 89.001s82.166 31 131.499 31c50.667 0 93.667 -10.167 129 -30.5s62.333 -48 81 -83s28 -74.833 28 -119.5
c0 -13.333 -0.333008 -26 -1 -38s-1.66699 -22.667 -3 -32h-399v95h339l-66 -24c0 42 -9.5 74.333 -28.5 97s-45.833 34 -80.5 34c-25.333 0 -47.166 -6 -65.499 -18s-32.166 -29.833 -41.499 -53.5s-14 -53.5 -14 -89.5c0 -35.333 5.16699 -64.5 15.5 -87.5
s25 -40.167 44 -51.5s41.833 -17 68.5 -17c29.333 0 53 5.66699 71 17s32 27 42 47l109 -42c-10.667 -26 -26.834 -48.333 -48.501 -67s-47.334 -32.834 -77.001 -42.501s-61.5 -14.5 -95.5 -14.5zM454.002 719.997c0 -48 -14.5 -86.167 -43.5 -114.5
s-68.167 -42.5 -117.5 -42.5c-48.667 0 -87.667 14.167 -117 42.5s-44 66.5 -44 114.5h93c0 -21.333 5.83301 -39.166 17.5 -53.499s28.5 -21.5 50.5 -21.5c22.667 0 39.667 7.16699 51 21.5s17 32.166 17 53.499h93z" />
    <glyph glyph-name="Edotaccent" unicode="&#x116;" horiz-adv-x="633" 
d="M86 0v660h495v-111h-357v-164h281v-106h-281v-168h371v-111h-509zM334 880c26 0 46 -6.5 60 -19.5s21 -30.833 21 -53.5c0 -23.333 -7 -41.333 -21 -54s-34 -19 -60 -19c-25.333 0 -45 6.33301 -59 19s-21 30.667 -21 54c0 22.667 7 40.5 21 53.5s33.667 19.5 59 19.5z
" />
    <glyph glyph-name="edotaccent" unicode="&#x117;" 
d="M304 -10c-52.667 0 -98.498 10.3301 -137.498 30.9971s-69.167 50.334 -90.5 89.001s-32 85.334 -32 140.001s10.667 101.334 32 140.001s51.166 68.334 89.499 89.001s82.166 31 131.499 31c50.667 0 93.667 -10.167 129 -30.5s62.333 -48 81 -83s28 -74.833 28 -119.5
c0 -13.333 -0.333008 -26 -1 -38s-1.66699 -22.667 -3 -32h-399v95h339l-66 -24c0 42 -9.5 74.333 -28.5 97s-45.833 34 -80.5 34c-25.333 0 -47.166 -6 -65.499 -18s-32.166 -29.833 -41.499 -53.5s-14 -53.5 -14 -89.5c0 -35.333 5.16699 -64.5 15.5 -87.5
s25 -40.167 44 -51.5s41.833 -17 68.5 -17c29.333 0 53 5.66699 71 17s32 27 42 47l109 -42c-10.667 -26 -26.834 -48.333 -48.501 -67s-47.334 -32.834 -77.001 -42.501s-61.5 -14.5 -95.5 -14.5zM293.002 719.997c26 0 46 -6.5 60 -19.5s21 -30.833 21 -53.5
c0 -23.333 -7 -41.333 -21 -54s-34 -19 -60 -19c-25.333 0 -45 6.33301 -59 19s-21 30.667 -21 54c0 22.667 7 40.5 21 53.5s33.667 19.5 59 19.5z" />
    <glyph glyph-name="Eogonek" unicode="&#x118;" horiz-adv-x="633" 
d="M502 -225c-25.333 0 -47.833 4.16504 -67.5 12.498s-35.167 20.5 -46.5 36.5s-17 35.333 -17 58c0 38 15.833 68.333 47.5 91s74.5 41 128.5 55l49 -28c-47.333 -14.667 -80.333 -30 -99 -46s-28 -32.667 -28 -50c0 -15.333 5.5 -27.166 16.5 -35.499
s25.167 -12.5 42.5 -12.5c8 0 16.5 0.833008 25.5 2.5s16.833 4.5 23.5 8.5l20 -71c-12 -7.33301 -26.167 -12.666 -42.5 -15.999s-33.833 -5 -52.5 -5zM86 -0.00195312v660h495v-111h-357v-164h281v-106h-281v-168h371v-111h-509z" />
    <glyph glyph-name="eogonek" unicode="&#x119;" 
d="M304 -10c-52.667 0 -98.498 10.3301 -137.498 30.9971s-69.167 50.334 -90.5 89.001s-32 85.334 -32 140.001s10.667 101.334 32 140.001s51.166 68.334 89.499 89.001s82.166 31 131.499 31c50.667 0 93.667 -10.167 129 -30.5s62.333 -48 81 -83s28 -74.833 28 -119.5
c0 -13.333 -0.333008 -26 -1 -38s-1.66699 -22.667 -3 -32h-399v95h339l-66 -24c0 42 -9.5 74.333 -28.5 97s-45.833 34 -80.5 34c-25.333 0 -47.166 -6 -65.499 -18s-32.166 -29.833 -41.499 -53.5s-14 -53.5 -14 -89.5c0 -35.333 5.16699 -64.5 15.5 -87.5
s25 -40.167 44 -51.5s41.833 -17 68.5 -17c29.333 0 53 5.66699 71 17s32 27 42 47l109 -42c-10.667 -26 -26.834 -48.333 -48.501 -67s-47.334 -32.834 -77.001 -42.501s-61.5 -14.5 -95.5 -14.5zM324.002 -222.003c-40.667 0 -72.333 9.83105 -95 29.498
s-34 45.834 -34 78.501c0 38.667 13.167 69 39.5 91s64.166 39 113.499 51l58 -21c-30.667 -10.667 -54.5 -21.167 -71.5 -31.5s-28.833 -20.833 -35.5 -31.5s-10 -22.667 -10 -36c0 -15.333 5.16699 -27.166 15.5 -35.499s24.166 -12.5 41.499 -12.5
c8.66699 0 17.334 0.833008 26.001 2.5s16.334 4.16699 23.001 7.5l16 -74c-11.333 -6 -24.333 -10.5 -39 -13.5s-30.667 -4.5 -48 -4.5z" />
    <glyph glyph-name="Ecaron" unicode="&#x11a;" horiz-adv-x="633" 
d="M86 0v660h495v-111h-357v-164h281v-106h-281v-168h371v-111h-509zM507 892l-104 -162h-138l-104 162h103l70 -97l70 97h103z" />
    <glyph glyph-name="ecaron" unicode="&#x11b;" 
d="M304 -10c-52.667 0 -98.498 10.3301 -137.498 30.9971s-69.167 50.334 -90.5 89.001s-32 85.334 -32 140.001s10.667 101.334 32 140.001s51.166 68.334 89.499 89.001s82.166 31 131.499 31c50.667 0 93.667 -10.167 129 -30.5s62.333 -48 81 -83s28 -74.833 28 -119.5
c0 -13.333 -0.333008 -26 -1 -38s-1.66699 -22.667 -3 -32h-399v95h339l-66 -24c0 42 -9.5 74.333 -28.5 97s-45.833 34 -80.5 34c-25.333 0 -47.166 -6 -65.499 -18s-32.166 -29.833 -41.499 -53.5s-14 -53.5 -14 -89.5c0 -35.333 5.16699 -64.5 15.5 -87.5
s25 -40.167 44 -51.5s41.833 -17 68.5 -17c29.333 0 53 5.66699 71 17s32 27 42 47l109 -42c-10.667 -26 -26.834 -48.333 -48.501 -67s-47.334 -32.834 -77.001 -42.501s-61.5 -14.5 -95.5 -14.5zM470.002 741.997l-111 -170h-137l-111 170h105l75 -98l75 98h104z" />
    <glyph glyph-name="Gcircumflex" unicode="&#x11c;" horiz-adv-x="723" 
d="M357 -10c-60.667 0 -113.835 13.332 -159.502 39.999s-81.167 65.334 -106.5 116.001s-38 111.667 -38 183c0 70.667 13.333 131.5 40 182.5s64.334 90.167 113.001 117.5s105.667 41 171 41c71.333 0 129 -13.167 173 -39.5s79 -67.166 105 -122.499l-128 -55
c-10.667 35.333 -28.834 61.5 -54.501 78.5s-57.167 25.5 -94.5 25.5s-69.666 -8.83301 -96.999 -26.5s-48.333 -43.334 -63 -77.001s-22 -74.834 -22 -123.501c0 -50 7 -92.167 21 -126.5s34.833 -60 62.5 -77s61.834 -25.5 102.501 -25.5c22 0 42.5 2.66699 61.5 8
s35.5 13.333 49.5 24s25 24.334 33 41.001s12 36 12 58v15h-173v101h292v-348h-97l-10 144l24 -17c-14.667 -44 -40.5 -77.833 -77.5 -101.5s-83.5 -35.5 -139.5 -35.5zM542.999 729.999h-103l-70 98l-70 -98h-103l104 162h138z" />
    <glyph glyph-name="gcircumflex" unicode="&#x11d;" horiz-adv-x="549" 
d="M102 565l94 171h126l93 -171h-89l-67 103l-68 -103h-89zM538 619l18.999 -98.001c-1.33301 0.666992 -2.66602 1 -3.99902 1h-5c-30 0 -53.667 -7 -71 -21s-26 -35.333 -26 -64l-56 29c0.666992 30.667 7.16699 57.334 19.5 80.001s29 40.5 50 53.5s44.5 19.5 70.5 19.5
h2h1zM368.999 93.999c54 0 95.667 -11.6689 125 -35.002s44 -56 44 -98c0 -38 -11 -70.167 -33 -96.5s-52.833 -46.166 -92.5 -59.499s-85.5 -20 -137.5 -20c-86 0 -148.833 12 -188.5 36s-59.5 55.333 -59.5 94c0 27.333 10.5 50.333 31.5 69s55.833 29 104.5 31l-5 -16
c-34.667 6 -61.167 17.5 -79.5 34.5s-27.5 40.5 -27.5 70.5c0 30.667 11.833 55.834 35.5 75.501s55.834 31.167 96.501 34.5l60 -28h-14c-28.667 -2 -48.834 -7.83301 -60.501 -17.5s-17.5 -20.5 -17.5 -32.5c0 -14 5.5 -24.5 16.5 -31.5s26.833 -10.5 47.5 -10.5h154z
M275.999 -121.003c34.667 0 63.167 3.00098 85.5 9.00098s39 13.667 50 23s16.5 19.666 16.5 30.999c0 12.667 -5 22.834 -15 30.501s-28 11.5 -54 11.5h-169c-16 0 -29.167 -4 -39.5 -12s-15.5 -19 -15.5 -33c0 -18.667 12.5 -33.334 37.5 -44.001s59.5 -16 103.5 -16z
M276.999 509.998c46.667 0 87.167 -6.83301 121.5 -20.5s60.666 -33.167 78.999 -58.5s27.5 -55.666 27.5 -90.999c0 -34.667 -9.16699 -64.667 -27.5 -90s-44.666 -44.833 -78.999 -58.5s-74.833 -20.5 -121.5 -20.5c-74 0 -130.667 15.167 -170 45.5s-59 71.5 -59 123.5
c0 35.333 9.33301 65.666 28 90.999s45 44.833 79 58.5s74.667 20.5 122 20.5zM276.999 423.998c-26.667 0 -48.667 -7.33301 -66 -22s-26 -35 -26 -61s8.66699 -46.5 26 -61.5s39.333 -22.5 66 -22.5s48.5 7.5 65.5 22.5s25.5 35.5 25.5 61.5s-8.5 46.333 -25.5 61
s-38.833 22 -65.5 22z" />
    <glyph glyph-name="Gbreve" unicode="&#x11e;" horiz-adv-x="723" 
d="M357 -10c-60.667 0 -113.835 13.332 -159.502 39.999s-81.167 65.334 -106.5 116.001s-38 111.667 -38 183c0 70.667 13.333 131.5 40 182.5s64.334 90.167 113.001 117.5s105.667 41 171 41c71.333 0 129 -13.167 173 -39.5s79 -67.166 105 -122.499l-128 -55
c-10.667 35.333 -28.834 61.5 -54.501 78.5s-57.167 25.5 -94.5 25.5s-69.666 -8.83301 -96.999 -26.5s-48.333 -43.334 -63 -77.001s-22 -74.834 -22 -123.501c0 -50 7 -92.167 21 -126.5s34.833 -60 62.5 -77s61.834 -25.5 102.501 -25.5c22 0 42.5 2.66699 61.5 8
s35.5 13.333 49.5 24s25 24.334 33 41.001s12 36 12 58v15h-173v101h292v-348h-97l-10 144l24 -17c-14.667 -44 -40.5 -77.833 -77.5 -101.5s-83.5 -35.5 -139.5 -35.5zM530.999 879.999c0 -48 -14.5 -86.167 -43.5 -114.5s-68.167 -42.5 -117.5 -42.5
c-48.667 0 -87.667 14.167 -117 42.5s-44 66.5 -44 114.5h93c0 -21.333 5.83301 -39.166 17.5 -53.499s28.5 -21.5 50.5 -21.5c22.667 0 39.667 7.16699 51 21.5s17 32.166 17 53.499h93z" />
    <glyph glyph-name="gbreve" unicode="&#x11f;" horiz-adv-x="549" 
d="M538 619l18.999 -98.001c-1.33301 0.666992 -2.66602 1 -3.99902 1h-5c-30 0 -53.667 -7 -71 -21s-26 -35.333 -26 -64l-56 29c0.666992 30.667 7.16699 57.334 19.5 80.001s29 40.5 50 53.5s44.5 19.5 70.5 19.5h2h1zM368.999 93.999c54 0 95.667 -11.6689 125 -35.002
s44 -56 44 -98c0 -38 -11 -70.167 -33 -96.5s-52.833 -46.166 -92.5 -59.499s-85.5 -20 -137.5 -20c-86 0 -148.833 12 -188.5 36s-59.5 55.333 -59.5 94c0 27.333 10.5 50.333 31.5 69s55.833 29 104.5 31l-5 -16c-34.667 6 -61.167 17.5 -79.5 34.5s-27.5 40.5 -27.5 70.5
c0 30.667 11.833 55.834 35.5 75.501s55.834 31.167 96.501 34.5l60 -28h-14c-28.667 -2 -48.834 -7.83301 -60.501 -17.5s-17.5 -20.5 -17.5 -32.5c0 -14 5.5 -24.5 16.5 -31.5s26.833 -10.5 47.5 -10.5h154zM275.999 -121.003c34.667 0 63.167 3.00098 85.5 9.00098
s39 13.667 50 23s16.5 19.666 16.5 30.999c0 12.667 -5 22.834 -15 30.501s-28 11.5 -54 11.5h-169c-16 0 -29.167 -4 -39.5 -12s-15.5 -19 -15.5 -33c0 -18.667 12.5 -33.334 37.5 -44.001s59.5 -16 103.5 -16zM276.999 509.998c46.667 0 87.167 -6.83301 121.5 -20.5
s60.666 -33.167 78.999 -58.5s27.5 -55.666 27.5 -90.999c0 -34.667 -9.16699 -64.667 -27.5 -90s-44.666 -44.833 -78.999 -58.5s-74.833 -20.5 -121.5 -20.5c-74 0 -130.667 15.167 -170 45.5s-59 71.5 -59 123.5c0 35.333 9.33301 65.666 28 90.999s45 44.833 79 58.5
s74.667 20.5 122 20.5zM276.999 423.998c-26.667 0 -48.667 -7.33301 -66 -22s-26 -35 -26 -61s8.66699 -46.5 26 -61.5s39.333 -22.5 66 -22.5s48.5 7.5 65.5 22.5s25.5 35.5 25.5 61.5s-8.5 46.333 -25.5 61s-38.833 22 -65.5 22zM442.999 719.998
c0 -48 -14.668 -86.167 -44.001 -114.5s-68.333 -42.5 -117 -42.5c-49.333 0 -88.666 14.167 -117.999 42.5s-44 66.5 -44 114.5h93c0.666992 -21.333 6.66699 -39.166 18 -53.499s28.333 -21.5 51 -21.5s39.5 7.16699 50.5 21.5s16.833 32.166 17.5 53.499h93z" />
    <glyph glyph-name="Gdotaccent" unicode="&#x120;" horiz-adv-x="723" 
d="M357 -10c-60.667 0 -113.835 13.332 -159.502 39.999s-81.167 65.334 -106.5 116.001s-38 111.667 -38 183c0 70.667 13.333 131.5 40 182.5s64.334 90.167 113.001 117.5s105.667 41 171 41c71.333 0 129 -13.167 173 -39.5s79 -67.166 105 -122.499l-128 -55
c-10.667 35.333 -28.834 61.5 -54.501 78.5s-57.167 25.5 -94.5 25.5s-69.666 -8.83301 -96.999 -26.5s-48.333 -43.334 -63 -77.001s-22 -74.834 -22 -123.501c0 -50 7 -92.167 21 -126.5s34.833 -60 62.5 -77s61.834 -25.5 102.501 -25.5c22 0 42.5 2.66699 61.5 8
s35.5 13.333 49.5 24s25 24.334 33 41.001s12 36 12 58v15h-173v101h292v-348h-97l-10 144l24 -17c-14.667 -44 -40.5 -77.833 -77.5 -101.5s-83.5 -35.5 -139.5 -35.5zM369.999 879.999c26 0 46 -6.5 60 -19.5s21 -30.833 21 -53.5c0 -23.333 -7 -41.333 -21 -54
s-34 -19 -60 -19c-25.333 0 -45 6.33301 -59 19s-21 30.667 -21 54c0 22.667 7 40.5 21 53.5s33.667 19.5 59 19.5z" />
    <glyph glyph-name="gdotaccent" unicode="&#x121;" horiz-adv-x="549" 
d="M533 619l16 -98c-2.66699 0 -5.5 0.166992 -8.5 0.5s-6.16699 0.5 -9.5 0.5c-30 0 -52.833 -6.83301 -68.5 -20.5s-23.5 -32.5 -23.5 -56.5l-56 23c0 26.667 5.33301 51.5 16 74.5s26.5 41.5 47.5 55.5s46.167 21 75.5 21h5h6zM369 94c54 0 95.667 -11.6689 125 -35.002
s44 -56 44 -98c0 -38 -11 -70.167 -33 -96.5s-52.833 -46.166 -92.5 -59.499s-85.5 -20 -137.5 -20c-86 0 -148.833 12 -188.5 36s-59.5 55.333 -59.5 94c0 27.333 10.5 50.333 31.5 69s55.833 29 104.5 31l-5 -16c-34.667 6 -61.167 17.5 -79.5 34.5s-27.5 40.5 -27.5 70.5
c0 30.667 11.833 55.834 35.5 75.501s55.834 31.167 96.501 34.5l60 -28h-14c-28.667 -2 -48.834 -7.83301 -60.501 -17.5s-17.5 -20.5 -17.5 -32.5c0 -14 5.5 -24.5 16.5 -31.5s26.833 -10.5 47.5 -10.5h154zM276 -121.002c34.667 0 63.167 3.00098 85.5 9.00098
s39 13.667 50 23s16.5 19.666 16.5 30.999c0 12.667 -5 22.834 -15 30.501s-28 11.5 -54 11.5h-169c-16 0 -29.167 -4 -39.5 -12s-15.5 -19 -15.5 -33c0 -18.667 12.5 -33.334 37.5 -44.001s59.5 -16 103.5 -16zM277 509.999c46.667 0 87.167 -6.83301 121.5 -20.5
s60.666 -33.167 78.999 -58.5s27.5 -55.666 27.5 -90.999c0 -34.667 -9.16699 -64.667 -27.5 -90s-44.666 -44.833 -78.999 -58.5s-74.833 -20.5 -121.5 -20.5c-74 0 -130.667 15.167 -170 45.5s-59 71.5 -59 123.5c0 35.333 9.33301 65.666 28 90.999s45 44.833 79 58.5
s74.667 20.5 122 20.5zM277 423.999c-26.667 0 -48.667 -7.33301 -66 -22s-26 -35 -26 -61s8.66699 -46.5 26 -61.5s39.333 -22.5 66 -22.5s48.5 7.5 65.5 22.5s25.5 35.5 25.5 61.5s-8.5 46.333 -25.5 61s-38.833 22 -65.5 22zM262 719.999c26 0 46 -6.5 60 -19.5
s21 -30.833 21 -53.5c0 -23.333 -7 -41.333 -21 -54s-34 -19 -60 -19c-25.333 0 -45 6.33301 -59 19s-21 30.667 -21 54c0 22.667 7 40.5 21 53.5s33.667 19.5 59 19.5z" />
    <glyph glyph-name="uni0122" unicode="&#x122;" horiz-adv-x="723" 
d="M357 -10c-60.667 0 -113.835 13.332 -159.502 39.999s-81.167 65.334 -106.5 116.001s-38 111.667 -38 183c0 70.667 13.333 131.5 40 182.5s64.334 90.167 113.001 117.5s105.667 41 171 41c71.333 0 129 -13.167 173 -39.5s79 -67.166 105 -122.499l-128 -55
c-10.667 35.333 -28.834 61.5 -54.501 78.5s-57.167 25.5 -94.5 25.5s-69.666 -8.83301 -96.999 -26.5s-48.333 -43.334 -63 -77.001s-22 -74.834 -22 -123.501c0 -50 7 -92.167 21 -126.5s34.833 -60 62.5 -77s61.834 -25.5 102.501 -25.5c22 0 42.5 2.66699 61.5 8
s35.5 13.333 49.5 24s25 24.334 33 41.001s12 36 12 58v15h-173v101h292v-348h-97l-10 144l24 -17c-14.667 -44 -40.5 -77.833 -77.5 -101.5s-83.5 -35.5 -139.5 -35.5zM462.999 -66.001l-69 -173h-93l37 173h125z" />
    <glyph glyph-name="uni0123" unicode="&#x123;" horiz-adv-x="549" 
d="M533 619l16 -98c-2.66699 0 -5.5 0.166992 -8.5 0.5s-6.16699 0.5 -9.5 0.5c-30 0 -52.833 -6.83301 -68.5 -20.5s-23.5 -32.5 -23.5 -56.5l-56 23c0 26.667 5.33301 51.5 16 74.5s26.5 41.5 47.5 55.5s46.167 21 75.5 21h5h6zM369 94c54 0 95.667 -11.6689 125 -35.002
s44 -56 44 -98c0 -38 -11 -70.167 -33 -96.5s-52.833 -46.166 -92.5 -59.499s-85.5 -20 -137.5 -20c-86 0 -148.833 12 -188.5 36s-59.5 55.333 -59.5 94c0 27.333 10.5 50.333 31.5 69s55.833 29 104.5 31l-5 -16c-34.667 6 -61.167 17.5 -79.5 34.5s-27.5 40.5 -27.5 70.5
c0 30.667 11.833 55.834 35.5 75.501s55.834 31.167 96.501 34.5l60 -28h-14c-28.667 -2 -48.834 -7.83301 -60.501 -17.5s-17.5 -20.5 -17.5 -32.5c0 -14 5.5 -24.5 16.5 -31.5s26.833 -10.5 47.5 -10.5h154zM276 -121.002c34.667 0 63.167 3.00098 85.5 9.00098
s39 13.667 50 23s16.5 19.666 16.5 30.999c0 12.667 -5 22.834 -15 30.501s-28 11.5 -54 11.5h-169c-16 0 -29.167 -4 -39.5 -12s-15.5 -19 -15.5 -33c0 -18.667 12.5 -33.334 37.5 -44.001s59.5 -16 103.5 -16zM277 509.999c46.667 0 87.167 -6.83301 121.5 -20.5
s60.666 -33.167 78.999 -58.5s27.5 -55.666 27.5 -90.999c0 -34.667 -9.16699 -64.667 -27.5 -90s-44.666 -44.833 -78.999 -58.5s-74.833 -20.5 -121.5 -20.5c-74 0 -130.667 15.167 -170 45.5s-59 71.5 -59 123.5c0 35.333 9.33301 65.666 28 90.999s45 44.833 79 58.5
s74.667 20.5 122 20.5zM277 423.999c-26.667 0 -48.667 -7.33301 -66 -22s-26 -35 -26 -61s8.66699 -46.5 26 -61.5s39.333 -22.5 66 -22.5s48.5 7.5 65.5 22.5s25.5 35.5 25.5 61.5s-8.5 46.333 -25.5 61s-38.833 22 -65.5 22zM374 773.999l-38 -202h-123l71 202h90z" />
    <glyph glyph-name="Hcircumflex" unicode="&#x124;" horiz-adv-x="739" 
d="M653 660v-660h-138v660h138zM224 660v-660h-138v660h138zM587 389v-111h-432v111h432zM543 730h-103l-70 98l-70 -98h-103l104 162h138z" />
    <glyph glyph-name="hcircumflex" unicode="&#x125;" horiz-adv-x="619" 
d="M72 0v719h137v-304c16 32 38 55.833 66 71.5s59.667 23.5 95 23.5c34.667 0 65.5 -6.66699 92.5 -20s48.333 -33.5 64 -60.5s23.5 -60.833 23.5 -101.5v-328h-137v288c0 43.333 -8.33301 73.166 -25 89.499s-38 24.5 -64 24.5c-19.333 0 -37.833 -4.5 -55.5 -13.5
s-32 -23.667 -43 -44s-16.5 -47.166 -16.5 -80.499v-264h-137zM314 776h-103l-70 98l-70 -98h-103l104 162h138z" />
    <glyph glyph-name="Hbar" unicode="&#x126;" horiz-adv-x="739" 
d="M653 660v-660h-138v660h138zM224 660v-660h-138v660h138zM587 389v-111h-432v111h432zM727 565v-86h-715v86h715z" />
    <glyph glyph-name="hbar" unicode="&#x127;" horiz-adv-x="619" 
d="M-4 632h353v-84h-353v84zM72 0v719h137v-304c16 32 38 55.833 66 71.5s59.667 23.5 95 23.5c34.667 0 65.5 -6.66699 92.5 -20s48.333 -33.5 64 -60.5s23.5 -60.833 23.5 -101.5v-328h-137v288c0 43.333 -8.33301 73.166 -25 89.499s-38 24.5 -64 24.5
c-19.333 0 -37.833 -4.5 -55.5 -13.5s-32 -23.667 -43 -44s-16.5 -47.166 -16.5 -80.499v-264h-137z" />
    <glyph glyph-name="Itilde" unicode="&#x128;" horiz-adv-x="310" 
d="M224 660v-660h-138v660h138zM346 878c-1.33301 -33.333 -7.16797 -61.167 -17.501 -83.5s-24.166 -39 -41.499 -50s-37.333 -16.5 -60 -16.5c-18.667 0 -34.667 3.16699 -48 9.5s-24.833 13.333 -34.5 21s-19 14.667 -28 21s-18.5 9.5 -28.5 9.5
c-12.667 0 -22.167 -5.16699 -28.5 -15.5s-10.833 -25.5 -13.5 -45.5h-84c2.66699 50 14.834 87.5 36.501 112.5s50.834 37.5 87.501 37.5c18 0 33.5 -3.16699 46.5 -9.5s24.167 -13.5 33.5 -21.5s18.166 -15 26.499 -21s17.5 -9 27.5 -9
c13.333 0 23.166 5.16699 29.499 15.5s10.5 25.5 12.5 45.5h84z" />
    <glyph glyph-name="itilde" unicode="&#x129;" horiz-adv-x="282" 
d="M209 500v-500h-137v500h137zM332 718c-1.33301 -33.333 -7.16797 -61.167 -17.501 -83.5s-24.166 -39 -41.499 -50s-37.333 -16.5 -60 -16.5c-18.667 0 -34.667 3.16699 -48 9.5s-24.833 13.333 -34.5 21s-19 14.667 -28 21s-18.5 9.5 -28.5 9.5
c-12.667 0 -22.167 -5.16699 -28.5 -15.5s-10.833 -25.5 -13.5 -45.5h-84c2.66699 50 14.834 87.5 36.501 112.5s50.834 37.5 87.501 37.5c18 0 33.5 -3.16699 46.5 -9.5s24.167 -13.5 33.5 -21.5s18.166 -15 26.499 -21s17.5 -9 27.5 -9
c13.333 0 23.166 5.16699 29.499 15.5s10.5 25.5 12.5 45.5h84z" />
    <glyph glyph-name="Imacron" unicode="&#x12a;" horiz-adv-x="310" 
d="M284 830v-91h-259v91h259zM224 660v-660h-138v660h138z" />
    <glyph glyph-name="imacron" unicode="&#x12b;" horiz-adv-x="282" 
d="M265 670v-91h-248v91h248zM209 500v-500h-137v500h137z" />
    <glyph glyph-name="Ibreve" unicode="&#x12c;" horiz-adv-x="310" 
d="M224 660v-660h-138v660h138zM316 880c0 -48 -14.5 -86.167 -43.5 -114.5s-68.167 -42.5 -117.5 -42.5c-48.667 0 -87.667 14.167 -117 42.5s-44 66.5 -44 114.5h93c0 -21.333 5.83301 -39.166 17.5 -53.499s28.5 -21.5 50.5 -21.5c22.667 0 39.667 7.16699 51 21.5
s17 32.166 17 53.499h93z" />
    <glyph glyph-name="ibreve" unicode="&#x12d;" horiz-adv-x="282" 
d="M209 500v-500h-137v500h137zM302 720c0 -48 -14.5 -86.167 -43.5 -114.5s-68.167 -42.5 -117.5 -42.5c-48.667 0 -87.667 14.167 -117 42.5s-44 66.5 -44 114.5h93c0 -21.333 5.83301 -39.166 17.5 -53.499s28.5 -21.5 50.5 -21.5c22.667 0 39.667 7.16699 51 21.5
s17 32.166 17 53.499h93z" />
    <glyph glyph-name="Iogonek" unicode="&#x12e;" horiz-adv-x="310" 
d="M147 -229c-23.333 0 -44.999 4 -64.999 12s-36.167 20.167 -48.5 36.5s-18.5 37.166 -18.5 62.499c0 28.667 6.5 52.334 19.5 71.001s31 34.5 54 47.5s48.833 24.167 77.5 33.5l58 -34c-36.667 -17.333 -63.334 -33.833 -80.001 -49.5s-25 -32.5 -25 -50.5
c0 -14.667 4.5 -26.167 13.5 -34.5s22.5 -12.5 40.5 -12.5c7.33301 0 15.333 0.833008 24 2.5s15.667 3.83398 21 6.50098l20 -70c-11.333 -6.66699 -24.5 -11.834 -39.5 -15.501s-32.167 -5.5 -51.5 -5.5zM224.001 660v-660h-138v660h138z" />
    <glyph glyph-name="iogonek" unicode="&#x12f;" horiz-adv-x="282" 
d="M132 -229c-22.667 0 -44.167 4 -64.5 12s-36.5 20.167 -48.5 36.5s-18 37.166 -18 62.499c0 28.667 6.5 52.334 19.5 71.001s30.833 34.5 53.5 47.5s48.667 24.167 78 33.5l57 -34c-36.667 -17.333 -63.334 -33.833 -80.001 -49.5s-25 -32.5 -25 -50.5
c0 -14.667 4.66699 -26.167 14 -34.5s22.666 -12.5 39.999 -12.5c8 0 16.167 0.833008 24.5 2.5s15.5 3.83398 21.5 6.50098l20 -70c-11.333 -6.66699 -24.666 -11.834 -39.999 -15.501s-32.666 -5.5 -51.999 -5.5zM141 572c-28.667 0 -50 6.16699 -64 18.5
s-21 30.5 -21 54.5c0 24.667 7 43.167 21 55.5s35.333 18.5 64 18.5s50 -6.16699 64 -18.5s21 -30.833 21 -55.5c0 -24 -7 -42.167 -21 -54.5s-35.333 -18.5 -64 -18.5zM209 500v-500h-137v500h137z" />
    <glyph glyph-name="Idotaccent" unicode="&#x130;" horiz-adv-x="310" 
d="M224 660v-660h-138v660h138zM155 880c26 0 46 -6.5 60 -19.5s21 -30.833 21 -53.5c0 -23.333 -7 -41.333 -21 -54s-34 -19 -60 -19c-25.333 0 -45 6.33301 -59 19s-21 30.667 -21 54c0 22.667 7 40.5 21 53.5s33.667 19.5 59 19.5z" />
    <glyph glyph-name="dotlessi" unicode="&#x131;" horiz-adv-x="282" 
d="M209 500v-500h-137v500h137z" />
    <glyph glyph-name="IJ" unicode="&#x132;" horiz-adv-x="909" 
d="M224 660v-660h-138v660h138zM833 660l0.00195312 -417.001c0 -79.333 -22.333 -141.333 -67 -186s-108 -67 -190 -67c-58.667 0 -106.334 10.667 -143.001 32s-62 51.333 -76 90s-16.667 83 -8 133l134 24c-8 -58.667 -4.33301 -101 11 -127s43.666 -39 84.999 -39
c43.333 0 73.5 13.333 90.5 40s25.5 66.334 25.5 119.001v398h138z" />
    <glyph glyph-name="ij" unicode="&#x133;" horiz-adv-x="564" 
d="M141 572c-28.667 0 -50 6.16699 -64 18.5s-21 30.5 -21 54.5c0 24.667 7 43.167 21 55.5s35.333 18.5 64 18.5s50 -6.16699 64 -18.5s21 -30.833 21 -55.5c0 -24 -7 -42.167 -21 -54.5s-35.333 -18.5 -64 -18.5zM209 500v-500h-137v500h137zM423 572
c-28.667 0 -50 6.16699 -64 18.5s-21 30.5 -21 54.5c0 24.667 7 43.167 21 55.5s35.333 18.5 64 18.5s50 -6.16699 64 -18.5s21 -30.833 21 -55.5c0 -24 -7 -42.167 -21 -54.5s-35.333 -18.5 -64 -18.5zM491 500v-536.999c0 -43.333 -7.83301 -78 -23.5 -104
s-36.834 -44.833 -63.501 -56.5s-57 -17.5 -91 -17.5c-24.667 0 -47 2.83301 -67 8.5s-37.667 13.5 -53 23.5l22 98c8 -6.66699 18 -12.167 30 -16.5s25.333 -6.5 40 -6.5c20.667 0 37.334 6.16699 50.001 18.5s19 34.166 19 65.499v524h137z" />
    <glyph glyph-name="Jcircumflex" unicode="&#x134;" horiz-adv-x="599" 
d="M523 660l0.00195312 -417.001c0 -79.333 -22.333 -141.333 -67 -186s-108 -67 -190 -67c-58.667 0 -106.334 10.667 -143.001 32s-62 51.333 -76 90s-16.667 83 -8 133l134 24c-8 -58.667 -4.33301 -101 11 -127s43.666 -39 84.999 -39c43.333 0 73.5 13.333 90.5 40
s25.5 66.334 25.5 119.001v398h138zM627.002 729.999h-103l-70 98l-70 -98h-103l104 162h138z" />
    <glyph glyph-name="jcircumflex" unicode="&#x135;" horiz-adv-x="282" 
d="M209 500v-536.999c0 -43.333 -7.83301 -78 -23.5 -104s-36.834 -44.833 -63.501 -56.5s-57 -17.5 -91 -17.5c-24.667 0 -47 2.83301 -67 8.5s-37.667 13.5 -53 23.5l22 98c8 -6.66699 18 -12.167 30 -16.5s25.333 -6.5 40 -6.5c20.667 0 37.334 6.16699 50.001 18.5
s19 34.166 19 65.499v524h137zM321 565.001h-105l-75 98l-75 -98h-105l111 171h138z" />
    <glyph glyph-name="uni0136" unicode="&#x136;" horiz-adv-x="679" 
d="M655 660l-302 -343l-11 11l-165 -187l-21 128l339 391h160zM224 660v-660h-138v660h138zM391 432l272 -432h-158l-220 355zM435 -66l-69 -173h-93l37 173h125z" />
    <glyph glyph-name="uni0137" unicode="&#x137;" horiz-adv-x="602" 
d="M581 500l-231 -241l-27 -13l-150 -161l-2 146l254 269h156zM209 719v-719h-137v719h137zM369 341l224 -341h-155l-163 261zM391 -66l-69 -173h-93l37 173h125z" />
    <glyph glyph-name="kgreenlandic" unicode="&#x138;" horiz-adv-x="602" 
d="M581 500l-231 -241l-27 -13l-150 -161l-2 146l255 269h155zM209 500v-500h-137v500h137zM369 341l224 -341h-155l-163 261z" />
    <glyph glyph-name="Lacute" unicode="&#x139;" horiz-adv-x="601" 
d="M224 111h348v-111h-486v660h138v-549zM157 892h126l-88 -162h-101z" />
    <glyph glyph-name="lacute" unicode="&#x13a;" horiz-adv-x="319" 
d="M207 719l0.00195312 -565c0 -23.333 4 -39.666 12 -48.999s21.333 -14 40 -14c11.333 0 20.666 0.833008 27.999 2.5s16.666 4.16699 27.999 7.5l-12 -90c-11.333 -6.66699 -25.5 -11.834 -42.5 -15.501s-33.833 -5.5 -50.5 -5.5c-48.667 0 -84.167 11.833 -106.5 35.5
s-33.5 61.5 -33.5 113.5v580h137zM69.002 779l54 145h126l-80 -145h-100z" />
    <glyph glyph-name="uni013B" unicode="&#x13b;" horiz-adv-x="601" 
d="M224 111h348v-111h-486v660h138v-549zM413 -66l-69 -173h-93l37 173h125z" />
    <glyph glyph-name="uni013C" unicode="&#x13c;" horiz-adv-x="319" 
d="M207 719l0.00195312 -565c0 -23.333 4 -39.666 12 -48.999s21.333 -14 40 -14c11.333 0 20.666 0.833008 27.999 2.5s16.666 4.16699 27.999 7.5l-12 -90c-11.333 -6.66699 -25.5 -11.834 -42.5 -15.501s-33.833 -5.5 -50.5 -5.5c-48.667 0 -84.167 11.833 -106.5 35.5
s-33.5 61.5 -33.5 113.5v580h137zM264.002 -66l-69 -173h-93l37 173h125z" />
    <glyph glyph-name="Lcaron" unicode="&#x13d;" horiz-adv-x="601" 
d="M487 660l-53 -224h-92l23 224h122zM224 111h348v-111h-486v660h138v-549z" />
    <glyph glyph-name="lcaron" unicode="&#x13e;" horiz-adv-x="363" 
d="M383 719l-49 -224h-82l21 224h110zM207 719l0.00195312 -565c0 -23.333 4 -39.666 12 -48.999s21.333 -14 40 -14c11.333 0 20.666 0.833008 27.999 2.5s16.666 4.16699 27.999 7.5l-12 -90c-11.333 -6.66699 -25.5 -11.834 -42.5 -15.501s-33.833 -5.5 -50.5 -5.5
c-48.667 0 -84.167 11.833 -106.5 35.5s-33.5 61.5 -33.5 113.5v580h137z" />
    <glyph glyph-name="Ldot" unicode="&#x13f;" horiz-adv-x="634" 
d="M224 111h348v-111h-486v660h138v-549zM478 449c26.667 0 47.834 -7.33301 63.501 -22s23.5 -34.334 23.5 -59.001c0 -25.333 -7.83301 -45.166 -23.5 -59.499s-36.834 -21.5 -63.501 -21.5s-47.834 7.16699 -63.501 21.5s-23.5 34.166 -23.5 59.499
c0 24.667 7.83301 44.334 23.5 59.001s36.834 22 63.501 22z" />
    <glyph glyph-name="ldot" unicode="&#x140;" horiz-adv-x="464" 
d="M207 719l0.00195312 -565c0 -23.333 4 -39.666 12 -48.999s21.333 -14 40 -14c11.333 0 20.666 0.833008 27.999 2.5s16.666 4.16699 27.999 7.5l-12 -90c-11.333 -6.66699 -25.5 -11.834 -42.5 -15.501s-33.833 -5.5 -50.5 -5.5c-48.667 0 -84.167 11.833 -106.5 35.5
s-33.5 61.5 -33.5 113.5v580h137zM372.002 442c26.667 0 47.834 -7.33301 63.501 -22s23.5 -34.334 23.5 -59.001c0 -25.333 -7.83301 -45.166 -23.5 -59.499s-36.834 -21.5 -63.501 -21.5s-47.834 7.16699 -63.501 21.5s-23.5 34.166 -23.5 59.499
c0 24.667 7.83301 44.334 23.5 59.001s36.834 22 63.501 22z" />
    <glyph glyph-name="Lslash" unicode="&#x141;" horiz-adv-x="653" 
d="M450 498v-110l-420 -211v110zM277 111h348v-111h-486v660h138v-549z" />
    <glyph glyph-name="lslash" unicode="&#x142;" horiz-adv-x="394" 
d="M365 506v-106l-138 -86l-38 -16l-161 -98v106l139 84l39 14zM255 719l0.00195312 -565c0 -23.333 4 -39.666 12 -48.999s21.333 -14 40 -14c11.333 0 20.666 0.833008 27.999 2.5s16.666 4.16699 27.999 7.5l-12 -90c-11.333 -6.66699 -25.5 -11.834 -42.5 -15.501
s-33.833 -5.5 -50.5 -5.5c-48.667 0 -84.167 11.833 -106.5 35.5s-33.5 61.5 -33.5 113.5v580h137z" />
    <glyph glyph-name="Nacute" unicode="&#x143;" horiz-adv-x="739" 
d="M653 660v-660h-158l-231 388l-57 108h-1l4 -114v-382h-124v660h157l231 -387l57 -109h2l-4 114v382h124zM374 892h126l-88 -162h-101z" />
    <glyph glyph-name="nacute" unicode="&#x144;" horiz-adv-x="619" 
d="M72 0l0.00195312 500h123l8 -150l-17 16c8 32.667 20.667 59.5 38 80.5s38.5 36.833 63.5 47.5s52.5 16 82.5 16c34.667 0 65.5 -6.66699 92.5 -20s48.333 -33.5 64 -60.5s23.5 -60.833 23.5 -101.5v-328h-137v289c0 42.667 -8.33301 72.167 -25 88.5
s-38.334 24.5 -65.001 24.5c-18.667 0 -36.834 -4.5 -54.501 -13.5s-32 -23.5 -43 -43.5s-16.5 -46.667 -16.5 -80v-265h-137zM318.002 742h132l-100 -170h-101z" />
    <glyph glyph-name="uni0145" unicode="&#x145;" horiz-adv-x="739" 
d="M653 660v-660h-158l-231 388l-57 108h-1l4 -114v-382h-124v660h157l231 -387l57 -109h2l-4 114v382h124zM456 -66l-69 -173h-93l37 173h125z" />
    <glyph glyph-name="uni0146" unicode="&#x146;" horiz-adv-x="619" 
d="M72 0l0.00195312 500h123l8 -150l-17 16c8 32.667 20.667 59.5 38 80.5s38.5 36.833 63.5 47.5s52.5 16 82.5 16c34.667 0 65.5 -6.66699 92.5 -20s48.333 -33.5 64 -60.5s23.5 -60.833 23.5 -101.5v-328h-137v289c0 42.667 -8.33301 72.167 -25 88.5
s-38.334 24.5 -65.001 24.5c-18.667 0 -36.834 -4.5 -54.501 -13.5s-32 -23.5 -43 -43.5s-16.5 -46.667 -16.5 -80v-265h-137zM395.002 -66l-69 -173h-93l37 173h125z" />
    <glyph glyph-name="Ncaron" unicode="&#x147;" horiz-adv-x="739" 
d="M653 660v-660h-158l-231 388l-57 108h-1l4 -114v-382h-124v660h157l231 -387l57 -109h2l-4 114v382h124zM545 892l-104 -162h-138l-104 162h103l70 -97l70 97h103z" />
    <glyph glyph-name="ncaron" unicode="&#x148;" horiz-adv-x="619" 
d="M72 0l0.00195312 500h123l8 -150l-17 16c8 32.667 20.667 59.5 38 80.5s38.5 36.833 63.5 47.5s52.5 16 82.5 16c34.667 0 65.5 -6.66699 92.5 -20s48.333 -33.5 64 -60.5s23.5 -60.833 23.5 -101.5v-328h-137v289c0 42.667 -8.33301 72.167 -25 88.5
s-38.334 24.5 -65.001 24.5c-18.667 0 -36.834 -4.5 -54.501 -13.5s-32 -23.5 -43 -43.5s-16.5 -46.667 -16.5 -80v-265h-137zM492.002 742l-111 -170h-137l-111 170h105l75 -98l75 98h104z" />
    <glyph glyph-name="Eng" unicode="&#x14a;" horiz-adv-x="739" 
d="M483 -215c-24 0 -45.5 2.66797 -64.5 8.00098s-35.833 12.333 -50.5 21l20 103c8.66699 -6.66699 19.167 -12.334 31.5 -17.001s26.5 -7 42.5 -7c19.333 0 35.333 6.16699 48 18.5s19 33.833 19 64.5v29l-263 388l-59 106h-1l4 -117v-382h-124v660h157l240 -361l45 -84h1
v445h124v-697c0 -43.333 -7.66699 -78 -23 -104s-35.833 -44.833 -61.5 -56.5s-54.167 -17.5 -85.5 -17.5z" />
    <glyph glyph-name="eng" unicode="&#x14b;" horiz-adv-x="619" 
d="M550 183l-0.000976562 -211.999c0 -46 -7.83301 -82.667 -23.5 -110s-36.667 -46.833 -63 -58.5s-55.833 -17.5 -88.5 -17.5c-26.667 0 -50 2.83301 -70 8.5s-37.667 13.5 -53 23.5l22 98c8 -6.66699 18 -12.167 30 -16.5s25.333 -6.5 40 -6.5
c20.667 0 37.334 6.16699 50.001 18.5s19 34.166 19 65.499v207h137zM71.999 0.000976562l0.00195312 500h123l8 -150l-17 16c8 32.667 20.667 59.5 38 80.5s38.5 36.833 63.5 47.5s52.5 16 82.5 16c34.667 0 65.5 -6.66699 92.5 -20s48.333 -33.5 64 -60.5
s23.5 -60.833 23.5 -101.5v-328h-137v289c0 42.667 -8.33301 72.167 -25 88.5s-38.334 24.5 -65.001 24.5c-18.667 0 -36.834 -4.5 -54.501 -13.5s-32 -23.5 -43 -43.5s-16.5 -46.667 -16.5 -80v-265h-137z" />
    <glyph glyph-name="Omacron" unicode="&#x14c;" horiz-adv-x="741" 
d="M371 670c65.333 0 121.666 -13.667 168.999 -41s83.833 -66.333 109.5 -117s38.5 -111.334 38.5 -182.001s-12.833 -131.334 -38.5 -182.001s-62.167 -89.667 -109.5 -117s-103.666 -41 -168.999 -41s-121.833 13.667 -169.5 41s-84.334 66.333 -110.001 117
s-38.5 111.334 -38.5 182.001s12.833 131.334 38.5 182.001s62.334 89.667 110.001 117s104.167 41 169.5 41zM371 557c-36.667 0 -68.167 -8.66699 -94.5 -26s-46.333 -43 -60 -77s-20.5 -75.333 -20.5 -124s6.83301 -90 20.5 -124s33.667 -59.667 60 -77
s57.833 -26 94.5 -26s68 8.66699 94 26s45.833 43 59.5 77s20.5 75.333 20.5 124s-6.83301 90 -20.5 124s-33.5 59.667 -59.5 77s-57.333 26 -94 26zM546 830v-91h-350v91h350z" />
    <glyph glyph-name="omacron" unicode="&#x14d;" horiz-adv-x="599" 
d="M300 510c50.667 0 95.167 -10.333 133.5 -31s68.333 -50.334 90 -89.001s32.5 -85.334 32.5 -140.001c0 -54 -10.833 -100.5 -32.5 -139.5s-51.667 -68.833 -90 -89.5s-82.833 -31 -133.5 -31c-50 0 -94.333 10.333 -133 31s-68.834 50.5 -90.501 89.5
s-32.5 85.5 -32.5 139.5c0 54.667 10.833 101.334 32.5 140.001s51.834 68.334 90.501 89.001s83 31 133 31zM300 408c-25.333 0 -46.833 -5.83301 -64.5 -17.5s-31.167 -29.167 -40.5 -52.5s-14 -52.666 -14 -87.999s4.66699 -64.666 14 -87.999s22.833 -40.833 40.5 -52.5
s39.167 -17.5 64.5 -17.5c24.667 0 45.834 5.83301 63.501 17.5s31.167 29.167 40.5 52.5s14 52.666 14 87.999s-4.66699 64.666 -14 87.999s-22.833 40.833 -40.5 52.5s-38.834 17.5 -63.501 17.5zM475 670v-91h-350v91h350z" />
    <glyph glyph-name="Obreve" unicode="&#x14e;" horiz-adv-x="741" 
d="M371 670c65.333 0 121.666 -13.667 168.999 -41s83.833 -66.333 109.5 -117s38.5 -111.334 38.5 -182.001s-12.833 -131.334 -38.5 -182.001s-62.167 -89.667 -109.5 -117s-103.666 -41 -168.999 -41s-121.833 13.667 -169.5 41s-84.334 66.333 -110.001 117
s-38.5 111.334 -38.5 182.001s12.833 131.334 38.5 182.001s62.334 89.667 110.001 117s104.167 41 169.5 41zM371 557c-36.667 0 -68.167 -8.66699 -94.5 -26s-46.333 -43 -60 -77s-20.5 -75.333 -20.5 -124s6.83301 -90 20.5 -124s33.667 -59.667 60 -77
s57.833 -26 94.5 -26s68 8.66699 94 26s45.833 43 59.5 77s20.5 75.333 20.5 124s-6.83301 90 -20.5 124s-33.5 59.667 -59.5 77s-57.333 26 -94 26zM532 880c0 -48 -14.5 -86.167 -43.5 -114.5s-68.167 -42.5 -117.5 -42.5c-48.667 0 -87.667 14.167 -117 42.5
s-44 66.5 -44 114.5h93c0 -21.333 5.83301 -39.166 17.5 -53.499s28.5 -21.5 50.5 -21.5c22.667 0 39.667 7.16699 51 21.5s17 32.166 17 53.499h93z" />
    <glyph glyph-name="obreve" unicode="&#x14f;" horiz-adv-x="599" 
d="M300 510c50.667 0 95.167 -10.333 133.5 -31s68.333 -50.334 90 -89.001s32.5 -85.334 32.5 -140.001c0 -54 -10.833 -100.5 -32.5 -139.5s-51.667 -68.833 -90 -89.5s-82.833 -31 -133.5 -31c-50 0 -94.333 10.333 -133 31s-68.834 50.5 -90.501 89.5
s-32.5 85.5 -32.5 139.5c0 54.667 10.833 101.334 32.5 140.001s51.834 68.334 90.501 89.001s83 31 133 31zM300 408c-25.333 0 -46.833 -5.83301 -64.5 -17.5s-31.167 -29.167 -40.5 -52.5s-14 -52.666 -14 -87.999s4.66699 -64.666 14 -87.999s22.833 -40.833 40.5 -52.5
s39.167 -17.5 64.5 -17.5c24.667 0 45.834 5.83301 63.501 17.5s31.167 29.167 40.5 52.5s14 52.666 14 87.999s-4.66699 64.666 -14 87.999s-22.833 40.833 -40.5 52.5s-38.834 17.5 -63.501 17.5zM461 720c0 -48 -14.5 -86.167 -43.5 -114.5s-68.167 -42.5 -117.5 -42.5
c-48.667 0 -87.667 14.167 -117 42.5s-44 66.5 -44 114.5h93c0 -21.333 5.83301 -39.166 17.5 -53.499s28.5 -21.5 50.5 -21.5c22.667 0 39.667 7.16699 51 21.5s17 32.166 17 53.499h93z" />
    <glyph glyph-name="Ohungarumlaut" unicode="&#x150;" horiz-adv-x="741" 
d="M371 670c65.333 0 121.666 -13.667 168.999 -41s83.833 -66.333 109.5 -117s38.5 -111.334 38.5 -182.001s-12.833 -131.334 -38.5 -182.001s-62.167 -89.667 -109.5 -117s-103.666 -41 -168.999 -41s-121.833 13.667 -169.5 41s-84.334 66.333 -110.001 117
s-38.5 111.334 -38.5 182.001s12.833 131.334 38.5 182.001s62.334 89.667 110.001 117s104.167 41 169.5 41zM371 557c-36.667 0 -68.167 -8.66699 -94.5 -26s-46.333 -43 -60 -77s-20.5 -75.333 -20.5 -124s6.83301 -90 20.5 -124s33.667 -59.667 60 -77
s57.833 -26 94.5 -26s68 8.66699 94 26s45.833 43 59.5 77s20.5 75.333 20.5 124s-6.83301 90 -20.5 124s-33.5 59.667 -59.5 77s-57.333 26 -94 26zM483 892h126l-88 -162h-101zM277 892h126l-88 -162h-101z" />
    <glyph glyph-name="ohungarumlaut" unicode="&#x151;" horiz-adv-x="599" 
d="M300 510c50.667 0 95.167 -10.333 133.5 -31s68.333 -50.334 90 -89.001s32.5 -85.334 32.5 -140.001c0 -54 -10.833 -100.5 -32.5 -139.5s-51.667 -68.833 -90 -89.5s-82.833 -31 -133.5 -31c-50 0 -94.333 10.333 -133 31s-68.834 50.5 -90.501 89.5
s-32.5 85.5 -32.5 139.5c0 54.667 10.833 101.334 32.5 140.001s51.834 68.334 90.501 89.001s83 31 133 31zM300 408c-25.333 0 -46.833 -5.83301 -64.5 -17.5s-31.167 -29.167 -40.5 -52.5s-14 -52.666 -14 -87.999s4.66699 -64.666 14 -87.999s22.833 -40.833 40.5 -52.5
s39.167 -17.5 64.5 -17.5c24.667 0 45.834 5.83301 63.501 17.5s31.167 29.167 40.5 52.5s14 52.666 14 87.999s-4.66699 64.666 -14 87.999s-22.833 40.833 -40.5 52.5s-38.834 17.5 -63.501 17.5zM334 572l72 170h123l-96 -170h-99zM135 572l72 170h123l-96 -170h-99z" />
    <glyph glyph-name="OE" unicode="&#x152;" horiz-adv-x="1060" 
d="M669 111l353 -0.00195312v-111h-453v86c-24 -30 -53.667 -53.5 -89 -70.5s-75 -25.5 -119 -25.5c-63.333 0 -118 13.667 -164 41s-81.5 66.333 -106.5 117s-37.5 111.334 -37.5 182.001s12.5 131.334 37.5 182.001s60.667 89.667 107 117s101.5 41 165.5 41
c44 0 83.333 -8.33301 118 -25s64 -40 88 -70v85h439v-111h-339v-164h263v-106h-263v-168zM368 102.998c34.667 0 64.5 8.66699 89.5 26s44.167 43 57.5 77s20 75.333 20 124s-6.66699 90 -20 124s-32.5 59.667 -57.5 77s-54.833 26 -89.5 26
c-37.333 0 -69 -8.66699 -95 -26s-45.667 -43 -59 -77s-20 -75.333 -20 -124s6.66699 -90 20 -124s33 -59.667 59 -77s57.667 -26 95 -26z" />
    <glyph glyph-name="oe" unicode="&#x153;" horiz-adv-x="957" 
d="M294 -10c-46.667 0 -89.1641 10.3311 -127.497 30.998s-68.333 50.5 -90 89.5s-32.5 85.5 -32.5 139.5c0 54.667 10.833 101.334 32.5 140.001s51.667 68.334 90 89.001s80.833 31 127.5 31c50 0 93.5 -11.167 130.5 -33.5s64.833 -55.166 83.5 -98.499l-40 -1
c18.667 44 46.167 77.167 82.5 99.5s79.166 33.5 128.499 33.5c48.667 0 90.5 -10 125.5 -30s62 -47.667 81 -83s28.5 -75.333 28.5 -120c0 -11.333 -0.5 -22 -1.5 -32s-2.16699 -18.667 -3.5 -26h-398v76h271c-1.33301 36.667 -11.5 64.834 -30.5 84.501
s-44.5 29.5 -76.5 29.5c-26 0 -48 -6 -66 -18s-31.833 -29.833 -41.5 -53.5s-14.5 -53.5 -14.5 -89.5c0 -34.667 5.16699 -63.834 15.5 -87.501s25.166 -41 44.499 -52s42.333 -16.5 69 -16.5c29.333 0 53 5.66699 71 17s32 27 42 47l109 -42
c-10.667 -26 -26.834 -48.333 -48.501 -67s-47.167 -32.834 -76.5 -42.501s-61.333 -14.5 -96 -14.5c-50 0 -93.667 11 -131 33s-65.333 54.667 -84 98h40c-18 -43.333 -45.667 -76 -83 -98s-81 -33 -131 -33zM300.003 91.998c24.667 0 45.834 5.83301 63.501 17.5
s31.167 29.167 40.5 52.5s14 52.666 14 87.999s-4.66699 64.666 -14 87.999s-22.833 40.833 -40.5 52.5s-38.834 17.5 -63.501 17.5c-25.333 0 -46.833 -5.83301 -64.5 -17.5s-31.167 -29.167 -40.5 -52.5s-14 -52.666 -14 -87.999s4.66699 -64.666 14 -87.999
s22.833 -40.833 40.5 -52.5s39.167 -17.5 64.5 -17.5z" />
    <glyph glyph-name="Racute" unicode="&#x154;" horiz-adv-x="680" 
d="M377 660c74.667 0 133.333 -18 176 -54s64 -84.333 64 -145c0 -64.667 -21.333 -114.167 -64 -148.5s-101 -51.5 -175 -51.5l-14 -8h-142v-253h-136v660h291zM360.999 358c38.667 0 67.5 7.83105 86.5 23.498s28.5 39.834 28.5 72.501s-9.5 56.834 -28.5 72.501
s-47.833 23.5 -86.5 23.5h-139v-192h139zM441.999 328.998l214 -329h-155l-177 289zM328.999 891.998h126l-88 -162h-101z" />
    <glyph glyph-name="racute" unicode="&#x155;" horiz-adv-x="422" 
d="M72 0l0.000976562 500h119l9 -98c13.333 34.667 32.833 61.334 58.5 80.001s57.834 28 96.501 28c11.333 0 21.666 -1 30.999 -3s17 -4.66699 23 -8l-16 -115c-6.66699 2.66699 -14.834 4.66699 -24.501 6s-22.167 2 -37.5 2c-20 0 -39.333 -4.83301 -58 -14.5
s-34 -24.334 -46 -44.001s-18 -44.5 -18 -74.5v-259h-137zM243.001 742h132l-100 -170h-101z" />
    <glyph glyph-name="uni0156" unicode="&#x156;" horiz-adv-x="680" 
d="M377 660c74.667 0 133.333 -18 176 -54s64 -84.333 64 -145c0 -64.667 -21.333 -114.167 -64 -148.5s-101 -51.5 -175 -51.5l-14 -8h-142v-253h-136v660h291zM360.999 358c38.667 0 67.5 7.83105 86.5 23.498s28.5 39.834 28.5 72.501s-9.5 56.834 -28.5 72.501
s-47.833 23.5 -86.5 23.5h-139v-192h139zM441.999 328.998l214 -329h-155l-177 289zM431.999 -66.002l-69 -173h-93l37 173h125z" />
    <glyph glyph-name="uni0157" unicode="&#x157;" horiz-adv-x="422" 
d="M72 0l0.000976562 500h119l9 -98c13.333 34.667 32.833 61.334 58.5 80.001s57.834 28 96.501 28c11.333 0 21.666 -1 30.999 -3s17 -4.66699 23 -8l-16 -115c-6.66699 2.66699 -14.834 4.66699 -24.501 6s-22.167 2 -37.5 2c-20 0 -39.333 -4.83301 -58 -14.5
s-34 -24.334 -46 -44.001s-18 -44.5 -18 -74.5v-259h-137zM209.001 -66l-69 -173h-93l37 173h125z" />
    <glyph glyph-name="Rcaron" unicode="&#x158;" horiz-adv-x="680" 
d="M377 660c74.667 0 133.333 -18 176 -54s64 -84.333 64 -145c0 -64.667 -21.333 -114.167 -64 -148.5s-101 -51.5 -175 -51.5l-14 -8h-142v-253h-136v660h291zM360.999 358c38.667 0 67.5 7.83105 86.5 23.498s28.5 39.834 28.5 72.501s-9.5 56.834 -28.5 72.501
s-47.833 23.5 -86.5 23.5h-139v-192h139zM441.999 328.998l214 -329h-155l-177 289zM499.999 891.998l-104 -162h-138l-104 162h103l70 -97l70 97h103z" />
    <glyph glyph-name="rcaron" unicode="&#x159;" horiz-adv-x="422" 
d="M72 0l0.000976562 500h119l9 -98c13.333 34.667 32.833 61.334 58.5 80.001s57.834 28 96.501 28c11.333 0 21.666 -1 30.999 -3s17 -4.66699 23 -8l-16 -115c-6.66699 2.66699 -14.834 4.66699 -24.501 6s-22.167 2 -37.5 2c-20 0 -39.333 -4.83301 -58 -14.5
s-34 -24.334 -46 -44.001s-18 -44.5 -18 -74.5v-259h-137zM417.001 742l-111 -170h-137l-111 170h105l75 -98l75 98h104z" />
    <glyph glyph-name="Sacute" unicode="&#x15a;" horiz-adv-x="644" 
d="M327 670c60 0 112.67 -10.3291 158.003 -30.9961s84 -51.334 116 -92.001l-77 -89c-27.333 34.667 -57.166 60.167 -89.499 76.5s-69.833 24.5 -112.5 24.5c-28 0 -51.167 -3.66699 -69.5 -11s-31.666 -17 -39.999 -29s-12.5 -25.333 -12.5 -40c0 -18 7 -33.167 21 -45.5
s38 -22.5 72 -30.5l123 -28c65.333 -14.667 112.166 -36.5 140.499 -65.5s42.5 -66.5 42.5 -112.5c0 -43.333 -11.333 -80.5 -34 -111.5s-54.334 -54.667 -95.001 -71s-87.334 -24.5 -140.001 -24.5c-46 0 -88.167 5.5 -126.5 16.5s-72.5 26.167 -102.5 45.5
s-55 41.666 -75 66.999l78 93c15.333 -21.333 34.333 -40.333 57 -57s48.5 -29.834 77.5 -39.501s59.5 -14.5 91.5 -14.5c27.333 0 50.5 3.16699 69.5 9.5s33.333 15.333 43 27s14.5 25.834 14.5 42.501c0 17.333 -5.83301 32.166 -17.5 44.499s-33.167 21.833 -64.5 28.5
l-134 30c-38.667 9.33301 -71.834 21.5 -99.501 36.5s-48.667 34.333 -63 58s-21.5 51.834 -21.5 84.501c0 39.333 10.667 74.666 32 105.999s52.166 56.166 92.499 74.499s88.833 27.5 145.5 27.5zM330.003 892.004h126l-88 -162h-101z" />
    <glyph glyph-name="sacute" unicode="&#x15b;" horiz-adv-x="531" 
d="M272 -10c-50.667 0 -96.833 9 -138.5 27s-75.5 43.333 -101.5 76l79 80c16 -24 37.333 -43.667 64 -59s58.334 -23 95.001 -23c26 0 46.833 3.83301 62.5 11.5s23.5 19.834 23.5 36.501c0 10.667 -3.66699 19.834 -11 27.501s-22 13.834 -44 18.501l-88 18
c-58 12 -99.167 30.167 -123.5 54.5s-36.5 55.833 -36.5 94.5c0 27.333 8.16699 53 24.5 77s40.833 43.5 73.5 58.5s73.334 22.5 122.001 22.5c50 0 93.5 -7.83301 130.5 -23.5s66.167 -38.834 87.5 -69.501l-82 -80c-14.667 23.333 -33.834 41.166 -57.501 53.499
s-48.5 18.5 -74.5 18.5c-18.667 0 -34.667 -2 -48 -6s-23.333 -9.5 -30 -16.5s-10 -15.833 -10 -26.5s4.66699 -19.834 14 -27.501s26.333 -14.167 51 -19.5l102 -21c49.333 -10 84.666 -26.833 105.999 -50.5s32 -52.167 32 -85.5c0 -32 -8.5 -60.5 -25.5 -85.5
s-42 -44.667 -75 -59s-73.5 -21.5 -121.5 -21.5zM273.001 742h132l-100 -170h-101z" />
    <glyph glyph-name="Scircumflex" unicode="&#x15c;" horiz-adv-x="644" 
d="M327 670c60 0 112.67 -10.3291 158.003 -30.9961s84 -51.334 116 -92.001l-77 -89c-27.333 34.667 -57.166 60.167 -89.499 76.5s-69.833 24.5 -112.5 24.5c-28 0 -51.167 -3.66699 -69.5 -11s-31.666 -17 -39.999 -29s-12.5 -25.333 -12.5 -40c0 -18 7 -33.167 21 -45.5
s38 -22.5 72 -30.5l123 -28c65.333 -14.667 112.166 -36.5 140.499 -65.5s42.5 -66.5 42.5 -112.5c0 -43.333 -11.333 -80.5 -34 -111.5s-54.334 -54.667 -95.001 -71s-87.334 -24.5 -140.001 -24.5c-46 0 -88.167 5.5 -126.5 16.5s-72.5 26.167 -102.5 45.5
s-55 41.666 -75 66.999l78 93c15.333 -21.333 34.333 -40.333 57 -57s48.5 -29.834 77.5 -39.501s59.5 -14.5 91.5 -14.5c27.333 0 50.5 3.16699 69.5 9.5s33.333 15.333 43 27s14.5 25.834 14.5 42.501c0 17.333 -5.83301 32.166 -17.5 44.499s-33.167 21.833 -64.5 28.5
l-134 30c-38.667 9.33301 -71.834 21.5 -99.501 36.5s-48.667 34.333 -63 58s-21.5 51.834 -21.5 84.501c0 39.333 10.667 74.666 32 105.999s52.166 56.166 92.499 74.499s88.833 27.5 145.5 27.5zM501.003 730.004h-103l-70 98l-70 -98h-103l104 162h138z" />
    <glyph glyph-name="scircumflex" unicode="&#x15d;" horiz-adv-x="531" 
d="M272 -10c-50.667 0 -96.833 9 -138.5 27s-75.5 43.333 -101.5 76l79 80c16 -24 37.333 -43.667 64 -59s58.334 -23 95.001 -23c26 0 46.833 3.83301 62.5 11.5s23.5 19.834 23.5 36.501c0 10.667 -3.66699 19.834 -11 27.501s-22 13.834 -44 18.501l-88 18
c-58 12 -99.167 30.167 -123.5 54.5s-36.5 55.833 -36.5 94.5c0 27.333 8.16699 53 24.5 77s40.833 43.5 73.5 58.5s73.334 22.5 122.001 22.5c50 0 93.5 -7.83301 130.5 -23.5s66.167 -38.834 87.5 -69.501l-82 -80c-14.667 23.333 -33.834 41.166 -57.501 53.499
s-48.5 18.5 -74.5 18.5c-18.667 0 -34.667 -2 -48 -6s-23.333 -9.5 -30 -16.5s-10 -15.833 -10 -26.5s4.66699 -19.834 14 -27.501s26.333 -14.167 51 -19.5l102 -21c49.333 -10 84.666 -26.833 105.999 -50.5s32 -52.167 32 -85.5c0 -32 -8.5 -60.5 -25.5 -85.5
s-42 -44.667 -75 -59s-73.5 -21.5 -121.5 -21.5zM450.001 565h-105l-75 98l-75 -98h-105l111 171h138z" />
    <glyph glyph-name="Scedilla" unicode="&#x15e;" horiz-adv-x="644" 
d="M327 670c60 0 112.67 -10.3291 158.003 -30.9961s84 -51.334 116 -92.001l-77 -89c-27.333 34.667 -57.166 60.167 -89.499 76.5s-69.833 24.5 -112.5 24.5c-28 0 -51.167 -3.66699 -69.5 -11s-31.666 -17 -39.999 -29s-12.5 -25.333 -12.5 -40c0 -18 7 -33.167 21 -45.5
s38 -22.5 72 -30.5l123 -28c65.333 -14.667 112.166 -36.5 140.499 -65.5s42.5 -66.5 42.5 -112.5c0 -43.333 -11.333 -80.5 -34 -111.5s-54.334 -54.667 -95.001 -71s-87.334 -24.5 -140.001 -24.5c-46 0 -88.167 5.5 -126.5 16.5s-72.5 26.167 -102.5 45.5
s-55 41.666 -75 66.999l78 93c15.333 -21.333 34.333 -40.333 57 -57s48.5 -29.834 77.5 -39.501s59.5 -14.5 91.5 -14.5c27.333 0 50.5 3.16699 69.5 9.5s33.333 15.333 43 27s14.5 25.834 14.5 42.501c0 17.333 -5.83301 32.166 -17.5 44.499s-33.167 21.833 -64.5 28.5
l-134 30c-38.667 9.33301 -71.834 21.5 -99.501 36.5s-48.667 34.333 -63 58s-21.5 51.834 -21.5 84.501c0 39.333 10.667 74.666 32 105.999s52.166 56.166 92.499 74.499s88.833 27.5 145.5 27.5zM255.003 8.00391l41 25.999c48 -9.33301 82.833 -24.666 104.5 -45.999
s32.5 -48.333 32.5 -81c0 -36 -12.167 -65.333 -36.5 -88s-56.833 -34 -97.5 -34c-23.333 0 -42.833 2.83301 -58.5 8.5s-29.167 12.5 -40.5 20.5l24 73c8.66699 -5.33301 17.834 -10 27.501 -14s21.5 -6 35.5 -6c17.333 0 31.666 5.33301 42.999 16s17 26 17 46
c0 16 -6.83301 30 -20.5 42s-37.5 24.333 -71.5 37z" />
    <glyph glyph-name="scedilla" unicode="&#x15f;" horiz-adv-x="531" 
d="M272 -10c-50.667 0 -96.833 9 -138.5 27s-75.5 43.333 -101.5 76l79 80c16 -24 37.333 -43.667 64 -59s58.334 -23 95.001 -23c26 0 46.833 3.83301 62.5 11.5s23.5 19.834 23.5 36.501c0 10.667 -3.66699 19.834 -11 27.501s-22 13.834 -44 18.501l-88 18
c-58 12 -99.167 30.167 -123.5 54.5s-36.5 55.833 -36.5 94.5c0 27.333 8.16699 53 24.5 77s40.833 43.5 73.5 58.5s73.334 22.5 122.001 22.5c50 0 93.5 -7.83301 130.5 -23.5s66.167 -38.834 87.5 -69.501l-82 -80c-14.667 23.333 -33.834 41.166 -57.501 53.499
s-48.5 18.5 -74.5 18.5c-18.667 0 -34.667 -2 -48 -6s-23.333 -9.5 -30 -16.5s-10 -15.833 -10 -26.5s4.66699 -19.834 14 -27.501s26.333 -14.167 51 -19.5l102 -21c49.333 -10 84.666 -26.833 105.999 -50.5s32 -52.167 32 -85.5c0 -32 -8.5 -60.5 -25.5 -85.5
s-42 -44.667 -75 -59s-73.5 -21.5 -121.5 -21.5zM203.001 8l41 25.999c48 -9.33301 82.833 -24.666 104.5 -45.999s32.5 -48.333 32.5 -81c0 -36 -12.167 -65.333 -36.5 -88s-56.833 -34 -97.5 -34c-23.333 0 -42.833 2.83301 -58.5 8.5s-29.167 12.5 -40.5 20.5l24 73
c8.66699 -5.33301 17.834 -10 27.501 -14s21.5 -6 35.5 -6c17.333 0 31.666 5.33301 42.999 16s17 26 17 46c0 16 -6.83301 30 -20.5 42s-37.5 24.333 -71.5 37z" />
    <glyph glyph-name="Scaron" unicode="&#x160;" horiz-adv-x="644" 
d="M327 670c60 0 112.67 -10.3291 158.003 -30.9961s84 -51.334 116 -92.001l-77 -89c-27.333 34.667 -57.166 60.167 -89.499 76.5s-69.833 24.5 -112.5 24.5c-28 0 -51.167 -3.66699 -69.5 -11s-31.666 -17 -39.999 -29s-12.5 -25.333 -12.5 -40c0 -18 7 -33.167 21 -45.5
s38 -22.5 72 -30.5l123 -28c65.333 -14.667 112.166 -36.5 140.499 -65.5s42.5 -66.5 42.5 -112.5c0 -43.333 -11.333 -80.5 -34 -111.5s-54.334 -54.667 -95.001 -71s-87.334 -24.5 -140.001 -24.5c-46 0 -88.167 5.5 -126.5 16.5s-72.5 26.167 -102.5 45.5
s-55 41.666 -75 66.999l78 93c15.333 -21.333 34.333 -40.333 57 -57s48.5 -29.834 77.5 -39.501s59.5 -14.5 91.5 -14.5c27.333 0 50.5 3.16699 69.5 9.5s33.333 15.333 43 27s14.5 25.834 14.5 42.501c0 17.333 -5.83301 32.166 -17.5 44.499s-33.167 21.833 -64.5 28.5
l-134 30c-38.667 9.33301 -71.834 21.5 -99.501 36.5s-48.667 34.333 -63 58s-21.5 51.834 -21.5 84.501c0 39.333 10.667 74.666 32 105.999s52.166 56.166 92.499 74.499s88.833 27.5 145.5 27.5zM501.003 892.004l-104 -162h-138l-104 162h103l70 -97l70 97h103z" />
    <glyph glyph-name="scaron" unicode="&#x161;" horiz-adv-x="531" 
d="M272 -10c-50.667 0 -96.833 9 -138.5 27s-75.5 43.333 -101.5 76l79 80c16 -24 37.333 -43.667 64 -59s58.334 -23 95.001 -23c26 0 46.833 3.83301 62.5 11.5s23.5 19.834 23.5 36.501c0 10.667 -3.66699 19.834 -11 27.501s-22 13.834 -44 18.501l-88 18
c-58 12 -99.167 30.167 -123.5 54.5s-36.5 55.833 -36.5 94.5c0 27.333 8.16699 53 24.5 77s40.833 43.5 73.5 58.5s73.334 22.5 122.001 22.5c50 0 93.5 -7.83301 130.5 -23.5s66.167 -38.834 87.5 -69.501l-82 -80c-14.667 23.333 -33.834 41.166 -57.501 53.499
s-48.5 18.5 -74.5 18.5c-18.667 0 -34.667 -2 -48 -6s-23.333 -9.5 -30 -16.5s-10 -15.833 -10 -26.5s4.66699 -19.834 14 -27.501s26.333 -14.167 51 -19.5l102 -21c49.333 -10 84.666 -26.833 105.999 -50.5s32 -52.167 32 -85.5c0 -32 -8.5 -60.5 -25.5 -85.5
s-42 -44.667 -75 -59s-73.5 -21.5 -121.5 -21.5zM447.001 742l-111 -170h-137l-111 170h105l75 -98l75 98h104z" />
    <glyph glyph-name="uni0162" unicode="&#x162;" horiz-adv-x="635" 
d="M259 5l31.999 28.999c48 -9.33301 82.833 -24.666 104.5 -45.999s32.5 -48.333 32.5 -81c0 -36 -12.167 -65.333 -36.5 -88s-56.833 -34 -97.5 -34c-23.333 0 -42.833 2.83301 -58.5 8.5s-29.167 12.5 -40.5 20.5l24 73c8.66699 -5.33301 17.834 -10 27.501 -14
s21.5 -6 35.5 -6c18 0 32.5 5.33301 43.5 16s16.5 26 16.5 46c0 16 -6.33301 29.833 -19 41.5s-34 23.167 -64 34.5zM607.999 659.999v-111h-221v-549h-138v549h-222v111h581z" />
    <glyph glyph-name="uni0163" unicode="&#x163;" horiz-adv-x="430" 
d="M249 653l0.00195312 -490c0 -24 6.16699 -41.5 18.5 -52.5s29.166 -16.5 50.499 -16.5c17.333 0 32.166 2.5 44.499 7.5s23.5 11.833 33.5 20.5l22 -91c-16 -12.667 -36 -22.667 -60 -30s-49.333 -11 -76 -11c-33.333 0 -62.833 5 -88.5 15s-45.667 26 -60 48
s-21.5 51.333 -21.5 88v474zM409.002 500v-102h-389v102h389zM187.002 8l41 25.999c48 -9.33301 82.833 -24.666 104.5 -45.999s32.5 -48.333 32.5 -81c0 -36 -12.167 -65.333 -36.5 -88s-56.833 -34 -97.5 -34c-23.333 0 -42.833 2.83301 -58.5 8.5
s-29.167 12.5 -40.5 20.5l24 73c8.66699 -5.33301 17.834 -10 27.501 -14s21.5 -6 35.5 -6c17.333 0 31.666 5.33301 42.999 16s17 26 17 46c0 16 -6.83301 30 -20.5 42s-37.5 24.333 -71.5 37z" />
    <glyph glyph-name="Tcaron" unicode="&#x164;" horiz-adv-x="635" 
d="M608 660v-111h-221v-549h-138v549h-222v111h581zM491 892l-104 -162h-138l-104 162h103l70 -97l70 97h103z" />
    <glyph glyph-name="tcaron" unicode="&#x165;" horiz-adv-x="430" 
d="M431 767l-49 -208h-81l20 208h110zM249 653l0.00195312 -490c0 -24 6.16699 -41.5 18.5 -52.5s29.166 -16.5 50.499 -16.5c17.333 0 32.166 2.5 44.499 7.5s23.5 11.833 33.5 20.5l22 -91c-16 -12.667 -36 -22.667 -60 -30s-49.333 -11 -76 -11
c-33.333 0 -62.833 5 -88.5 15s-45.667 26 -60 48s-21.5 51.333 -21.5 88v474zM409.002 500v-102h-389v102h389z" />
    <glyph glyph-name="Tbar" unicode="&#x166;" horiz-adv-x="635" 
d="M608 660v-111h-221v-549h-138v549h-222v111h581zM539 364v-111h-443v111h443z" />
    <glyph glyph-name="tbar" unicode="&#x167;" horiz-adv-x="431" 
d="M411 329v-84h-391v84h391zM249 653l-0.000976562 -490c0 -24 6.16699 -41.5 18.5 -52.5s29.5 -16.5 51.5 -16.5c16.667 0 31.334 2.5 44.001 7.5s24 11.833 34 20.5l21 -91c-15.333 -12.667 -35 -22.667 -59 -30s-49.333 -11 -76 -11c-33.333 0 -62.833 5 -88.5 15
s-45.667 26 -60 48s-21.833 51.333 -22.5 88v474zM409.999 500v-102h-389v102h389z" />
    <glyph glyph-name="Utilde" unicode="&#x168;" horiz-adv-x="710" 
d="M637 660l-0.000976562 -400c0 -90 -24 -157.5 -72 -202.5s-118 -67.5 -210 -67.5s-162 22.5 -210 67.5s-72 112.5 -72 202.5v400h138v-394c0 -55.333 11.833 -96.333 35.5 -123s59.834 -40 108.501 -40s84.667 13.333 108 40s35 67.667 35 123v394h139zM545.999 863
c-1.33301 -33.333 -7.16797 -61.167 -17.501 -83.5s-24.166 -39 -41.499 -50s-37.333 -16.5 -60 -16.5c-18.667 0 -34.667 3.16699 -48 9.5s-24.833 13.333 -34.5 21s-19 14.667 -28 21s-18.5 9.5 -28.5 9.5c-12.667 0 -22.167 -5.16699 -28.5 -15.5
s-10.833 -25.5 -13.5 -45.5h-84c2.66699 50 14.834 87.5 36.501 112.5s50.834 37.5 87.501 37.5c18 0 33.5 -3.16699 46.5 -9.5s24.167 -13.5 33.5 -21.5s18.166 -15 26.499 -21s17.5 -9 27.5 -9c13.333 0 23.166 5.16699 29.499 15.5s10.5 25.5 12.5 45.5h84z" />
    <glyph glyph-name="utilde" unicode="&#x169;" horiz-adv-x="618" 
d="M246 -10c-33.333 0 -63.3311 6 -89.998 18s-47.834 31.167 -63.501 57.5s-23.5 60.5 -23.5 102.5v332h137v-299c0 -38.667 8 -65.5 24 -80.5s39 -22.5 69 -22.5c14 0 27.667 2.5 41 7.5s25.166 12.833 35.499 23.5s18.5 24.5 24.5 41.5s9 37.167 9 60.5v269h137v-500
h-122l-5 87c-16.667 -33.333 -39.5 -57.833 -68.5 -73.5s-63.833 -23.5 -104.5 -23.5zM496.002 712c-1.33301 -33.333 -7.16797 -61.167 -17.501 -83.5s-24.166 -39 -41.499 -50s-37.333 -16.5 -60 -16.5c-18.667 0 -34.667 3.16699 -48 9.5s-24.833 13.333 -34.5 21
s-19 14.667 -28 21s-18.5 9.5 -28.5 9.5c-12.667 0 -22.167 -5.16699 -28.5 -15.5s-10.833 -25.5 -13.5 -45.5h-84c2.66699 50 14.834 87.5 36.501 112.5s50.834 37.5 87.501 37.5c18 0 33.5 -3.16699 46.5 -9.5s24.167 -13.5 33.5 -21.5s18.166 -15 26.499 -21
s17.5 -9 27.5 -9c13.333 0 23.166 5.16699 29.499 15.5s10.5 25.5 12.5 45.5h84z" />
    <glyph glyph-name="Umacron" unicode="&#x16a;" horiz-adv-x="710" 
d="M637 660l-0.000976562 -400c0 -90 -24 -157.5 -72 -202.5s-118 -67.5 -210 -67.5s-162 22.5 -210 67.5s-72 112.5 -72 202.5v400h138v-394c0 -55.333 11.833 -96.333 35.5 -123s59.834 -40 108.501 -40s84.667 13.333 108 40s35 67.667 35 123v394h139zM529.999 815v-91
h-350v91h350z" />
    <glyph glyph-name="umacron" unicode="&#x16b;" horiz-adv-x="618" 
d="M246 -10c-33.333 0 -63.3311 6 -89.998 18s-47.834 31.167 -63.501 57.5s-23.5 60.5 -23.5 102.5v332h137v-299c0 -38.667 8 -65.5 24 -80.5s39 -22.5 69 -22.5c14 0 27.667 2.5 41 7.5s25.166 12.833 35.499 23.5s18.5 24.5 24.5 41.5s9 37.167 9 60.5v269h137v-500
h-122l-5 87c-16.667 -33.333 -39.5 -57.833 -68.5 -73.5s-63.833 -23.5 -104.5 -23.5zM480.002 664v-91h-350v91h350z" />
    <glyph glyph-name="Ubreve" unicode="&#x16c;" horiz-adv-x="710" 
d="M637 660l-0.000976562 -400c0 -90 -24 -157.5 -72 -202.5s-118 -67.5 -210 -67.5s-162 22.5 -210 67.5s-72 112.5 -72 202.5v400h138v-394c0 -55.333 11.833 -96.333 35.5 -123s59.834 -40 108.501 -40s84.667 13.333 108 40s35 67.667 35 123v394h139zM515.999 865
c0 -48 -14.5 -86.167 -43.5 -114.5s-68.167 -42.5 -117.5 -42.5c-48.667 0 -87.667 14.167 -117 42.5s-44 66.5 -44 114.5h93c0 -21.333 5.83301 -39.166 17.5 -53.499s28.5 -21.5 50.5 -21.5c22.667 0 39.667 7.16699 51 21.5s17 32.166 17 53.499h93z" />
    <glyph glyph-name="ubreve" unicode="&#x16d;" horiz-adv-x="618" 
d="M246 -10c-33.333 0 -63.3311 6 -89.998 18s-47.834 31.167 -63.501 57.5s-23.5 60.5 -23.5 102.5v332h137v-299c0 -38.667 8 -65.5 24 -80.5s39 -22.5 69 -22.5c14 0 27.667 2.5 41 7.5s25.166 12.833 35.499 23.5s18.5 24.5 24.5 41.5s9 37.167 9 60.5v269h137v-500
h-122l-5 87c-16.667 -33.333 -39.5 -57.833 -68.5 -73.5s-63.833 -23.5 -104.5 -23.5zM466.002 714c0 -48 -14.5 -86.167 -43.5 -114.5s-68.167 -42.5 -117.5 -42.5c-48.667 0 -87.667 14.167 -117 42.5s-44 66.5 -44 114.5h93c0 -21.333 5.83301 -39.166 17.5 -53.499
s28.5 -21.5 50.5 -21.5c22.667 0 39.667 7.16699 51 21.5s17 32.166 17 53.499h93z" />
    <glyph glyph-name="Uring" unicode="&#x16e;" horiz-adv-x="710" 
d="M637 660l-0.000976562 -400c0 -90 -24 -157.5 -72 -202.5s-118 -67.5 -210 -67.5s-162 22.5 -210 67.5s-72 112.5 -72 202.5v400h138v-394c0 -55.333 11.833 -96.333 35.5 -123s59.834 -40 108.501 -40s84.667 13.333 108 40s35 67.667 35 123v394h139zM352.999 931
c40.667 0 73.167 -11.167 97.5 -33.5s36.5 -52.166 36.5 -89.499s-12.167 -67.166 -36.5 -89.499s-56.833 -33.5 -97.5 -33.5c-40 0 -72.5 11.167 -97.5 33.5s-37.5 52.166 -37.5 89.499s12.5 67.166 37.5 89.499s57.5 33.5 97.5 33.5zM352.999 867
c-17.333 0 -31.666 -5.5 -42.999 -16.5s-17 -25.167 -17 -42.5s5.66699 -31.333 17 -42s25.666 -16 42.999 -16c18 0 32.5 5.33301 43.5 16s16.5 24.667 16.5 42s-5.5 31.5 -16.5 42.5s-25.5 16.5 -43.5 16.5z" />
    <glyph glyph-name="uring" unicode="&#x16f;" horiz-adv-x="618" 
d="M246 -10c-33.333 0 -63.3311 6 -89.998 18s-47.834 31.167 -63.501 57.5s-23.5 60.5 -23.5 102.5v332h137v-299c0 -38.667 8 -65.5 24 -80.5s39 -22.5 69 -22.5c14 0 27.667 2.5 41 7.5s25.166 12.833 35.499 23.5s18.5 24.5 24.5 41.5s9 37.167 9 60.5v269h137v-500
h-122l-5 87c-16.667 -33.333 -39.5 -57.833 -68.5 -73.5s-63.833 -23.5 -104.5 -23.5zM303.002 800c40.667 0 73.167 -11.167 97.5 -33.5s36.5 -52.166 36.5 -89.499s-12.167 -67.166 -36.5 -89.499s-56.833 -33.5 -97.5 -33.5c-40 0 -72.5 11.167 -97.5 33.5
s-37.5 52.166 -37.5 89.499s12.5 67.166 37.5 89.499s57.5 33.5 97.5 33.5zM303.002 736c-17.333 0 -31.666 -5.5 -42.999 -16.5s-17 -25.167 -17 -42.5s5.66699 -31.333 17 -42s25.666 -16 42.999 -16c18 0 32.5 5.33301 43.5 16s16.5 24.667 16.5 42s-5.5 31.5 -16.5 42.5
s-25.5 16.5 -43.5 16.5z" />
    <glyph glyph-name="Uhungarumlaut" unicode="&#x170;" horiz-adv-x="710" 
d="M637 660l-0.000976562 -400c0 -90 -24 -157.5 -72 -202.5s-118 -67.5 -210 -67.5s-162 22.5 -210 67.5s-72 112.5 -72 202.5v400h138v-394c0 -55.333 11.833 -96.333 35.5 -123s59.834 -40 108.501 -40s84.667 13.333 108 40s35 67.667 35 123v394h139zM466.999 877h126
l-88 -162h-101zM260.999 877h126l-88 -162h-101z" />
    <glyph glyph-name="uhungarumlaut" unicode="&#x171;" horiz-adv-x="618" 
d="M246 -10c-33.333 0 -63.3311 6 -89.998 18s-47.834 31.167 -63.501 57.5s-23.5 60.5 -23.5 102.5v332h137v-299c0 -38.667 8 -65.5 24 -80.5s39 -22.5 69 -22.5c14 0 27.667 2.5 41 7.5s25.166 12.833 35.499 23.5s18.5 24.5 24.5 41.5s9 37.167 9 60.5v269h137v-500
h-122l-5 87c-16.667 -33.333 -39.5 -57.833 -68.5 -73.5s-63.833 -23.5 -104.5 -23.5zM339.002 566l72 170h123l-96 -170h-99zM140.002 566l72 170h123l-96 -170h-99z" />
    <glyph glyph-name="Uogonek" unicode="&#x172;" horiz-adv-x="710" 
d="M637 660l-0.000976562 -400c0 -90 -24 -157.5 -72 -202.5s-118 -67.5 -210 -67.5s-162 22.5 -210 67.5s-72 112.5 -72 202.5v400h138v-394c0 -55.333 11.833 -96.333 35.5 -123s59.834 -40 108.501 -40s84.667 13.333 108 40s35 67.667 35 123v394h139zM401.999 -219
c-40.667 0 -72.333 9.83105 -95 29.498s-34 45.834 -34 78.501c0 38.667 13.167 69 39.5 91s64.166 39 113.499 51l58 -21c-30.667 -10.667 -54.5 -21.167 -71.5 -31.5s-28.833 -20.833 -35.5 -31.5s-10 -22.667 -10 -36c0 -15.333 5.16699 -27.166 15.5 -35.499
s24.166 -12.5 41.499 -12.5c8.66699 0 17.334 0.833008 26.001 2.5s16.334 4.16699 23.001 7.5l16 -74c-11.333 -6 -24.333 -10.5 -39 -13.5s-30.667 -4.5 -48 -4.5z" />
    <glyph glyph-name="uogonek" unicode="&#x173;" horiz-adv-x="618" 
d="M469 -229c-23.333 0 -45.167 4 -65.5 12s-36.5 20.167 -48.5 36.5s-18 37.166 -18 62.499c0 28.667 6.5 52.334 19.5 71.001s30.833 34.5 53.5 47.5s48.667 24.167 78 33.5l58 -34c-37.333 -17.333 -64.333 -33.833 -81 -49.5s-25 -32.5 -25 -50.5
c0 -14.667 4.66699 -26.167 14 -34.5s22.666 -12.5 39.999 -12.5c8 0 16.167 0.833008 24.5 2.5s15.5 3.83398 21.5 6.50098l20 -70c-11.333 -6.66699 -24.666 -11.834 -39.999 -15.501s-32.333 -5.5 -51 -5.5zM245.999 -10c-33.333 0 -63.3311 6 -89.998 18
s-47.834 31.167 -63.501 57.5s-23.5 60.5 -23.5 102.5v332h137v-299c0 -38.667 8 -65.5 24 -80.5s39 -22.5 69 -22.5c14 0 27.667 2.5 41 7.5s25.166 12.833 35.499 23.5s18.5 24.5 24.5 41.5s9 37.167 9 60.5v269h137v-500h-122l-5 87
c-16.667 -33.333 -39.5 -57.833 -68.5 -73.5s-63.833 -23.5 -104.5 -23.5z" />
    <glyph glyph-name="Wcircumflex" unicode="&#x174;" horiz-adv-x="984" 
d="M211 0l-192 660h147l130 -545l132 545h132l134 -545l129 545h141l-192 -660h-155l-92 360l-31 156h-2l-31 -156l-91 -360h-159zM665 730h-103l-70 98l-70 -98h-103l104 162h138z" />
    <glyph glyph-name="wcircumflex" unicode="&#x175;" horiz-adv-x="876" 
d="M717 500h146l-160 -500h-158l-109 340l-105 -340h-158l-160 500h146l100 -383l111 383h136l112 -383zM618 565h-105l-75 98l-75 -98h-105l111 171h138z" />
    <glyph glyph-name="Ycircumflex" unicode="&#x176;" horiz-adv-x="626" 
d="M616 660l-234 -413v-247h-138v247l-234 413h147l106 -197l50 -104l51 104l106 197h146zM486 718h-103l-70 98l-70 -98h-103l104 162h138z" />
    <glyph glyph-name="ycircumflex" unicode="&#x177;" horiz-adv-x="546" 
d="M542 500l-202 -531c-16 -45.333 -33.833 -81.333 -53.5 -108s-42.334 -46 -68.001 -58s-56.167 -18 -91.5 -18c-26 0 -49.833 3.16699 -71.5 9.5s-40.5 14.5 -56.5 24.5l29 99c12.667 -10 26 -17.167 40 -21.5s30 -6.5 48 -6.5c18.667 0 34.834 4 48.501 12
s25.167 24 34.5 48l17 43l-55 130l-153 377h152l95 -300l26 -100l31 106l91 294h139zM463 559h-105l-75 98l-75 -98h-105l111 171h138z" />
    <glyph glyph-name="Ydieresis" unicode="&#x178;" horiz-adv-x="626" 
d="M616 660l-234 -413v-247h-138v247l-234 413h147l106 -197l50 -104l51 104l106 197h146zM207 853c23.333 0 41.833 -6.16699 55.5 -18.5s20.5 -29.5 20.5 -51.5c0 -21.333 -6.83301 -38.333 -20.5 -51s-32.167 -19 -55.5 -19c-22.667 0 -40.667 6.33301 -54 19
s-20 29.667 -20 51c0 22 6.66699 39.167 20 51.5s31.333 18.5 54 18.5zM417 853c24 0 42.667 -6.16699 56 -18.5s20 -29.5 20 -51.5c0 -21.333 -6.66699 -38.333 -20 -51s-32 -19 -56 -19c-22.667 0 -40.667 6.33301 -54 19s-20 29.667 -20 51c0 22 6.66699 39.167 20 51.5
s31.333 18.5 54 18.5z" />
    <glyph glyph-name="Zacute" unicode="&#x179;" horiz-adv-x="633" 
d="M156 62l-25 48h462v-110h-549v104l426 494l24 -48h-442v110h529v-104zM317 892h126l-88 -162h-101z" />
    <glyph glyph-name="zacute" unicode="&#x17a;" horiz-adv-x="523" 
d="M43 0v88l222 256l57 57l-83 -2h-194v101h429v-88l-221 -255l-57 -58l91 2h195v-101h-439zM255 742h132l-100 -170h-101z" />
    <glyph glyph-name="Zdotaccent" unicode="&#x17b;" horiz-adv-x="633" 
d="M156 62l-25 48h462v-110h-549v104l426 494l24 -48h-442v110h529v-104zM315 880c26 0 46 -6.5 60 -19.5s21 -30.833 21 -53.5c0 -23.333 -7 -41.333 -21 -54s-34 -19 -60 -19c-25.333 0 -45 6.33301 -59 19s-21 30.667 -21 54c0 22.667 7 40.5 21 53.5
s33.667 19.5 59 19.5z" />
    <glyph glyph-name="zdotaccent" unicode="&#x17c;" horiz-adv-x="523" 
d="M43 0v88l222 256l57 57l-83 -2h-194v101h429v-88l-221 -255l-57 -58l91 2h195v-101h-439zM252 720c26 0 46 -6.5 60 -19.5s21 -30.833 21 -53.5c0 -23.333 -7 -41.333 -21 -54s-34 -19 -60 -19c-25.333 0 -45 6.33301 -59 19s-21 30.667 -21 54c0 22.667 7 40.5 21 53.5
s33.667 19.5 59 19.5z" />
    <glyph glyph-name="Zcaron" unicode="&#x17d;" horiz-adv-x="633" 
d="M156 62l-25 48h462v-110h-549v104l426 494l24 -48h-442v110h529v-104zM488 892l-104 -162h-138l-104 162h103l70 -97l70 97h103z" />
    <glyph glyph-name="zcaron" unicode="&#x17e;" horiz-adv-x="523" 
d="M43 0v88l222 256l57 57l-83 -2h-194v101h429v-88l-221 -255l-57 -58l91 2h195v-101h-439zM429 742l-111 -170h-137l-111 170h105l75 -98l75 98h104z" />
    <glyph glyph-name="longs" unicode="&#x17f;" horiz-adv-x="301" 
d="M70 0v560.001c0 37.333 6.83301 68.666 20.5 93.999s33.334 44.166 59.001 56.499s55.834 18.5 90.501 18.5c22 0 40.167 -2 54.5 -6s26.166 -10 35.499 -18l-12 -91c-6.66699 4.66699 -13.334 8 -20.001 10s-14.667 3 -24 3c-21.333 0 -38.333 -6.16699 -51 -18.5
s-19 -32.166 -19 -59.499v-549h-134z" />
    <glyph glyph-name="uni018E" unicode="&#x18e;" horiz-adv-x="633" 
d="M547 0h-509v111h371v168h-281v106h281v164h-357v111h495v-660z" />
    <glyph glyph-name="uni018F" unicode="&#x18f;" horiz-adv-x="710" 
d="M340 -10c-60.667 0 -113.331 12.8359 -157.998 38.5029s-78.834 62 -102.501 109s-35.5 101.833 -35.5 164.5c0 9.33301 0.333008 18.666 1 27.999l2 29h529v-93h-461l72 47c-0.666992 -6.66699 -1.16699 -13 -1.5 -19s-0.5 -11.667 -0.5 -17
c0 -38 7.16699 -69.833 21.5 -95.5s33.833 -45.167 58.5 -58.5s52 -20 82 -20c36.667 0 67.5 8.5 92.5 25.5s44 42.833 57 77.5s19.5 78 19.5 130c0 47.333 -6.83301 87.5 -20.5 120.5s-33.5 58 -59.5 75s-57.667 25.5 -95 25.5c-40.667 0 -73.834 -10 -99.501 -30
s-44.167 -49 -55.5 -87l-133 34c14 43.333 35 79.5 63 108.5s61.333 50.833 100 65.5s80.667 22 126 22c65.333 0 121.5 -13.667 168.5 -41s83 -66.333 108 -117s37.5 -111.334 37.5 -182.001s-12.833 -131.334 -38.5 -182.001s-62.167 -89.667 -109.5 -117
s-103.333 -41 -168 -41z" />
    <glyph glyph-name="florin" unicode="&#x192;" horiz-adv-x="506" 
d="M403 730c22.667 0 41.168 -1.83203 55.501 -5.49902s29.833 -10.5 46.5 -20.5l-19 -94c-18 12.667 -38.667 19 -62 19c-21.333 0 -38.833 -6.83301 -52.5 -20.5s-22.834 -33.834 -27.501 -60.501l-85 -510c-8.66699 -54 -28.167 -95.167 -58.5 -123.5
s-70.5 -42.5 -120.5 -42.5c-23.333 0 -42.166 1.83301 -56.499 5.5s-29.5 10.5 -45.5 20.5l18 94c17.333 -12 38 -18 62 -18c22 0 39.833 6.66699 53.5 20s22.5 33 26.5 59l85 510c9.33301 54.667 29.166 96.167 59.499 124.5s70.5 42.5 120.5 42.5zM461.001 411.001v-101
h-417v101h417z" />
    <glyph glyph-name="Ohorn" unicode="&#x1a0;" horiz-adv-x="741" 
d="M666 766c0 -60 -16.6689 -106.667 -50.002 -140s-82.666 -50 -147.999 -50l-13 84c40.667 0 68.834 8.83301 84.501 26.5s23.5 44.167 23.5 79.5h103zM370.998 670c65.333 0 121.666 -13.667 168.999 -41s83.833 -66.333 109.5 -117s38.5 -111.334 38.5 -182.001
s-12.833 -131.334 -38.5 -182.001s-62.167 -89.667 -109.5 -117s-103.666 -41 -168.999 -41s-121.833 13.667 -169.5 41s-84.334 66.333 -110.001 117s-38.5 111.334 -38.5 182.001s12.833 131.334 38.5 182.001s62.334 89.667 110.001 117s104.167 41 169.5 41z
M370.998 557c-36.667 0 -68.167 -8.66699 -94.5 -26s-46.333 -43 -60 -77s-20.5 -75.333 -20.5 -124s6.83301 -90 20.5 -124s33.667 -59.667 60 -77s57.833 -26 94.5 -26s68 8.66699 94 26s45.833 43 59.5 77s20.5 75.333 20.5 124s-6.83301 90 -20.5 124
s-33.5 59.667 -59.5 77s-57.333 26 -94 26z" />
    <glyph glyph-name="ohorn" unicode="&#x1a1;" horiz-adv-x="599" 
d="M300 510c50.667 0 95.167 -10.333 133.5 -31s68.333 -50.334 90 -89.001s32.5 -85.334 32.5 -140.001c0 -54 -10.833 -100.5 -32.5 -139.5s-51.667 -68.833 -90 -89.5s-82.833 -31 -133.5 -31c-50 0 -94.333 10.333 -133 31s-68.834 50.5 -90.501 89.5
s-32.5 85.5 -32.5 139.5c0 54.667 10.833 101.334 32.5 140.001s51.834 68.334 90.501 89.001s83 31 133 31zM300 408c-25.333 0 -46.833 -5.83301 -64.5 -17.5s-31.167 -29.167 -40.5 -52.5s-14 -52.666 -14 -87.999s4.66699 -64.666 14 -87.999s22.833 -40.833 40.5 -52.5
s39.167 -17.5 64.5 -17.5c24.667 0 45.834 5.83301 63.501 17.5s31.167 29.167 40.5 52.5s14 52.666 14 87.999s-4.66699 64.666 -14 87.999s-22.833 40.833 -40.5 52.5s-38.834 17.5 -63.501 17.5zM379 422v78c24 0 42.667 8.66699 56 26s20 46.333 20 87h99
c0 -65.333 -15.667 -113.5 -47 -144.5s-74 -46.5 -128 -46.5z" />
    <glyph glyph-name="Uhorn" unicode="&#x1af;" horiz-adv-x="710" 
d="M637 660l-0.000976562 -400c0 -90 -24 -157.5 -72 -202.5s-118 -67.5 -210 -67.5s-162 22.5 -210 67.5s-72 112.5 -72 202.5v400h138v-394c0 -55.333 11.833 -96.333 35.5 -123s59.834 -40 108.501 -40s84.667 13.333 108 40s35 67.667 35 123v394h139zM746.999 766
c0 -60 -16 -106.667 -48 -140s-78.667 -50 -140 -50l-12 84c35.333 0 60.333 8.83301 75 26.5s22 44.167 22 79.5h103z" />
    <glyph glyph-name="uhorn" unicode="&#x1b0;" horiz-adv-x="626" 
d="M246 -10c-33.333 0 -63.3311 6 -89.998 18s-47.834 31.167 -63.501 57.5s-23.5 60.5 -23.5 102.5v332h137v-299c0 -38.667 8 -65.5 24 -80.5s39 -22.5 69 -22.5c14 0 27.667 2.5 41 7.5s25.166 12.833 35.499 23.5s18.5 24.5 24.5 41.5s9 37.167 9 60.5v269h137v-500
h-122l-5 87c-16.667 -33.333 -39.5 -57.833 -68.5 -73.5s-63.833 -23.5 -104.5 -23.5zM476.002 422v78c24 0 42.667 8.66699 56 26s20 46.333 20 87h99c0 -65.333 -15.667 -113.5 -47 -144.5s-74 -46.5 -128 -46.5z" />
    <glyph glyph-name="uni01C4" unicode="&#x1c4;" horiz-adv-x="1344" 
d="M341 660c103.333 0 183.333 -28.501 240 -85.501s85 -138.5 85 -244.5c0 -105.333 -28.333 -186.666 -85 -243.999s-136.667 -86 -240 -86h-255v660h255zM334 109.999c62.667 0 109.834 18.833 141.501 56.5s47.5 92.167 47.5 163.5s-15.833 125.833 -47.5 163.5
s-78.834 56.5 -141.501 56.5h-110v-440h110zM867 61.999l-25 48h462v-110h-549v104l426 494l24 -48h-442v110h529v-104zM1199 891.999l-104 -162h-138l-104 162h103l70 -97l70 97h103z" />
    <glyph glyph-name="uni01C5" unicode="&#x1c5;" horiz-adv-x="1238" 
d="M341 660c103.333 0 183.333 -28.501 240 -85.501s85 -138.5 85 -244.5c0 -105.333 -28.333 -186.666 -85 -243.999s-136.667 -86 -240 -86h-255v660h255zM334 109.999c62.667 0 109.834 18.833 141.501 56.5s47.5 92.167 47.5 163.5s-15.833 125.833 -47.5 163.5
s-78.834 56.5 -141.501 56.5h-110v-440h110zM758 -0.000976562v88l222 256l57 57l-83 -2h-194v101h429v-88l-221 -255l-57 -58l91 2h195v-101h-439zM1144 741.999l-111 -170h-137l-111 170h105l75 -98l75 98h104z" />
    <glyph glyph-name="uni01C6" unicode="&#x1c6;" horiz-adv-x="1150" 
d="M261 -10c-41.333 0 -78.1689 10.332 -110.502 30.999s-57.666 50.334 -75.999 89.001s-27.5 85 -27.5 139c0 55.333 9.66699 102.5 29 141.5s45.5 68.667 78.5 89s70.167 30.5 111.5 30.5c44 0 80.333 -12.667 109 -38s47.334 -58 56.001 -98l-13 -16v361h137v-719h-123
l-9 152l16 -8c-4 -31.333 -14.333 -58.5 -31 -81.5s-37.667 -40.833 -63 -53.5s-53.333 -19 -84 -19zM300.997 94.999c24 0 44.6641 6.16699 61.9971 18.5s30.833 30.5 40.5 54.5s14.5 52.667 14.5 86c0 32 -4.66699 59.167 -14 81.5s-22.666 39.5 -39.999 51.5
s-37.666 18 -60.999 18c-37.333 0 -66.5 -13.167 -87.5 -39.5s-31.5 -64.833 -31.5 -115.5s10.333 -89.167 31 -115.5s49.334 -39.5 86.001 -39.5zM669.994 -0.000976562v88l222 256l57 57l-83 -2h-194v101h429v-88l-221 -255l-57 -58l91 2h195v-101h-439zM1055.99 741.999
l-111 -170h-137l-111 170h105l75 -98l75 98h104z" />
    <glyph glyph-name="uni01C7" unicode="&#x1c7;" horiz-adv-x="1200" 
d="M224 111h348v-111h-486v660h138v-549zM1124 660l0.00195312 -417.001c0 -79.333 -22.333 -141.333 -67 -186s-108 -67 -190 -67c-58.667 0 -106.334 10.667 -143.001 32s-62 51.333 -76 90s-16.667 83 -8 133l134 24c-8 -58.667 -4.33301 -101 11 -127
s43.666 -39 84.999 -39c43.333 0 73.5 13.333 90.5 40s25.5 66.334 25.5 119.001v398h138z" />
    <glyph glyph-name="uni01C8" unicode="&#x1c8;" horiz-adv-x="883" 
d="M224 111h348v-111h-486v660h138v-549zM742 572c-28.667 0 -50 6.16699 -64 18.5s-21 30.5 -21 54.5c0 24.667 7 43.167 21 55.5s35.333 18.5 64 18.5s50 -6.16699 64 -18.5s21 -30.833 21 -55.5c0 -24 -7 -42.167 -21 -54.5s-35.333 -18.5 -64 -18.5zM810 500v-536.999
c0 -43.333 -7.83301 -78 -23.5 -104s-36.834 -44.833 -63.501 -56.5s-57 -17.5 -91 -17.5c-24.667 0 -47 2.83301 -67 8.5s-37.667 13.5 -53 23.5l22 98c8 -6.66699 18 -12.167 30 -16.5s25.333 -6.5 40 -6.5c20.667 0 37.334 6.16699 50.001 18.5s19 34.166 19 65.499v524
h137z" />
    <glyph glyph-name="uni01C9" unicode="&#x1c9;" horiz-adv-x="601" 
d="M207 719l0.00195312 -565c0 -23.333 4 -39.666 12 -48.999s21.333 -14 40 -14c11.333 0 20.666 0.833008 27.999 2.5s16.666 4.16699 27.999 7.5l-12 -90c-11.333 -6.66699 -25.5 -11.834 -42.5 -15.501s-33.833 -5.5 -50.5 -5.5c-48.667 0 -84.167 11.833 -106.5 35.5
s-33.5 61.5 -33.5 113.5v580h137zM460.002 572c-28.667 0 -50 6.16699 -64 18.5s-21 30.5 -21 54.5c0 24.667 7 43.167 21 55.5s35.333 18.5 64 18.5s50 -6.16699 64 -18.5s21 -30.833 21 -55.5c0 -24 -7 -42.167 -21 -54.5s-35.333 -18.5 -64 -18.5zM528.002 500v-536.999
c0 -43.333 -7.83301 -78 -23.5 -104s-36.834 -44.833 -63.501 -56.5s-57 -17.5 -91 -17.5c-24.667 0 -47 2.83301 -67 8.5s-37.667 13.5 -53 23.5l22 98c8 -6.66699 18 -12.167 30 -16.5s25.333 -6.5 40 -6.5c20.667 0 37.334 6.16699 50.001 18.5s19 34.166 19 65.499v524
h137z" />
    <glyph glyph-name="uni01CA" unicode="&#x1ca;" horiz-adv-x="1338" 
d="M653 660v-660h-158l-231 388l-57 108h-1l4 -114v-382h-124v660h157l231 -387l57 -109h2l-4 114v382h124zM1262 660l0.00195312 -417.001c0 -79.333 -22.333 -141.333 -67 -186s-108 -67 -190 -67c-58.667 0 -106.334 10.667 -143.001 32s-62 51.333 -76 90
s-16.667 83 -8 133l134 24c-8 -58.667 -4.33301 -101 11 -127s43.666 -39 84.999 -39c43.333 0 73.5 13.333 90.5 40s25.5 66.334 25.5 119.001v398h138z" />
    <glyph glyph-name="uni01CB" unicode="&#x1cb;" horiz-adv-x="1021" 
d="M653 660v-660h-158l-231 388l-57 108h-1l4 -114v-382h-124v660h157l231 -387l57 -109h2l-4 114v382h124zM880 572c-28.667 0 -50 6.16699 -64 18.5s-21 30.5 -21 54.5c0 24.667 7 43.167 21 55.5s35.333 18.5 64 18.5s50 -6.16699 64 -18.5s21 -30.833 21 -55.5
c0 -24 -7 -42.167 -21 -54.5s-35.333 -18.5 -64 -18.5zM948 500v-536.999c0 -43.333 -7.83301 -78 -23.5 -104s-36.834 -44.833 -63.501 -56.5s-57 -17.5 -91 -17.5c-24.667 0 -47 2.83301 -67 8.5s-37.667 13.5 -53 23.5l22 98c8 -6.66699 18 -12.167 30 -16.5
s25.333 -6.5 40 -6.5c20.667 0 37.334 6.16699 50.001 18.5s19 34.166 19 65.499v524h137z" />
    <glyph glyph-name="uni01CC" unicode="&#x1cc;" horiz-adv-x="901" 
d="M72 0l0.00195312 500h123l8 -150l-17 16c8 32.667 20.667 59.5 38 80.5s38.5 36.833 63.5 47.5s52.5 16 82.5 16c34.667 0 65.5 -6.66699 92.5 -20s48.333 -33.5 64 -60.5s23.5 -60.833 23.5 -101.5v-328h-137v289c0 42.667 -8.33301 72.167 -25 88.5
s-38.334 24.5 -65.001 24.5c-18.667 0 -36.834 -4.5 -54.501 -13.5s-32 -23.5 -43 -43.5s-16.5 -46.667 -16.5 -80v-265h-137zM760.002 572c-28.667 0 -50 6.16699 -64 18.5s-21 30.5 -21 54.5c0 24.667 7 43.167 21 55.5s35.333 18.5 64 18.5s50 -6.16699 64 -18.5
s21 -30.833 21 -55.5c0 -24 -7 -42.167 -21 -54.5s-35.333 -18.5 -64 -18.5zM828.002 500v-536.999c0 -43.333 -7.83301 -78 -23.5 -104s-36.834 -44.833 -63.501 -56.5s-57 -17.5 -91 -17.5c-24.667 0 -47 2.83301 -67 8.5s-37.667 13.5 -53 23.5l22 98
c8 -6.66699 18 -12.167 30 -16.5s25.333 -6.5 40 -6.5c20.667 0 37.334 6.16699 50.001 18.5s19 34.166 19 65.499v524h137z" />
    <glyph glyph-name="uni01DD" unicode="&#x1dd;" 
d="M278 510c53.333 0 99 -10.3262 137 -30.9932s67.5 -50.334 88.5 -89.001s31.5 -85.334 31.5 -140.001s-10.667 -101.334 -32 -140.001s-50.833 -68.334 -88.5 -89.001s-81.5 -31 -131.5 -31s-93 10.667 -129 32s-63.5 49.666 -82.5 84.999s-28.5 74 -28.5 116
c0 11.333 0.5 22.166 1.5 32.499l2.5 25.5h399v-76h-339l67 21c0 -27.333 4.5 -51.166 13.5 -71.499s21.667 -36 38 -47s35.833 -16.5 58.5 -16.5c26 0 47.833 6 65.5 18s31 30 40 54s13.5 53.667 13.5 89s-4.66699 64.666 -14 87.999s-23.166 40.5 -41.499 51.5
s-41.5 16.5 -69.5 16.5c-30 0 -54.333 -6.5 -73 -19.5s-33.334 -29.5 -44.001 -49.5l-110 42c12 25.333 29.167 47.666 51.5 66.999s48.333 34.5 78 45.5s62.167 16.5 97.5 16.5z" />
    <glyph glyph-name="Gcaron" unicode="&#x1e6;" horiz-adv-x="723" 
d="M357 -10c-60.667 0 -113.835 13.332 -159.502 39.999s-81.167 65.334 -106.5 116.001s-38 111.667 -38 183c0 70.667 13.333 131.5 40 182.5s64.334 90.167 113.001 117.5s105.667 41 171 41c71.333 0 129 -13.167 173 -39.5s79 -67.166 105 -122.499l-128 -55
c-10.667 35.333 -28.834 61.5 -54.501 78.5s-57.167 25.5 -94.5 25.5s-69.666 -8.83301 -96.999 -26.5s-48.333 -43.334 -63 -77.001s-22 -74.834 -22 -123.501c0 -50 7 -92.167 21 -126.5s34.833 -60 62.5 -77s61.834 -25.5 102.501 -25.5c22 0 42.5 2.66699 61.5 8
s35.5 13.333 49.5 24s25 24.334 33 41.001s12 36 12 58v15h-173v101h292v-348h-97l-10 144l24 -17c-14.667 -44 -40.5 -77.833 -77.5 -101.5s-83.5 -35.5 -139.5 -35.5zM542.999 891.999l-104 -162h-138l-104 162h103l70 -97l70 97h103z" />
    <glyph glyph-name="gcaron" unicode="&#x1e7;" horiz-adv-x="549" 
d="M533 619l16 -98c-2.66699 0 -5.5 0.166992 -8.5 0.5s-6.16699 0.5 -9.5 0.5c-30 0 -52.833 -6.83301 -68.5 -20.5s-23.5 -32.5 -23.5 -56.5l-56 23c0 26.667 5.33301 51.5 16 74.5s26.5 41.5 47.5 55.5s46.167 21 75.5 21h5h6zM369 94c54 0 95.667 -11.6689 125 -35.002
s44 -56 44 -98c0 -38 -11 -70.167 -33 -96.5s-52.833 -46.166 -92.5 -59.499s-85.5 -20 -137.5 -20c-86 0 -148.833 12 -188.5 36s-59.5 55.333 -59.5 94c0 27.333 10.5 50.333 31.5 69s55.833 29 104.5 31l-5 -16c-34.667 6 -61.167 17.5 -79.5 34.5s-27.5 40.5 -27.5 70.5
c0 30.667 11.833 55.834 35.5 75.501s55.834 31.167 96.501 34.5l60 -28h-14c-28.667 -2 -48.834 -7.83301 -60.501 -17.5s-17.5 -20.5 -17.5 -32.5c0 -14 5.5 -24.5 16.5 -31.5s26.833 -10.5 47.5 -10.5h154zM276 -121.002c34.667 0 63.167 3.00098 85.5 9.00098
s39 13.667 50 23s16.5 19.666 16.5 30.999c0 12.667 -5 22.834 -15 30.501s-28 11.5 -54 11.5h-169c-16 0 -29.167 -4 -39.5 -12s-15.5 -19 -15.5 -33c0 -18.667 12.5 -33.334 37.5 -44.001s59.5 -16 103.5 -16zM277 509.999c46.667 0 87.167 -6.83301 121.5 -20.5
s60.666 -33.167 78.999 -58.5s27.5 -55.666 27.5 -90.999c0 -34.667 -9.16699 -64.667 -27.5 -90s-44.666 -44.833 -78.999 -58.5s-74.833 -20.5 -121.5 -20.5c-74 0 -130.667 15.167 -170 45.5s-59 71.5 -59 123.5c0 35.333 9.33301 65.666 28 90.999s45 44.833 79 58.5
s74.667 20.5 122 20.5zM277 423.999c-26.667 0 -48.667 -7.33301 -66 -22s-26 -35 -26 -61s8.66699 -46.5 26 -61.5s39.333 -22.5 66 -22.5s48.5 7.5 65.5 22.5s25.5 35.5 25.5 61.5s-8.5 46.333 -25.5 61s-38.833 22 -65.5 22zM439 741.999l-111 -170h-137l-111 170h105
l75 -98l75 98h104z" />
    <glyph glyph-name="uni01EA" unicode="&#x1ea;" horiz-adv-x="741" 
d="M371 670c65.333 0 121.666 -13.667 168.999 -41s83.833 -66.333 109.5 -117s38.5 -111.334 38.5 -182.001s-12.833 -131.334 -38.5 -182.001s-62.167 -89.667 -109.5 -117s-103.666 -41 -168.999 -41s-121.833 13.667 -169.5 41s-84.334 66.333 -110.001 117
s-38.5 111.334 -38.5 182.001s12.833 131.334 38.5 182.001s62.334 89.667 110.001 117s104.167 41 169.5 41zM371 557c-36.667 0 -68.167 -8.66699 -94.5 -26s-46.333 -43 -60 -77s-20.5 -75.333 -20.5 -124s6.83301 -90 20.5 -124s33.667 -59.667 60 -77
s57.833 -26 94.5 -26s68 8.66699 94 26s45.833 43 59.5 77s20.5 75.333 20.5 124s-6.83301 90 -20.5 124s-33.5 59.667 -59.5 77s-57.333 26 -94 26zM403 -222c-40.667 0 -72.333 9.83105 -95 29.498s-34 45.834 -34 78.501c0 38.667 13.167 69 39.5 91
s64.166 39 113.499 51l58 -21c-30.667 -10.667 -54.5 -21.167 -71.5 -31.5s-28.833 -20.833 -35.5 -31.5s-10 -22.667 -10 -36c0 -15.333 5.16699 -27.166 15.5 -35.499s24.166 -12.5 41.499 -12.5c8.66699 0 17.334 0.833008 26.001 2.5s16.334 4.16699 23.001 7.5l16 -74
c-11.333 -6 -24.333 -10.5 -39 -13.5s-30.667 -4.5 -48 -4.5z" />
    <glyph glyph-name="uni01EB" unicode="&#x1eb;" horiz-adv-x="599" 
d="M300 510c50.667 0 95.167 -10.333 133.5 -31s68.333 -50.334 90 -89.001s32.5 -85.334 32.5 -140.001c0 -54 -10.833 -100.5 -32.5 -139.5s-51.667 -68.833 -90 -89.5s-82.833 -31 -133.5 -31c-50 0 -94.333 10.333 -133 31s-68.834 50.5 -90.501 89.5
s-32.5 85.5 -32.5 139.5c0 54.667 10.833 101.334 32.5 140.001s51.834 68.334 90.501 89.001s83 31 133 31zM300 408c-25.333 0 -46.833 -5.83301 -64.5 -17.5s-31.167 -29.167 -40.5 -52.5s-14 -52.666 -14 -87.999s4.66699 -64.666 14 -87.999s22.833 -40.833 40.5 -52.5
s39.167 -17.5 64.5 -17.5c24.667 0 45.834 5.83301 63.501 17.5s31.167 29.167 40.5 52.5s14 52.666 14 87.999s-4.66699 64.666 -14 87.999s-22.833 40.833 -40.5 52.5s-38.834 17.5 -63.501 17.5zM334 -216c-40.667 0 -72.333 9.83105 -95 29.498s-34 45.834 -34 78.501
c0 38.667 13.167 69 39.5 91s64.166 39 113.499 51l58 -21c-30.667 -10.667 -54.5 -21.167 -71.5 -31.5s-28.833 -20.833 -35.5 -31.5s-10 -22.667 -10 -36c0 -15.333 5.16699 -27.166 15.5 -35.499s24.166 -12.5 41.499 -12.5c8.66699 0 17.334 0.833008 26.001 2.5
s16.334 4.16699 23.001 7.5l16 -74c-11.333 -6 -24.333 -10.5 -39 -13.5s-30.667 -4.5 -48 -4.5z" />
    <glyph glyph-name="uni01F1" unicode="&#x1f1;" horiz-adv-x="1344" 
d="M341 660c103.333 0 183.333 -28.501 240 -85.501s85 -138.5 85 -244.5c0 -105.333 -28.333 -186.666 -85 -243.999s-136.667 -86 -240 -86h-255v660h255zM334 109.999c62.667 0 109.834 18.833 141.501 56.5s47.5 92.167 47.5 163.5s-15.833 125.833 -47.5 163.5
s-78.834 56.5 -141.501 56.5h-110v-440h110zM867 61.999l-25 48h462v-110h-549v104l426 494l24 -48h-442v110h529v-104z" />
    <glyph glyph-name="uni01F2" unicode="&#x1f2;" horiz-adv-x="1238" 
d="M341 660c103.333 0 183.333 -28.501 240 -85.501s85 -138.5 85 -244.5c0 -105.333 -28.333 -186.666 -85 -243.999s-136.667 -86 -240 -86h-255v660h255zM334 109.999c62.667 0 109.834 18.833 141.501 56.5s47.5 92.167 47.5 163.5s-15.833 125.833 -47.5 163.5
s-78.834 56.5 -141.501 56.5h-110v-440h110zM758 -0.000976562v88l222 256l57 57l-83 -2h-194v101h429v-88l-221 -255l-57 -58l91 2h195v-101h-439z" />
    </font>
</defs>
</svg>
